<?xml version="1.0" standalone="no"?>
<!DOCTYPE svg PUBLIC "-//W3C//DTD SVG 1.1//EN" "http://www.w3.org/Graphics/SVG/1.1/DTD/svg11.dtd" >
<svg xmlns="http://www.w3.org/2000/svg" xmlns:xlink="http://www.w3.org/1999/xlink" version="1.1">
<metadata>
Created by FontForge 20170910 at Tue Feb  4 22:12:51 2014
 By Jimmy Wärting
Copyright (c) 2011 ParaType Inc., ParaType Ltd. All rights reserved.
</metadata>
<defs>
<font id="Circe-Bold" horiz-adv-x="596" >
  <font-face 
    font-family="Circe Bold"
    font-weight="700"
    font-stretch="normal"
    units-per-em="1000"
    panose-1="2 11 6 2 2 2 3 2 2 3"
    ascent="800"
    descent="-200"
    x-height="450"
    cap-height="700"
    bbox="-512 -423 1676 1012"
    underline-thickness="50"
    underline-position="-200"
    unicode-range="U+0020-FB02"
  />
<missing-glyph horiz-adv-x="212" 
 />
    <glyph glyph-name="uniF350.var.accented" unicode="&#xf350;`" horiz-adv-x="611" 
d="M129 0h-123l245 526h109l245 -526h-131l-49 108h-247zM374 222l-72 161l-73 -161h145zM361 776l71 -88l-149 -118l-55 64z" />
    <glyph glyph-name="uniF355.var.accented" unicode="&#xf355;`" horiz-adv-x="498" 
d="M446 0h-368v525h359v-115h-237v-88h213v-115h-213v-92h246v-115zM307 776l71 -88l-149 -118l-55 64z" />
    <glyph glyph-name="uniF358.var.accented" unicode="&#xf358;`" horiz-adv-x="663" 
d="M463 330l-278 -330h-107v525h122v-330l278 330h107v-525h-122v330zM382 776l71 -88l-149 -118l-55 64z" />
    <glyph glyph-name="uniF35E.var.accented" unicode="&#xf35e;`" horiz-adv-x="659" 
d="M35 261q0 117 82 193q83 78 212 78t212 -74t83 -197q0 -119 -84 -196q-82 -76 -211 -76t-212 74q-82 73 -82 198zM165 261q0 -67 47 -112q48 -45 117 -45q77 0 121 43.5t44 113.5q0 69 -47 113q-46 43 -118 43t-118 -43.5t-46 -112.5zM392 776l71 -88l-149 -118l-55 64z
" />
    <glyph glyph-name="uniF363.var.accented" unicode="&#xf363;`" horiz-adv-x="567" 
d="M434 525h126l-198 -397q-62 -128 -169 -128q-44 0 -78 23l43 104q21 -12 41 -12q29 0 45 30l9 14l-244 366h154l152 -245zM352 776l71 -88l-149 -118l-55 64z" />
    <glyph glyph-name="uniF36B.var.accented" unicode="&#xf36b;`" horiz-adv-x="736" 
d="M658 0h-123v525h123v-525zM247 250q-21 0 -47 -2v-133q22 -2 46 -2q95 0 95 71q0 66 -94 66zM78 525h122v-163q22 3 57 3q104 0 159 -47t55 -131q0 -87 -64 -138t-176 -51q-51 0 -86 1t-67 1v525zM412 776l71 -88l-149 -118l-55 64z" />
    <glyph glyph-name="uniF36D.var.accented" unicode="&#xf36d;`" horiz-adv-x="562" 
d="M398 210h-244v115h240q-33 94 -167 94q-97 0 -156 -38l-47 92q80 61 208 61q130 0 212 -75q83 -75 83 -197q0 -126 -84 -199q-84 -72 -227 -72q-59 0 -113 15.5t-84 39.5l52 103q64 -43 160 -43q138 0 167 104zM292 776l71 -88l-149 -118l-55 64z" />
    <glyph glyph-name="uniF36E.var.accented" unicode="&#xf36e;`" horiz-adv-x="877" 
d="M200 0h-122v525h122v-200h83q19 95 91.5 152t181.5 57q133 0 209 -73q77 -74 77 -198q0 -122 -78 -197q-76 -75 -208 -75q-110 0 -184 59t-90 160h-82v-210zM408 263q0 -69 42 -113t110 -44q72 0 112 43t40 114t-41.5 113.5t-110.5 42.5q-68 0 -110 -43t-42 -113z
M473 776l71 -88l-149 -118l-55 64z" />
    <glyph glyph-name="uniF36F.var.accented" unicode="&#xf36f;`" horiz-adv-x="559" 
d="M481 0h-123v160h-92l-110 -160h-145l136 187q-89 51 -89 147q0 82 60 138q61 56 180 56q16 0 104 -2q44 -1 79 -1v-525zM256 275h102v135q-33 3 -72 3q-47 0 -72.5 -19t-25.5 -52q0 -26 19.5 -43.5t48.5 -23.5zM332 776l71 -88l-149 -118l-55 64z" />
    <glyph glyph-name="uniF371.var.accented" unicode="&#xf371;`" horiz-adv-x="498" 
d="M89 645q0 27 18.5 43.5t46.5 16.5q23 0 40.5 -17.5t17.5 -42.5q0 -27 -17 -44.5t-41 -17.5q-28 0 -46.5 16.5t-18.5 45.5zM308 645q0 26 18.5 43t45.5 17q25 0 42.5 -17t17.5 -43q0 -28 -17.5 -45t-42.5 -17q-28 0 -46 16.5t-18 45.5zM446 0h-368v525h359v-115h-237v-88
h213v-115h-213v-92h246v-115zM332 866l71 -88l-149 -118l-55 64z" />
    <glyph glyph-name="afii10017.var.accented" unicode="&#x410;`" horiz-adv-x="715" 
d="M131 0h-124l296 702h108l296 -702h-131l-73 179h-299zM456 294l-102 249l-103 -249h205zM486 911l43 -99l-225 -81l-32 69z" />
    <glyph glyph-name="afii10022.var.accented" unicode="&#x415;`" horiz-adv-x="575" 
d="M512 0h-415v700h405v-115h-282v-174h252v-115h-252v-181h292v-115zM446 911l43 -99l-225 -81l-32 69z" />
    <glyph glyph-name="afii10026.var.accented" unicode="&#x418;`" horiz-adv-x="792" 
d="M572 497l-367 -497h-108v700h123v-498l367 498h108v-700h-123v497zM536 911l43 -99l-225 -81l-32 69z" />
    <glyph glyph-name="afii10032.var.accented" unicode="&#x41e;`" horiz-adv-x="819" 
d="M45 350q0 153 102 257q104 104 262 104t261 -100q104 -101 104 -261q0 -157 -104 -259t-261 -102q-158 0 -261 100t-103 261zM175 350q0 -106 67 -176t167 -70q108 0 171 70q64 70 64 176q0 107 -68 177q-68 69 -167 69q-101 0 -168 -69q-66 -69 -66 -177zM546 911
l43 -99l-225 -81l-32 69z" />
    <glyph glyph-name="afii10037.var.accented" unicode="&#x423;`" horiz-adv-x="683" 
d="M547 700h124l-238 -537q-37 -84 -82.5 -123.5t-107.5 -39.5t-96 28l43 104q26 -17 52 -17q47 0 69 49l10 24l-309 512h139l229 -391zM494 911l43 -99l-225 -81l-32 69z" />
    <glyph glyph-name="afii10045.var.accented" unicode="&#x42b;`" horiz-adv-x="864" 
d="M767 0h-122v700h122v-700zM288 350q-16 0 -68 -5v-229q8 0 32 -1.5t34 -1.5q138 0 138 123q0 56 -35 85t-101 29zM97 700h123v-240q43 5 78 5q125 0 190.5 -59.5t65.5 -166.5q0 -112 -75.5 -176.5t-207.5 -64.5q-56 0 -97 1q-40 1 -77 1v700zM551 911l43 -99l-225 -81
l-32 69z" />
    <glyph glyph-name="afii10047.var.accented" unicode="&#x42d;`" horiz-adv-x="673" 
d="M502 299h-315v115h312q-18 86 -85 134t-167 48q-92 0 -164 -54l-48 92q91 77 241 77q156 0 254 -99q98 -100 98 -261q0 -165 -99 -264q-100 -98 -267 -98q-70 0 -133 20t-102 53l53 103q79 -61 180 -61q96 0 161.5 51.5t80.5 143.5zM416 911l43 -99l-225 -81l-32 69z" />
    <glyph glyph-name="afii10048.var.accented" unicode="&#x42e;`" horiz-adv-x="1081" 
d="M220 0h-123v700h123v-286h119q20 131 112 214q94 83 230 83q157 0 256 -100q99 -99 99 -261q0 -159 -100 -260q-99 -101 -255 -101q-135 0 -232 85q-95 85 -112 225h-117v-299zM464 350q0 -105 64 -175q65 -71 157 -71q106 0 163 69q58 68 58 177q0 110 -61 177
q-62 69 -160 69q-95 0 -158 -69t-63 -177zM696 911l43 -99l-225 -81l-32 69z" />
    <glyph glyph-name="afii10049.var.accented" unicode="&#x42f;`" horiz-adv-x="633" 
d="M535 0h-122v242h-101l-157 -242h-138l179 267q-56 28 -89.5 78t-33.5 116q0 105 72 173q72 69 216 69q2 0 88 -2q44 -1 86 -1v-700zM301 357h112v228q-51 3 -77 3q-60 0 -96.5 -33t-36.5 -86q0 -44 27.5 -73.5t70.5 -38.5zM494 911l43 -99l-225 -81l-32 69z" />
    <glyph glyph-name="afii10023.var.accented" unicode="&#x401;`" horiz-adv-x="575" 
d="M97 824q0 29 17 46t42 17q22 0 38.5 -18t16.5 -45q0 -30 -16 -48.5t-39 -18.5q-26 0 -42.5 18t-16.5 49zM399 824q0 27 17.5 45t42.5 18q22 0 38 -18t16 -45q0 -30 -16 -48.5t-38 -18.5q-25 0 -42.5 18.5t-17.5 48.5zM302 911l99 -27l-133 -144l-41 19zM512 0h-415v700
h405v-115h-282v-174h252v-115h-252v-181h292v-115z" />
    <glyph glyph-name="afii10065.var.accented" unicode="&#x430;`" horiz-adv-x="463" 
d="M99 334l-29 84q73 43 159 43q94 0 137 -46t43 -141v-274h-100v52q-40 -58 -133 -58q-64 0 -102.5 37.5t-38.5 100.5q0 70 45 108t119 38q61 0 102 -29q2 60 -17.5 88t-66.5 28q-52 0 -118 -31zM214 91q58 0 87 41v46q-28 22 -79 22q-32 0 -52 -15t-20 -41q0 -24 18 -38.5
t46 -14.5zM280 730l90 -68l-126 -145l-69 48z" />
    <glyph glyph-name="afii10070.var.accented" unicode="&#x435;`" horiz-adv-x="516" 
d="M417 126l33 -81q-67 -56 -172 -56q-108 0 -176 65q-66 64 -66 171q0 100 65 168t173 68q89 0 151 -59t62 -150q0 -40 -7 -62h-325q7 -49 43.5 -77t91.5 -28q75 0 127 41zM269 365q-98 0 -118 -98h221q1 43 -27.5 70.5t-75.5 27.5zM307 730l90 -68l-126 -145l-69 48z" />
    <glyph glyph-name="afii10074.var.accented" unicode="&#x438;`" horiz-adv-x="568" 
d="M389 285l-210 -285h-115v450h115v-285l210 285h115v-450h-115v285zM316 730l90 -68l-126 -145l-69 48z" />
    <glyph glyph-name="afii10080.var.accented" unicode="&#x43e;`" horiz-adv-x="562" 
d="M103 55q-67 67 -67 170t67 169q67 67 178 67q110 0 177 -67q68 -66 68 -169q0 -102 -68 -170q-68 -66 -177 -66q-111 0 -178 66zM159 225q0 -56 34.5 -92.5t87.5 -36.5q54 0 88.5 36t34.5 93q0 56 -35 92t-88 36q-52 0 -87 -36t-35 -92zM321 730l90 -68l-126 -145l-69 48
z" />
    <glyph glyph-name="afii10085.var.accented" unicode="&#x443;`" horiz-adv-x="503" 
d="M367 450h131l-177 -450q-48 -117 -86 -158q-37 -42 -88 -42q-48 0 -97 35l37 87q26 -16 47 -16q41 0 69 70l10 24l-208 450h138l105 -246q2 -5 22 -65q6 37 16 66zM292 730l90 -68l-126 -145l-69 48z" />
    <glyph glyph-name="afii10093.var.accented" unicode="&#x44b;`" horiz-adv-x="676" 
d="M226 0h-162v450h115v-123h56q101 0 149.5 -42t48.5 -114q0 -77 -52 -124t-155 -47zM612 0h-115v450h115v-450zM225 235h-46v-135h45q87 0 87 67q0 68 -86 68zM352 730l90 -68l-126 -145l-69 48z" />
    <glyph glyph-name="afii10095.var.accented" unicode="&#x44d;`" horiz-adv-x="496" 
d="M341 189h-201v77h200q-11 46 -45.5 70.5t-83.5 24.5q-64 0 -129 -47l-47 80q29 32 77.5 49.5t96.5 17.5q116 0 183 -64q68 -65 68 -172q0 -101 -65 -169q-64 -67 -175 -67q-123 0 -187 67l54 76q49 -43 126 -43q52 0 85.5 26t42.5 74zM254 730l90 -68l-126 -145l-69 48z
" />
    <glyph glyph-name="afii10096.var.accented" unicode="&#x44e;`" horiz-adv-x="772" 
d="M186 0h-122v450h122v-163h80q18 80 79 127t149 47q108 0 175 -67q67 -66 67 -169q0 -101 -68 -169q-67 -67 -174 -67q-91 0 -152.5 49.5t-77.5 133.5h-78v-172zM389 225q0 -56 29.5 -88.5t78.5 -32.5t79 32.5t30 88.5t-29.5 88.5t-79.5 32.5q-48 0 -78 -33t-30 -88z
M429 730l90 -68l-126 -145l-69 48z" />
    <glyph glyph-name="afii10097.var.accented" unicode="&#x44f;`" horiz-adv-x="495" 
d="M284 450h147v-450h-115v135h-64l-93 -135h-132l120 160q-37 13 -62 47.5t-25 82.5q0 74 56.5 117t167.5 43zM183 282q0 -26 22 -44t51 -18h60v130h-51q-38 0 -60 -19.5t-22 -48.5zM313 730l90 -68l-126 -145l-69 48z" />
    <glyph glyph-name="afii10071.var.accented" unicode="&#x451;`" horiz-adv-x="516" 
d="M72 588q0 23 15.5 38t37.5 15q21 0 35.5 -15t14.5 -38q0 -25 -14.5 -40.5t-35.5 -15.5q-24 0 -38.5 15t-14.5 41zM361 588q0 23 15.5 38t37.5 15q21 0 35.5 -15t14.5 -38q0 -26 -14 -41t-36 -15q-24 0 -38.5 15t-14.5 41zM299 719l75 -57l-126 -145l-53 38zM417 126
l33 -81q-67 -56 -172 -56q-108 0 -176 65q-66 64 -66 171q0 100 65 168t173 68q89 0 151 -59t62 -150q0 -40 -7 -62h-325q7 -49 43.5 -77t91.5 -28q75 0 127 41zM269 365q-98 0 -118 -98h221q1 43 -27.5 70.5t-75.5 27.5z" />
    <glyph glyph-name="fi" unicode="fi" horiz-adv-x="530" 
d="M477 0h-115v342h-178v-342h-115v506q0 101 52.5 153t147.5 52q133 0 193 -94l-83 -65q-31 51 -89 51q-55 0 -80.5 -25t-25.5 -82v-46h293v-450z" />
    <glyph glyph-name="fl" unicode="fl" horiz-adv-x="570" 
d="M334 124v455q-34 24 -71 24q-79 0 -79 -89v-64h81v-108h-81v-342h-115v523q0 91 42 139.5t118 48.5q71 0 118 -30h102v-510q0 -73 39 -73q22 0 48 18l24 -88q-47 -38 -119 -38q-107 0 -107 134z" />
    <glyph glyph-name=".notdef" horiz-adv-x="212" 
 />
    <glyph glyph-name=".null" horiz-adv-x="0" 
 />
    <glyph glyph-name="nonmarkingreturn" horiz-adv-x="333" 
 />
    <glyph glyph-name="space" unicode=" " horiz-adv-x="212" 
 />
    <glyph glyph-name="exclam" unicode="!" horiz-adv-x="310" 
d="M216 242h-122v458h122v-458zM78 75q0 29 22.5 51.5t57.5 22.5q30 0 51.5 -22.5t21.5 -51.5q0 -33 -21.5 -56.5t-51.5 -23.5q-35 0 -57.5 23.5t-22.5 56.5z" />
    <glyph glyph-name="quotedbl" unicode="&#x22;" horiz-adv-x="432" 
d="M364 459h-115v241h115v-241zM182 459h-115v241h115v-241z" />
    <glyph glyph-name="numbersign" unicode="#" horiz-adv-x="724" 
d="M402 -11l-89 32l59 159h-153l-71 -191l-89 31l59 160h-78v100h115l52 140h-167v100h205l71 191l89 -32l-59 -159h151l71 191l89 -31l-59 -160h86v-100h-123l-52 -140h175v-100h-212zM460 420h-152l-52 -140h153z" />
    <glyph glyph-name="dollar" unicode="$" 
d="M398 186q0 32 -23.5 56.5t-58.5 40t-76.5 36t-76.5 43t-58.5 63t-23.5 93.5q0 67 45.5 119t119.5 68v85h115v-83q95 -15 146 -71l-66 -92q-53 52 -124 52q-51 0 -78.5 -20.5t-27.5 -56.5q0 -18 7 -33.5t15.5 -25.5t28 -22t31 -17.5t38.5 -17.5t38 -17q44 -20 77 -42
q37 -22 59.5 -63t22.5 -94q0 -74 -45.5 -125.5t-121.5 -66.5v-95h-115v94q-61 10 -108 37.5t-65 67.5l70 84q28 -37 72.5 -58t88.5 -21t69 21.5t25 60.5z" />
    <glyph glyph-name="percent" unicode="%" horiz-adv-x="911" 
d="M92 401q-55 49 -55 130q0 80 55 129t142 49q86 0 141 -49q56 -50 56 -129q0 -80 -56 -130q-55 -49 -141 -49q-87 0 -142 49zM145 531q0 -39 25 -62.5t64 -23.5q40 0 65 23.5t25 62.5q0 38 -25.5 61.5t-64.5 23.5t-64 -23.5t-25 -61.5zM534 39q-55 49 -55 130q0 80 55 129
t142 49q86 0 141 -49q56 -50 56 -129q0 -80 -56 -130q-55 -49 -141 -49q-87 0 -142 49zM587 169q0 -39 25 -62.5t64 -23.5q40 0 65 23.5t25 62.5q0 38 -25.5 61.5t-64.5 23.5t-64 -23.5t-25 -61.5zM236 -11l-66 46l505 676l65 -49z" />
    <glyph glyph-name="ampersand" unicode="&#x26;" horiz-adv-x="753" 
d="M703 0h-143l-59 73q-77 -84 -206 -84q-105 0 -170 56q-65 57 -65 145q0 79 39 130q42 54 116 105q-80 38 -80 134q0 70 49 110q50 42 117 42t117 -42q49 -40 49 -110q0 -45 -26.5 -84t-63.5 -51l136 -177q47 92 47 203h114q0 -171 -92 -295zM299 104q88 0 133 61
l-142 194q-55 -44 -77.5 -76.5t-22.5 -69.5q0 -46 31.5 -77.5t77.5 -31.5zM242 559q0 -24 17 -41t42 -17t42 17t17 41q0 25 -17.5 42t-41.5 17q-25 0 -42 -17t-17 -42z" />
    <glyph glyph-name="quotesingle" unicode="'" horiz-adv-x="250" 
d="M182 459h-115v241h115v-241z" />
    <glyph glyph-name="parenleft" unicode="(" horiz-adv-x="315" 
d="M315 -143l-73 -63q-202 174 -202 431q0 248 203 431l71 -63q-82 -81 -120.5 -169.5t-38.5 -198.5q0 -105 43 -201.5t117 -166.5z" />
    <glyph glyph-name="parenright" unicode=")" horiz-adv-x="315" 
d="M73 -206l-73 63q74 70 117 166.5t43 201.5q0 110 -38.5 198.5t-120.5 169.5l71 63q203 -183 203 -431q0 -257 -202 -431z" />
    <glyph glyph-name="asterisk" unicode="*" horiz-adv-x="540" 
d="M199 638q0 30 21.5 51t51.5 21q29 0 50.5 -21.5t21.5 -50.5q0 -30 -21 -51.5t-51 -21.5q-31 0 -52 21t-21 52zM197 332q0 30 21 52t51 22q29 0 50.5 -22t21.5 -52q0 -29 -21.5 -50t-50.5 -21q-30 0 -51 21t-21 50zM339 568q0 29 22 51t51 22q30 0 51.5 -22t21.5 -51
q0 -30 -21.5 -51t-51.5 -21t-51.5 21t-21.5 51zM339 405q0 30 22 52t51 22q30 0 51.5 -22t21.5 -52q0 -29 -21.5 -50t-51.5 -21q-29 0 -51 21t-22 50zM55 405q0 30 21.5 52t50.5 22q31 0 52.5 -22t21.5 -52q0 -29 -21.5 -50t-52.5 -21q-29 0 -50.5 21t-21.5 50zM55 568
q0 29 21.5 51t50.5 22q31 0 52.5 -21.5t21.5 -51.5t-21.5 -51t-52.5 -21q-29 0 -50.5 21t-21.5 51z" />
    <glyph glyph-name="plus" unicode="+" 
d="M243 310h-177v100h177v181h108v-181h179v-100h-179v-183h-108v183z" />
    <glyph glyph-name="comma" unicode="," horiz-adv-x="252" 
d="M47 64q0 33 20.5 53t56.5 20q39 0 63.5 -31.5t24.5 -80.5q0 -63 -33.5 -108t-93.5 -62l-31 54q45 17 61 53q15 31 9 46q-6 -8 -26 -8q-21 0 -36 18.5t-15 45.5z" />
    <glyph glyph-name="hyphen" unicode="-" horiz-adv-x="376" 
d="M314 220h-252v107h252v-107z" />
    <glyph glyph-name="period" unicode="." horiz-adv-x="243" 
d="M45 75q0 29 22.5 51.5t57.5 22.5q30 0 51.5 -22.5t21.5 -51.5q0 -33 -21.5 -56.5t-51.5 -23.5q-35 0 -57.5 23.5t-22.5 56.5z" />
    <glyph glyph-name="slash" unicode="/" horiz-adv-x="359" 
d="M59 -208l-89 33l330 886l89 -33z" />
    <glyph glyph-name="zero" unicode="0" horiz-adv-x="554" 
d="M277 708q117 0 175 -96q59 -97 59 -262q0 -170 -59 -264t-173 -94q-115 0 -176 95t-61 263q0 169 60 263.5t175 94.5zM165 350q0 -251 114 -251q59 0 84.5 59t25.5 192q0 132 -26 191t-86 59q-59 0 -85.5 -60.5t-26.5 -189.5z" />
    <glyph glyph-name="one" unicode="1" horiz-adv-x="389" 
d="M83 473l-61 95l179 134h83v-702h-115v538z" />
    <glyph glyph-name="two" unicode="2" horiz-adv-x="524" 
d="M477 0h-440v92q121 118 167 171q124 142 124 239q0 43 -23 67t-66 24q-77 0 -101 -94l-96 43q14 77 70.5 121.5t139.5 44.5q94 0 146 -54q52 -53 52 -129q0 -54 -23 -115q-23 -59 -53 -103q-31 -46 -73 -90q-36 -40 -66 -68q-15 -14 -49 -42h291v-107z" />
    <glyph glyph-name="three" unicode="3" horiz-adv-x="530" 
d="M244 -11q-77 0 -135.5 31.5t-86.5 86.5l65 84q59 -87 150 -87q53 0 83 27t30 70q0 48 -34.5 73.5t-95.5 25.5h-50v115h45q46 0 77 27t31 69q0 40 -23 62.5t-66 22.5q-81 0 -132 -75l-64 81q58 109 207 109q91 0 146 -48.5t55 -129.5q0 -119 -107 -166v-3
q63 -11 98.5 -56.5t35.5 -110.5q0 -95 -65 -152q-65 -56 -164 -56z" />
    <glyph glyph-name="four" unicode="4" horiz-adv-x="565" 
d="M450 0h-115v162h-320v85l270 453h132l-253 -423h171v173h115v-173h90v-115h-90v-162z" />
    <glyph glyph-name="five" unicode="5" horiz-adv-x="514" 
d="M81 328l46 372h331v-115h-230l-20 -139q20 4 40 4q96 0 157 -61q63 -61 63 -162q0 -109 -69 -174q-68 -64 -172 -64q-57 0 -117 26q-56 26 -88 74l66 87q21 -32 61.5 -52t80.5 -20q50 0 82.5 33t32.5 85q0 55 -40.5 89.5t-108.5 34.5q-73 0 -115 -18z" />
    <glyph glyph-name="six" unicode="6" horiz-adv-x="559" 
d="M45 248q0 90 31 172.5t84 141.5q104 117 229 149l47 -87q-92 -28 -160.5 -95t-94.5 -161q47 65 144 65q82 0 139 -60t57 -154q0 -105 -68 -168q-68 -62 -158 -62q-115 0 -182 75q-68 76 -68 184zM167 247q0 -63 34.5 -103t94.5 -40q45 0 74 31t29 76q0 51 -30 83t-83 32
q-81 0 -119 -79z" />
    <glyph glyph-name="seven" unicode="7" horiz-adv-x="497" 
d="M327 585h-302v115h440v-77l-248 -623h-126z" />
    <glyph glyph-name="eight" unicode="8" horiz-adv-x="600" 
d="M291 417h19q38 0 64 26.5t26 63.5q0 42 -28 65.5t-74 23.5q-45 0 -72 -25t-27 -64q0 -37 26.5 -63.5t65.5 -26.5zM310 302h-17q-47 0 -80 -27.5t-33 -71.5q0 -43 32.5 -71t86.5 -28q59 0 90.5 27t30.5 72q-1 46 -31 72.5t-79 26.5zM57 181q0 64 33 111.5t87 65.5v3
q-44 19 -72 63.5t-28 102.5q0 81 64 132q64 52 158 52q95 0 159 -52q65 -51 65 -132q0 -53 -29.5 -98.5t-78.5 -66.5v-3q55 -12 91 -57.5t36 -110.5q0 -94 -69 -148q-67 -54 -173 -54t-174 52q-69 53 -69 140z" />
    <glyph glyph-name="nine" unicode="9" horiz-adv-x="555" 
d="M510 444q0 -194 -102 -316q-100 -119 -257 -139l-38 91q217 43 261 244q-46 -63 -133 -63q-88 0 -150 62q-61 61 -61 155q0 104 71 169q70 64 161 64q115 0 181 -74q67 -73 67 -193zM388 445q0 66 -34 108.5t-92 42.5q-48 0 -79 -33q-31 -32 -31 -77q0 -49 32.5 -83
t84.5 -34q83 0 119 76z" />
    <glyph glyph-name="colon" unicode=":" horiz-adv-x="318" 
d="M82 387q0 29 22.5 51.5t57.5 22.5q30 0 51.5 -22.5t21.5 -51.5q0 -33 -21.5 -56.5t-51.5 -23.5q-35 0 -57.5 23.5t-22.5 56.5zM82 75q0 29 22.5 51.5t57.5 22.5q30 0 51.5 -22.5t21.5 -51.5q0 -33 -21.5 -56.5t-51.5 -23.5q-35 0 -57.5 23.5t-22.5 56.5z" />
    <glyph glyph-name="semicolon" unicode=";" horiz-adv-x="324" 
d="M83 64q0 33 20.5 53t56.5 20q39 0 63.5 -31.5t24.5 -80.5q0 -63 -33.5 -108t-93.5 -62l-31 54q45 17 61 53q15 31 9 46q-6 -8 -26 -8q-21 0 -36 18.5t-15 45.5zM82 387q0 29 22.5 51.5t57.5 22.5q30 0 51.5 -22.5t21.5 -51.5q0 -33 -21.5 -56.5t-51.5 -23.5
q-35 0 -57.5 23.5t-22.5 56.5z" />
    <glyph glyph-name="less" unicode="&#x3c;" 
d="M513 191v-125l-464 271v49l464 269v-124l-306 -169z" />
    <glyph glyph-name="equal" unicode="=" 
d="M530 405h-464v100h464v-100zM530 215h-464v100h464v-100z" />
    <glyph glyph-name="greater" unicode="&#x3e;" 
d="M547 386v-49l-465 -271v125l307 171l-307 169v124z" />
    <glyph glyph-name="question" unicode="?" horiz-adv-x="473" 
d="M231 596q-74 0 -123 -64l-68 77q28 46 81 74t117 28q98 0 153 -51q57 -50 57 -125q0 -66 -26 -106.5t-73 -78.5q-6 -5 -15.5 -13t-15 -12.5t-14 -12.5t-12.5 -12.5t-10.5 -13t-8.5 -14.5t-5.5 -16t-2 -18t1.5 -20l-105 -1q-6 37 -0.5 65.5t25 52t32 34t40.5 31.5
q66 46 66 110q0 36 -27 61t-67 25zM140 75q0 29 22.5 51.5t56.5 22.5q31 0 52.5 -22.5t21.5 -51.5q0 -33 -21 -56.5t-53 -23.5q-34 0 -56.5 23.5t-22.5 56.5z" />
    <glyph glyph-name="at" unicode="@" horiz-adv-x="996" 
d="M714 0h-115v36q-50 -47 -124 -47q-101 0 -161 65q-60 64 -60 171q0 101 73 168q74 68 185 68q116 0 202 -54v-300h20q42 0 69.5 46t27.5 120q0 119 -89 202t-234 83q-147 0 -245 -91q-98 -92 -98 -242q0 -143 99 -238q101 -95 244 -95q57 0 108 12l5 -107
q-56 -13 -113 -13q-195 0 -323 125t-128 316q0 185 129 313q128 127 322 127q187 0 308 -109q122 -108 122 -283q0 -109 -60 -189q-58 -79 -164 -84zM496 96q59 0 103 47v188q-45 22 -88 22q-62 0 -98 -37.5t-36 -95.5q0 -57 32.5 -90.5t86.5 -33.5z" />
    <glyph glyph-name="A" unicode="A" horiz-adv-x="715" 
d="M131 0h-124l296 702h108l296 -702h-131l-73 179h-299zM456 294l-102 249l-103 -249h205z" />
    <glyph glyph-name="B" unicode="B" horiz-adv-x="617" 
d="M97 1v697q108 5 202 5q116 0 173 -46t57 -127q0 -113 -100 -159v-2q57 -15 90 -56.5t33 -106.5q0 -102 -70 -156t-190 -54t-195 5zM307 301h-87v-185q47 -5 81 -5q128 0 128 101q0 44 -32 66.5t-90 22.5zM297 588q-44 0 -77 -3v-177h83q47 0 75.5 24t28.5 69
q0 42 -29 64.5t-81 22.5z" />
    <glyph glyph-name="C" unicode="C" horiz-adv-x="655" 
d="M583 160l47 -92q-33 -35 -94.5 -57t-129.5 -22q-160 0 -261 99q-100 99 -100 262q0 156 95 259q94 102 263 102q134 0 213 -71l-55 -91q-71 47 -158 47q-100 0 -164 -67t-64 -179q0 -110 67 -178q68 -68 175 -68q92 0 166 56z" />
    <glyph glyph-name="D" unicode="D" horiz-adv-x="741" 
d="M111 0h-14v700h13q44 0 93 1q98 2 100 2q204 0 302 -104q91 -97 91 -242q0 -156 -105 -258q-104 -101 -296 -101q-40 0 -84 1q-43 1 -100 1zM301 588q-39 0 -81 -3v-470q46 -2 79 -2q125 0 196 66t71 178q0 107 -70.5 169t-194.5 62z" />
    <glyph glyph-name="E" unicode="E" horiz-adv-x="575" 
d="M512 0h-415v700h405v-115h-282v-174h252v-115h-252v-181h292v-115z" />
    <glyph glyph-name="F" unicode="F" horiz-adv-x="537" 
d="M220 0h-123v700h400v-115h-277v-198h247v-115h-247v-272z" />
    <glyph glyph-name="G" unicode="G" horiz-adv-x="727" 
d="M557 262h-169v115h284v-290q-45 -45 -120 -72q-75 -26 -142 -26q-170 0 -268 98q-97 97 -97 263q0 154 96 257q96 104 253 104q134 0 225 -71l-52 -98q-26 25 -69 39.5t-89 14.5q-105 0 -169 -66q-65 -65 -65 -180q0 -111 65 -179q64 -67 172 -67q38 0 82 14q44 15 63 34
v110z" />
    <glyph glyph-name="H" unicode="H" horiz-adv-x="759" 
d="M662 0h-122v299h-320v-299h-123v700h123v-286h320v286h122v-700z" />
    <glyph glyph-name="I" unicode="I" horiz-adv-x="347" 
d="M235 0h-123v700h123v-700z" />
    <glyph glyph-name="J" unicode="J" horiz-adv-x="390" 
d="M170 700h123v-535q0 -85 -43 -130.5t-126 -45.5q-37 0 -70 12.5t-49 30.5l40 94q28 -22 62 -22q63 0 63 82v514z" />
    <glyph glyph-name="K" unicode="K" horiz-adv-x="672" 
d="M220 0h-123v700h123v-332l276 332h148l-288 -326l306 -374h-156l-286 361v-361z" />
    <glyph glyph-name="L" unicode="L" horiz-adv-x="547" 
d="M535 0h-438v700h123v-585h315v-115z" />
    <glyph glyph-name="M" unicode="M" horiz-adv-x="901" 
d="M220 0h-123v700h124l239 -327l228 327h116v-700h-122v506l-221 -311h-18l-223 308v-503z" />
    <glyph glyph-name="N" unicode="N" horiz-adv-x="792" 
d="M695 700v-700h-98l-385 485v-485h-115v700h98l385 -487v487h115z" />
    <glyph glyph-name="O" unicode="O" horiz-adv-x="819" 
d="M45 350q0 153 102 257q104 104 262 104t261 -100q104 -101 104 -261q0 -157 -104 -259t-261 -102q-158 0 -261 100t-103 261zM175 350q0 -106 67 -176t167 -70q108 0 171 70q64 70 64 176q0 107 -68 177q-68 69 -167 69q-101 0 -168 -69q-66 -69 -66 -177z" />
    <glyph glyph-name="P" unicode="P" horiz-adv-x="612" 
d="M220 253v-253h-123v700q44 0 95 1q52 1 104 1q74 0 128.5 -18.5t84.5 -51t44 -71t14 -84.5q0 -95 -68 -161q-67 -66 -188 -66q-61 0 -91 3zM308 587l-88 -2v-215q53 -5 87 -5q59 0 94.5 29t35.5 84q0 109 -129 109z" />
    <glyph glyph-name="Q" unicode="Q" horiz-adv-x="819" 
d="M45 350q0 153 102 257q104 104 262 104t261 -100q104 -101 104 -261q0 -150 -96 -250l86 -100h-143l-29 33q-80 -44 -183 -44q-158 0 -261 100t-103 261zM175 350q0 -106 67 -176t167 -70q57 0 105 22l-59 69l80 72l62 -73q47 67 47 156q0 107 -68 177q-68 69 -167 69
q-101 0 -168 -69q-66 -69 -66 -177z" />
    <glyph glyph-name="R" unicode="R" horiz-adv-x="658" 
d="M220 262v-262h-123v700q52 0 113 1t100 1q254 0 254 -216q0 -80 -41 -132q-41 -50 -94 -68l219 -286h-149l-193 262h-86zM304 587q-5 0 -16 -0.5t-31 -1t-37 -0.5v-208h80q59 0 96.5 29t37.5 79q0 102 -130 102z" />
    <glyph glyph-name="S" unicode="S" horiz-adv-x="553" 
d="M378 186q0 32 -23.5 56.5t-58.5 40t-76.5 36t-76.5 43t-58.5 63t-23.5 93.5q0 81 59 137q61 56 159 56q133 0 200 -75l-66 -92q-53 52 -124 52q-45 0 -71.5 -21t-26.5 -56q0 -18 7 -33.5t15.5 -25.5t28 -22t31 -17.5t38.5 -17.5t38 -17q44 -20 77 -42q37 -22 59.5 -63
t22.5 -94q0 -88 -67 -143t-167 -55q-70 0 -139 29q-66 30 -90 81l70 84q28 -37 72.5 -58t88.5 -21q46 0 74 22t28 60z" />
    <glyph glyph-name="T" unicode="T" horiz-adv-x="597" 
d="M237 585h-227v115h577v-115h-227v-585h-123v585z" />
    <glyph glyph-name="U" unicode="U" horiz-adv-x="751" 
d="M541 700h122v-410q0 -151 -79 -226q-80 -75 -199 -75q-135 0 -217 79q-81 79 -81 229v403h123v-377q0 -104 44.5 -161.5t130.5 -57.5q156 0 156 211v385z" />
    <glyph glyph-name="V" unicode="V" horiz-adv-x="656" 
d="M535 700h123l-280 -702h-93l-288 702h131l208 -519z" />
    <glyph glyph-name="W" unicode="W" horiz-adv-x="985" 
d="M862 700h118l-200 -700h-115l-169 506l-166 -506h-116l-209 700h138l141 -499l156 499h122l160 -500z" />
    <glyph glyph-name="X" unicode="X" horiz-adv-x="669" 
d="M506 700h144l-236 -343l245 -357h-144l-181 263l-180 -263h-144l245 357l-234 343h144l172 -253z" />
    <glyph glyph-name="Y" unicode="Y" horiz-adv-x="629" 
d="M491 700h133l-249 -408v-292h-123v292l-247 408h140l174 -293z" />
    <glyph glyph-name="Z" unicode="Z" horiz-adv-x="642" 
d="M427 585h-367v115h532v-85l-388 -500h398v-115h-562v84z" />
    <glyph glyph-name="bracketleft" unicode="[" horiz-adv-x="350" 
d="M335 -200h-275v850h275v-108h-160v-635h160v-107z" />
    <glyph glyph-name="backslash" unicode="\" horiz-adv-x="359" 
d="M-30 678l88 33l331 -886l-90 -33z" />
    <glyph glyph-name="bracketright" unicode="]" horiz-adv-x="350" 
d="M15 650h275v-850h-275v107h160v635h-160v108z" />
    <glyph glyph-name="asciicircum" unicode="^" horiz-adv-x="507" 
d="M154 450h-124l185 258h79l183 -258h-125l-98 143z" />
    <glyph glyph-name="underscore" unicode="_" horiz-adv-x="344" 
d="M344 -200h-344v115h344v-115z" />
    <glyph glyph-name="grave" unicode="`" horiz-adv-x="315" 
d="M255 565l-68 -48l-127 143l91 68z" />
    <glyph glyph-name="a" unicode="a" horiz-adv-x="463" 
d="M99 334l-29 84q73 43 159 43q94 0 137 -46t43 -141v-274h-100v52q-40 -58 -133 -58q-64 0 -102.5 37.5t-38.5 100.5q0 70 45 108t119 38q61 0 102 -29q2 60 -17.5 88t-66.5 28q-52 0 -118 -31zM214 91q58 0 87 41v46q-28 22 -79 22q-32 0 -52 -15t-20 -41q0 -24 18 -38.5
t46 -14.5z" />
    <glyph glyph-name="b" unicode="b" horiz-adv-x="548" 
d="M64 39v661h115v-278q49 39 119 39q99 0 156 -64q58 -62 58 -165q0 -111 -70 -177q-69 -66 -187 -66q-52 0 -104.5 14t-86.5 36zM271 353q-55 0 -92 -43v-191q37 -23 82 -23q57 0 92.5 34.5t35.5 93.5q0 61 -33 95t-85 34z" />
    <glyph glyph-name="c" unicode="c" horiz-adv-x="487" 
d="M405 151l54 -84q-57 -78 -179 -78q-109 0 -177 65q-67 64 -67 171q0 101 66 168q66 68 167 68q120 0 181 -61l-54 -91q-46 44 -112 44q-50 0 -88 -36q-37 -34 -37 -92t38 -94q40 -35 92 -35q67 0 116 55z" />
    <glyph glyph-name="d" unicode="d" horiz-adv-x="556" 
d="M492 0h-115v47q-52 -55 -129 -55q-95 0 -154 62q-58 62 -58 166q0 106 69 173q70 68 178 68q57 0 94 -22v261h115v-700zM272 99q59 0 105 46v181q-43 27 -89 27q-55 0 -92 -35t-37 -94q0 -57 32 -91t81 -34z" />
    <glyph glyph-name="e" unicode="e" horiz-adv-x="516" 
d="M417 126l33 -81q-67 -56 -172 -56q-108 0 -176 65q-66 64 -66 171q0 100 65 168t173 68q89 0 151 -59t62 -150q0 -40 -7 -62h-325q7 -49 43.5 -77t91.5 -28q75 0 127 41zM269 365q-98 0 -118 -98h221q1 43 -27.5 70.5t-75.5 27.5z" />
    <glyph glyph-name="f" unicode="f" horiz-adv-x="325" 
d="M184 0h-115v523q0 91 42 139.5t118 48.5q85 0 126 -42l-39 -88q-22 22 -66 22q-66 0 -66 -89v-64h122v-108h-122v-342z" />
    <glyph glyph-name="g" unicode="g" horiz-adv-x="499" 
d="M5 -61q0 53 39 88.5t107 50.5q-8 14 -8 31q0 19 10 32q-50 20 -78.5 60.5t-28.5 90.5q0 69 53 119t139 50q65 0 115 -32l136 30l4 -92l-75 -17q11 -30 11 -58q0 -68 -53 -118q-52 -48 -138 -48h-8q-2 -8 -2 -17q0 -13 6 -23h5q105 0 169 -37q65 -38 65 -110t-65 -110
q-64 -37 -169 -37q-108 0 -171 37.5t-63 109.5zM112 -61q0 -26 33.5 -40.5t93.5 -14.5q126 0 126 55q0 25 -33 40t-93 15q-59 0 -93 -15t-34 -40zM238 219q37 0 60.5 20t23.5 53q0 34 -23 55t-61 21t-61 -21.5t-23 -54.5q0 -32 23 -52.5t61 -20.5z" />
    <glyph glyph-name="h" unicode="h" horiz-adv-x="546" 
d="M179 0h-115v700h115v-291q50 49 129 49q185 0 185 -197v-261h-115v246q0 50 -26 77t-74 27q-58 0 -99 -41v-309z" />
    <glyph glyph-name="i" unicode="i" horiz-adv-x="277" 
d="M196 0h-115v450h115v-450zM69 612q0 30 20.5 48.5t51.5 18.5q27 0 46.5 -19t19.5 -48q0 -32 -19.5 -52t-46.5 -20q-31 0 -51.5 20t-20.5 52z" />
    <glyph glyph-name="j" unicode="j" horiz-adv-x="284" 
d="M87 450h115v-483q0 -175 -141 -175q-73 0 -110 32l31 91q25 -16 51 -16q54 0 54 78v473zM76 612q0 30 20.5 48.5t51.5 18.5q27 0 46.5 -19t19.5 -48q0 -32 -19.5 -52t-46.5 -20q-31 0 -51.5 20t-20.5 52z" />
    <glyph glyph-name="k" unicode="k" horiz-adv-x="514" 
d="M342 450h145l-169 -206l189 -244h-148l-178 235zM179 0h-115v700h115v-700z" />
    <glyph glyph-name="l" unicode="l" horiz-adv-x="299" 
d="M64 124v576h115v-529q0 -73 39 -73q22 0 47 18l24 -88q-47 -38 -119 -38q-106 0 -106 134z" />
    <glyph glyph-name="m" unicode="m" horiz-adv-x="800" 
d="M747 294v-294h-115v264q0 86 -77 86q-66 0 -93 -52q0 -2 0.5 -15.5t0.5 -17.5v-265h-115v272q0 36 -19.5 57t-55.5 21q-63 0 -94 -48v-302h-115v450h115v-50q52 58 141 58q49 0 83.5 -19.5t47.5 -52.5q55 72 152 72q144 0 144 -164z" />
    <glyph glyph-name="n" unicode="n" horiz-adv-x="546" 
d="M179 0h-115v450h115v-45q50 53 129 53q185 0 185 -194v-264h-115v244q0 106 -101 106q-55 0 -98 -43v-307z" />
    <glyph glyph-name="o" unicode="o" horiz-adv-x="562" 
d="M103 55q-67 67 -67 170t67 169q67 67 178 67q110 0 177 -67q68 -66 68 -169q0 -102 -68 -170q-68 -66 -177 -66q-111 0 -178 66zM159 225q0 -56 34.5 -92.5t87.5 -36.5q54 0 88.5 36t34.5 93q0 56 -35 92t-88 36q-52 0 -87 -36t-35 -92z" />
    <glyph glyph-name="p" unicode="p" horiz-adv-x="558" 
d="M179 -200h-115v650h115v-43q22 24 60 39t79 15q93 0 148 -64q56 -65 56 -165q0 -105 -66 -174t-172 -69q-68 0 -105 22v-211zM282 353q-60 0 -103 -49v-182q41 -26 95 -26q57 0 91.5 37t34.5 96q0 56 -31.5 90t-86.5 34z" />
    <glyph glyph-name="q" unicode="q" horiz-adv-x="559" 
d="M496 -200h-115v223q-52 -34 -111 -34q-107 0 -171 64q-63 65 -63 172q0 101 73 168q74 68 185 68q116 0 202 -54v-607zM285 96q58 0 96 41v194q-45 22 -88 22q-62 0 -98 -37.5t-36 -95.5q0 -54 34.5 -89t91.5 -35z" />
    <glyph glyph-name="r" unicode="r" horiz-adv-x="354" 
d="M179 0h-115v450h115v-44q37 52 103 52q47 0 70 -17l-41 -108q-29 17 -58 17q-50 0 -74 -48v-302z" />
    <glyph glyph-name="s" unicode="s" horiz-adv-x="444" 
d="M49 324q0 63 46 100t119 37q110 0 171 -57l-43 -82q-55 43 -122 43q-24 0 -40 -11.5t-16 -27.5q0 -33 85 -55q31 -7 55 -15.5t49.5 -24t39.5 -40.5t14 -58q0 -66 -49.5 -105t-132.5 -39q-59 0 -115 25q-57 26 -73 52l56 75q19 -23 63 -39q45 -17 77 -17q39 -4 55 25.5
t-21 48.5q-15 8 -46.5 17t-58 18.5t-54 24.5t-43.5 41.5t-16 63.5z" />
    <glyph glyph-name="t" unicode="t" horiz-adv-x="360" 
d="M54 171v404h115v-125h145v-108h-145v-164q0 -81 54 -81q34 0 69 26l35 -89q-55 -44 -133 -44q-73 0 -106.5 44.5t-33.5 136.5z" />
    <glyph glyph-name="u" unicode="u" horiz-adv-x="535" 
d="M356 450h115v-450h-115v55q-54 -66 -144 -66q-72 0 -115 48t-43 138v275h115v-251q0 -103 86 -103q59 0 101 55v299z" />
    <glyph glyph-name="v" unicode="v" horiz-adv-x="481" 
d="M362 450h121l-194 -452h-85l-207 452h137l83 -193q21 -47 34 -102q14 57 33 104z" />
    <glyph glyph-name="w" unicode="w" horiz-adv-x="721" 
d="M600 450h116l-142 -452h-103l-96 250q-5 10 -9 30l-6 23q-7 -33 -16 -55l-95 -248h-98l-146 452h123l72 -245q4 -9 13 -60q10 40 17 60l84 245h102l87 -244q4 -11 17 -62q13 62 14 65z" />
    <glyph glyph-name="x" unicode="x" horiz-adv-x="522" 
d="M361 450h133l-150 -215l160 -235h-140l-105 162l-109 -162h-133l160 229l-150 221h141l95 -149z" />
    <glyph glyph-name="y" unicode="y" horiz-adv-x="503" 
d="M367 450h131l-177 -450q-48 -117 -86 -158q-37 -42 -88 -42q-48 0 -97 35l37 87q26 -16 47 -16q41 0 69 70l10 24l-208 450h138l105 -246q2 -5 22 -65q6 37 16 66z" />
    <glyph glyph-name="z" unicode="z" horiz-adv-x="490" 
d="M286 342h-229v108h390v-83l-244 -260h239v-107h-400v83z" />
    <glyph glyph-name="braceleft" unicode="{" horiz-adv-x="362" 
d="M110 -54v131q0 51 -25.5 75t-64.5 23v100q39 0 64.5 27t25.5 83v112q0 80 36.5 116.5t120.5 36.5h75v-108h-46q-40 0 -55.5 -18.5t-15.5 -66.5v-117q0 -48 -20.5 -78.5t-54.5 -35.5q75 -9 75 -114v-119q0 -46 17.5 -66t59.5 -20h40v-107h-82q-76 0 -113 34.5t-37 111.5z
" />
    <glyph glyph-name="bar" unicode="|" horiz-adv-x="340" 
d="M227 0h-115v700h115v-700z" />
    <glyph glyph-name="braceright" unicode="}" horiz-adv-x="362" 
d="M252 77v-131q0 -77 -36.5 -111.5t-112.5 -34.5h-83v107h40q42 0 59.5 20t17.5 66v119q0 105 75 114q-34 5 -54.5 35.5t-20.5 78.5v117q0 48 -15.5 66.5t-55.5 18.5h-46v108h75q85 0 121 -36.5t36 -116.5v-112q0 -56 25.5 -83t64.5 -27v-100q-39 1 -64.5 -23t-25.5 -75z
" />
    <glyph glyph-name="asciitilde" unicode="~" 
d="M92 288l-50 74q71 80 146 80q43 0 118 -34t115 -34q47 0 88 45l45 -79q-70 -66 -134 -66q-42 0 -116 34t-109 34q-49 0 -103 -54z" />
    <glyph glyph-name="uni00A0" unicode="&#xa0;" horiz-adv-x="212" 
 />
    <glyph glyph-name="exclamdown" unicode="&#xa1;" horiz-adv-x="310" 
d="M94 214h122v-458h-122v458zM232 381q0 -29 -22.5 -51.5t-57.5 -22.5q-30 0 -51.5 22.5t-21.5 51.5q0 33 21.5 56.5t51.5 23.5q35 0 57.5 -23.5t22.5 -56.5z" />
    <glyph glyph-name="cent" unicode="&#xa2;" 
d="M456 151l54 -84q-45 -59 -132 -74v-113h-115v117q-82 18 -129 78.5t-47 149.5q0 84 48 147q49 64 128 82v110h115v-107q76 -13 123 -57l-54 -91q-46 44 -112 44q-51 0 -88 -36q-37 -34 -37 -92t38 -94q40 -35 92 -35q67 0 116 55z" />
    <glyph glyph-name="sterling" unicode="&#xa3;" 
d="M172 265h-104v92h80l-17 33q-10 20 -19 39q-17 46 -17 86q0 83 63 138q64 55 163 55q124 0 196 -79l-63 -90q-58 54 -128 54q-44 0 -72.5 -25t-28.5 -62q0 -35 26 -87q25 -45 31 -62h150v-92h-140q-8 -53 -55 -108q15 -3 77 -25q64 -21 99 -21q61 0 108 45l51 -90
q-67 -70 -161 -70q-38 0 -114 26t-114 26q-51 0 -106 -55l-46 92q39 47 94 67q45 59 47 113z" />
    <glyph glyph-name="currency" unicode="&#xa4;" 
d="M68 342q0 69 35 125l-77 79l70 70l78 -79q55 32 124 32q68 0 123 -32l81 80l70 -70l-79 -79q36 -58 36 -126t-35 -124l77 -76l-71 -71l-77 77q-52 -33 -125 -33q-72 0 -125 33l-79 -80l-71 71l79 79q-34 55 -34 124zM175 342q0 -55 34 -91t89 -36q56 0 89.5 36t33.5 91
q0 57 -33 92t-90 35q-56 0 -89.5 -35t-33.5 -92z" />
    <glyph glyph-name="yen" unicode="&#xa5;" 
d="M236 292h-170v93h118l-173 315h140l151 -293l150 293h133l-176 -315h121v-93h-172v-82h172v-93h-172v-117h-122v117h-170v93h170v82z" />
    <glyph glyph-name="brokenbar" unicode="&#xa6;" horiz-adv-x="340" 
d="M227 700v-260h-115v260h115zM112 0v260h115v-260h-115z" />
    <glyph glyph-name="section" unicode="&#xa7;" horiz-adv-x="524" 
d="M57 249q0 60 32.5 106.5t89.5 66.5q-72 46 -72 135q0 62 46.5 102.5t124.5 40.5q90 0 144 -70l-69 -77q-35 39 -71 39q-24 0 -42 -17t-18 -41q0 -59 72 -101q80 -9 126 -59.5t46 -124.5q0 -61 -32 -107t-89 -66q69 -47 69 -133q0 -62 -46 -102.5t-125 -40.5
q-89 0 -143 70l69 77q36 -40 70 -40q25 0 42.5 17.5t17.5 41.5q0 58 -71 99q-80 9 -125.5 59.5t-45.5 124.5zM262 163q41 0 65 24.5t24 61.5q0 35 -24.5 60.5t-64.5 25.5t-65 -25.5t-25 -60.5t25 -60.5t65 -25.5z" />
    <glyph glyph-name="dieresis" unicode="&#xa8;" horiz-adv-x="443" 
d="M60 599q0 29 18.5 46.5t46.5 17.5q25 0 42.5 -18t17.5 -46q0 -30 -17.5 -48.5t-42.5 -18.5q-28 0 -46.5 18.5t-18.5 48.5zM259 599q0 29 18 46.5t46 17.5q25 0 42.5 -18t17.5 -46q0 -30 -17.5 -48.5t-42.5 -18.5q-28 0 -46 18.5t-18 48.5z" />
    <glyph glyph-name="copyright" unicode="&#xa9;" horiz-adv-x="1018" 
d="M72 221q0 183 126 309q126 127 311 127t310 -126q126 -126 126 -310t-126 -310q-124 -127 -310 -127q-185 0 -311 127q-126 126 -126 310zM172 220q0 -140 96 -238q98 -98 242 -98q143 0 239 98q96 97 96 238q0 142 -96 239q-96 98 -239 98q-144 0 -242 -98
q-96 -97 -96 -239zM641 151l54 -84q-57 -78 -179 -78q-109 0 -177 65q-67 64 -67 171q0 101 66 168q66 68 167 68q120 0 181 -61l-54 -91q-46 44 -112 44q-50 0 -88 -36q-37 -34 -37 -92t38 -94q40 -35 92 -35q67 0 116 55z" />
    <glyph glyph-name="ordfeminine" unicode="&#xaa;" horiz-adv-x="445" 
d="M121 553l-40 67q62 38 146 38q66 0 109.5 -36t43.5 -100v-215h-100v43q-40 -48 -124 -48q-49 0 -80 31t-31 78q0 56 34 86t95 30q62 0 106 -21q-4 67 -73 67q-51 0 -86 -20zM207 387q36 0 73 25v31q-39 14 -71 14q-57 0 -57 -35t55 -35z" />
    <glyph glyph-name="guillemotleft" unicode="&#xab;" horiz-adv-x="561" 
d="M518 87l-78 -65l-193 226v4l197 226l75 -67l-139 -161zM308 87l-78 -65l-193 226v4l197 226l75 -67l-139 -161z" />
    <glyph glyph-name="logicalnot" unicode="&#xac;" 
d="M445 310h-394v100h494v-231h-100v131z" />
    <glyph glyph-name="uni00AD" unicode="&#xad;" horiz-adv-x="376" 
d="M314 220h-252v107h252v-107z" />
    <glyph glyph-name="registered" unicode="&#xae;" horiz-adv-x="663" 
d="M45 497q0 119 83 202q85 83 205 83q119 0 201 -84q84 -82 84 -201q0 -120 -84 -204q-82 -84 -201 -84q-120 0 -205 83q-83 85 -83 205zM194 633q-57 -57 -57 -137t57 -137t137 -57t137 57t57 137t-57 137t-137 57t-137 -57zM298 448v-88h-77v280h117q56 0 85 -24.5
t29 -68.5q0 -28 -15 -50t-38 -31l58 -106h-89l-43 88h-27zM327 585h-29v-82h29q21 0 34 12.5t13 30.5q0 39 -47 39z" />
    <glyph glyph-name="overscore" unicode="&#xaf;" horiz-adv-x="399" 
d="M339 550h-279v92h279v-92z" />
    <glyph glyph-name="degree" unicode="&#xb0;" horiz-adv-x="425" 
d="M45 568q0 72 48 120q49 49 118 49q71 0 120 -46t49 -117q0 -70 -50 -122q-50 -50 -119 -50t-118 48q-48 48 -48 118zM212 502q28 0 48 20t20 48t-20 47.5t-48 19.5q-27 0 -47 -19.5t-20 -47.5t20 -48t47 -20z" />
    <glyph glyph-name="plusminus" unicode="&#xb1;" 
d="M243 402h-177v100h177v181h108v-181h179v-100h-179v-103h-108v103zM530 155h-464v100h464v-100z" />
    <glyph glyph-name="twosuperior" unicode="&#xb2;" horiz-adv-x="363" 
d="M335 350h-305v73q118 70 152 104q30 29 30 53q0 18 -11.5 28.5t-31.5 10.5t-35.5 -15t-18.5 -35l-83 29q8 49 47.5 77.5t99.5 28.5q66 0 103 -30t37 -81q0 -92 -159 -158h175v-85z" />
    <glyph glyph-name="threesuperior" unicode="&#xb3;" horiz-adv-x="361" 
d="M175 344q-53 0 -95.5 19.5t-62.5 54.5l58 53q10 -19 34 -32.5t49 -13.5q61 0 61 35q0 32 -59 32h-30v70h28q22 0 35 9.5t13 24.5q0 29 -45 29q-52 0 -85 -41l-48 55q43 67 153 67q60 0 96.5 -24t36.5 -65q0 -64 -77 -82v-1q42 -3 65.5 -25.5t23.5 -57.5q0 -47 -43.5 -77
t-107.5 -30z" />
    <glyph glyph-name="acute" unicode="&#xb4;" horiz-adv-x="315" 
d="M165 730l90 -68l-126 -145l-69 48z" />
    <glyph glyph-name="mu" unicode="&#xb5;" horiz-adv-x="542" 
d="M363 450h115v-450h-115v55q-54 -66 -144 -66q-18 0 -43 5v-194h-115v650h115v-260q3 -94 86 -94q59 0 101 55v299z" />
    <glyph glyph-name="mu" unicode="&#x3bc;" horiz-adv-x="542" 
d="M363 450h115v-450h-115v55q-54 -66 -144 -66q-18 0 -43 5v-194h-115v650h115v-260q3 -94 86 -94q59 0 101 55v299z" />
    <glyph glyph-name="paragraph" unicode="&#xb6;" horiz-adv-x="491" 
d="M37 481q0 100 62 159q63 60 160 60h207v-108h-94v-584q0 -216 -187 -216q-37 0 -73 14t-57 35l45 83q32 -25 77 -25q80 0 80 113v251q-91 2 -155 60q-65 59 -65 158z" />
    <glyph glyph-name="middot" unicode="&#xb7;" horiz-adv-x="212" 
d="M29 302q0 29 22.5 51.5t57.5 22.5q30 0 51.5 -22.5t21.5 -51.5q0 -33 -21.5 -56.5t-51.5 -23.5q-35 0 -57.5 23.5t-22.5 56.5z" />
    <glyph glyph-name="cedilla" unicode="&#xb8;" horiz-adv-x="378" 
d="M60 -166l34 54q34 -26 70 -26q39 0 39 25q0 28 -41 28h-6v85h58v-35q104 -6 104 -85q0 -40 -36.5 -64t-101.5 -24q-63 0 -120 42z" />
    <glyph glyph-name="onesuperior" unicode="&#xb9;" horiz-adv-x="269" 
d="M53 556l-37 68l113 75h72v-349h-100v234z" />
    <glyph glyph-name="ordmasculine" unicode="&#xba;" horiz-adv-x="499" 
d="M107 350q-55 49 -55 130q0 80 55 129t142 49q86 0 141 -49q56 -50 56 -129q0 -80 -56 -130q-55 -49 -141 -49q-87 0 -142 49zM160 480q0 -39 25 -62.5t64 -23.5q40 0 65 23.5t25 62.5q0 38 -25.5 61.5t-64.5 23.5t-64 -23.5t-25 -61.5z" />
    <glyph glyph-name="guillemotright" unicode="&#xbb;" horiz-adv-x="561" 
d="M524 252v-4l-193 -226l-78 65l138 163l-139 161l75 67zM314 252v-4l-193 -226l-78 65l138 163l-139 161l75 67z" />
    <glyph glyph-name="onequarter" unicode="&#xbc;" horiz-adv-x="693" 
d="M617 0h-92v70h-193v67l155 213h95l-148 -202h91v77h92v-77h56v-78h-56v-70zM111 -11l-66 46l505 676l65 -49zM58 556l-37 68l113 75h72v-349h-100v234z" />
    <glyph glyph-name="onehalf" unicode="&#xbd;" horiz-adv-x="710" 
d="M670 0h-305v73q119 70 152 104q30 28 30 53q0 18 -11.5 28.5t-31.5 10.5t-35.5 -15t-18.5 -35l-83 29q8 49 47.5 77.5t99.5 28.5q66 0 103 -30t37 -81q0 -92 -159 -158h175v-85zM101 -11l-66 46l505 676l65 -49zM58 556l-37 68l113 75h72v-349h-100v234z" />
    <glyph glyph-name="threequarters" unicode="&#xbe;" horiz-adv-x="753" 
d="M182 344q-53 0 -95.5 19.5t-62.5 54.5l58 53q10 -19 34 -32.5t49 -13.5q61 0 61 35q0 32 -59 32h-30v70h28q22 0 35 9.5t13 24.5q0 29 -45 29q-52 0 -85 -41l-48 55q43 67 153 67q60 0 96.5 -24t36.5 -65q0 -64 -77 -82v-1q42 -3 65.5 -25.5t23.5 -57.5q0 -47 -43.5 -77
t-107.5 -30zM677 0h-92v70h-193v67l155 213h95l-148 -202h91v77h92v-77h56v-78h-56v-70zM181 -11l-66 46l505 676l65 -49z" />
    <glyph glyph-name="questiondown" unicode="&#xbf;" horiz-adv-x="473" 
d="M242 -140q74 0 123 64l68 -77q-28 -46 -81 -74t-117 -28q-97 0 -154 51q-56 50 -56 125q0 66 26.5 107t71.5 77q6 5 16 13.5t15.5 13t14 12.5t12.5 13t10.5 13.5t8.5 14t5.5 15.5t2 18t-1.5 20l105 1q6 -37 0.5 -65.5t-24 -51.5t-32.5 -34.5t-42 -31.5q-65 -46 -65 -110
q0 -36 27 -61t67 -25zM333 381q0 -29 -22.5 -51.5t-56.5 -22.5q-31 0 -52.5 22.5t-21.5 51.5q0 33 21 56.5t53 23.5q34 0 56.5 -23.5t22.5 -56.5z" />
    <glyph glyph-name="Agrave" unicode="&#xc0;" horiz-adv-x="715" 
d="M131 0h-124l296 702h108l296 -702h-131l-73 179h-299zM456 294l-102 249l-103 -249h205zM442 800l-32 -69l-225 81l43 99z" />
    <glyph glyph-name="Aacute" unicode="&#xc1;" horiz-adv-x="715" 
d="M131 0h-124l296 702h108l296 -702h-131l-73 179h-299zM456 294l-102 249l-103 -249h205zM486 911l43 -99l-225 -81l-32 69z" />
    <glyph glyph-name="Acircumflex" unicode="&#xc2;" horiz-adv-x="715" 
d="M131 0h-124l296 702h108l296 -702h-131l-73 179h-299zM456 294l-102 249l-103 -249h205zM219 728l-41 64l175 112h4l179 -111l-45 -65l-136 71z" />
    <glyph glyph-name="Atilde" unicode="&#xc3;" horiz-adv-x="715" 
d="M131 0h-124l296 702h108l296 -702h-131l-73 179h-299zM456 294l-102 249l-103 -249h205zM212 753l-36 73q46 54 112 54q30 0 74 -18q45 -17 69 -17q46 0 76 32l31 -73q-41 -59 -115 -59q-23 0 -71 17q-45 18 -74 18q-33 0 -66 -27z" />
    <glyph glyph-name="Adieresis" unicode="&#xc4;" horiz-adv-x="715" 
d="M131 0h-124l296 702h108l296 -702h-131l-73 179h-299zM456 294l-102 249l-103 -249h205zM167 825q0 27 22 44.5t55 17.5q30 0 50.5 -17.5t20.5 -44.5q0 -30 -20.5 -48t-50.5 -18q-34 0 -55.5 18t-21.5 48zM399 825q0 27 22 44.5t55 17.5q30 0 50.5 -17.5t20.5 -44.5
q0 -30 -20.5 -48t-50.5 -18q-34 0 -55.5 18t-21.5 48z" />
    <glyph glyph-name="Aring" unicode="&#xc5;" horiz-adv-x="715" 
d="M216 800q0 52 38 80t101 28q65 0 104 -28t39 -80q0 -79 -85 -103l294 -697h-131l-73 179h-299l-73 -179h-124l294 697q-85 24 -85 103zM456 294l-102 249l-103 -249h205zM301 800q0 -23 15 -35t40 -12q26 0 41.5 12t15.5 35q0 45 -57 45q-55 0 -55 -45z" />
    <glyph glyph-name="AE" unicode="&#xc6;" horiz-adv-x="951" 
d="M888 0h-415v181h-233l-126 -181h-142l503 700h403v-115h-282v-174h252v-115h-252v-181h292v-115zM473 296v218l-152 -218h152z" />
    <glyph glyph-name="Ccedilla" unicode="&#xc7;" horiz-adv-x="655" 
d="M254 -163l37 58q41 -33 74 -33q39 0 39 25q0 28 -41 28h-6v77q-142 15 -227 111q-85 97 -85 247q0 156 95 259q94 102 263 102q134 0 213 -71l-55 -91q-71 47 -158 47q-100 0 -164 -67t-64 -179q0 -110 67 -178q68 -68 175 -68q92 0 166 56l47 -92q-32 -35 -90.5 -56.5
t-124.5 -22.5v-24q111 -6 111 -85q0 -40 -36 -64t-97 -24q-81 0 -139 45z" />
    <glyph glyph-name="Egrave" unicode="&#xc8;" horiz-adv-x="575" 
d="M512 0h-415v700h405v-115h-282v-174h252v-115h-252v-181h292v-115zM394 800l-32 -69l-225 81l43 99z" />
    <glyph glyph-name="Eacute" unicode="&#xc9;" horiz-adv-x="575" 
d="M512 0h-415v700h405v-115h-282v-174h252v-115h-252v-181h292v-115zM431 911l43 -99l-225 -81l-32 69z" />
    <glyph glyph-name="Ecircumflex" unicode="&#xca;" horiz-adv-x="575" 
d="M512 0h-415v700h405v-115h-282v-174h252v-115h-252v-181h292v-115zM162 728l-41 64l175 112h4l179 -111l-45 -65l-136 71z" />
    <glyph glyph-name="Edieresis" unicode="&#xcb;" horiz-adv-x="575" 
d="M113 825q0 27 22 44.5t55 17.5q30 0 50.5 -17.5t20.5 -44.5q0 -30 -20.5 -48t-50.5 -18q-34 0 -55.5 18t-21.5 48zM345 825q0 27 22 44.5t55 17.5q30 0 50.5 -17.5t20.5 -44.5q0 -30 -20.5 -48t-50.5 -18q-34 0 -55.5 18t-21.5 48zM512 0h-415v700h405v-115h-282v-174
h252v-115h-252v-181h292v-115z" />
    <glyph glyph-name="Igrave" unicode="&#xcc;" horiz-adv-x="347" 
d="M235 0h-123v700h123v-700zM249 800l-32 -69l-225 81l43 99z" />
    <glyph glyph-name="Iacute" unicode="&#xcd;" horiz-adv-x="347" 
d="M235 0h-123v700h123v-700zM314 911l43 -99l-225 -81l-32 69z" />
    <glyph glyph-name="Icircumflex" unicode="&#xce;" horiz-adv-x="347" 
d="M235 0h-123v700h123v-700zM35 728l-41 64l175 112h4l179 -111l-45 -65l-136 71z" />
    <glyph glyph-name="Idieresis" unicode="&#xcf;" horiz-adv-x="347" 
d="M-17 825q0 27 22 44.5t55 17.5q30 0 50.5 -17.5t20.5 -44.5q0 -30 -20.5 -48t-50.5 -18q-34 0 -55.5 18t-21.5 48zM215 825q0 27 22 44.5t55 17.5q30 0 50.5 -17.5t20.5 -44.5q0 -30 -20.5 -48t-50.5 -18q-34 0 -55.5 18t-21.5 48zM235 0h-123v700h123v-700z" />
    <glyph glyph-name="Eth" unicode="&#xd0;" horiz-adv-x="749" 
d="M105 297h-95v108h95v295h13q44 0 93 1q98 2 100 2q204 0 302 -104q91 -97 91 -242q0 -156 -105 -258q-104 -101 -296 -101q-40 0 -84 1t-100 1h-14v297zM309 588q-40 0 -82 -3v-180h177v-108h-177v-182q46 -2 80 -2q125 0 196 66t71 178q0 107 -70.5 169t-194.5 62z" />
    <glyph glyph-name="Ntilde" unicode="&#xd1;" horiz-adv-x="792" 
d="M695 700v-700h-98l-385 485v-485h-115v700h98l385 -487v487h115zM258 753l-36 73q46 54 112 54q30 0 74 -18q45 -17 69 -17q46 0 76 32l31 -73q-41 -59 -115 -59q-23 0 -71 17q-45 18 -74 18q-33 0 -66 -27z" />
    <glyph glyph-name="Ograve" unicode="&#xd2;" horiz-adv-x="819" 
d="M45 350q0 153 102 257q104 104 262 104t261 -100q104 -101 104 -261q0 -157 -104 -259t-261 -102q-158 0 -261 100t-103 261zM175 350q0 -106 67 -176t167 -70q108 0 171 70q64 70 64 176q0 107 -68 177q-68 69 -167 69q-101 0 -168 -69q-66 -69 -66 -177zM514 800
l-32 -69l-225 81l43 99z" />
    <glyph glyph-name="Oacute" unicode="&#xd3;" horiz-adv-x="819" 
d="M45 350q0 153 102 257q104 104 262 104t261 -100q104 -101 104 -261q0 -157 -104 -259t-261 -102q-158 0 -261 100t-103 261zM175 350q0 -106 67 -176t167 -70q108 0 171 70q64 70 64 176q0 107 -68 177q-68 69 -167 69q-101 0 -168 -69q-66 -69 -66 -177zM546 911
l43 -99l-225 -81l-32 69z" />
    <glyph glyph-name="Ocircumflex" unicode="&#xd4;" horiz-adv-x="819" 
d="M45 350q0 153 102 257q104 104 262 104t261 -100q104 -101 104 -261q0 -157 -104 -259t-261 -102q-158 0 -261 100t-103 261zM175 350q0 -106 67 -176t167 -70q108 0 171 70q64 70 64 176q0 107 -68 177q-68 69 -167 69q-101 0 -168 -69q-66 -69 -66 -177zM274 728
l-41 64l175 112h4l179 -111l-45 -65l-136 71z" />
    <glyph glyph-name="Otilde" unicode="&#xd5;" horiz-adv-x="819" 
d="M45 350q0 153 102 257q104 104 262 104t261 -100q104 -101 104 -261q0 -157 -104 -259t-261 -102q-158 0 -261 100t-103 261zM175 350q0 -106 67 -176t167 -70q108 0 171 70q64 70 64 176q0 107 -68 177q-68 69 -167 69q-101 0 -168 -69q-66 -69 -66 -177zM260 753
l-36 73q46 54 112 54q30 0 74 -18q45 -17 69 -17q46 0 76 32l31 -73q-41 -59 -115 -59q-23 0 -71 17q-45 18 -74 18q-33 0 -66 -27z" />
    <glyph glyph-name="Odieresis" unicode="&#xd6;" horiz-adv-x="819" 
d="M45 350q0 153 102 257q104 104 262 104t261 -100q104 -101 104 -261q0 -157 -104 -259t-261 -102q-158 0 -261 100t-103 261zM175 350q0 -106 67 -176t167 -70q108 0 171 70q64 70 64 176q0 107 -68 177q-68 69 -167 69q-101 0 -168 -69q-66 -69 -66 -177zM216 825
q0 27 22 44.5t55 17.5q30 0 50.5 -17.5t20.5 -44.5q0 -30 -20.5 -48t-50.5 -18q-34 0 -55.5 18t-21.5 48zM448 825q0 27 22 44.5t55 17.5q30 0 50.5 -17.5t20.5 -44.5q0 -30 -20.5 -48t-50.5 -18q-34 0 -55.5 18t-21.5 48z" />
    <glyph glyph-name="multiply" unicode="&#xd7;" 
d="M227 360l-128 128l71 71l128 -128l128 128l71 -71l-128 -128l129 -129l-71 -71l-129 129l-129 -129l-71 71z" />
    <glyph glyph-name="Oslash" unicode="&#xd8;" horiz-adv-x="819" 
d="M45 350q0 153 102 257q104 104 262 104q125 0 222 -68l40 39l66 -67l-38 -37q75 -96 75 -228q0 -157 -104 -259t-261 -102q-139 0 -234 76l-42 -41l-67 68l43 42q-64 91 -64 216zM644 350q0 76 -37 137l-341 -333q62 -50 143 -50q108 0 171 70q64 70 64 176zM175 350
q0 -67 29 -123l338 329q-61 40 -133 40q-101 0 -168 -69q-66 -69 -66 -177z" />
    <glyph glyph-name="Ugrave" unicode="&#xd9;" horiz-adv-x="751" 
d="M541 700h122v-410q0 -151 -79 -226q-80 -75 -199 -75q-135 0 -217 79q-81 79 -81 229v403h123v-377q0 -104 44.5 -161.5t130.5 -57.5q156 0 156 211v385zM467 800l-32 -69l-225 81l43 99z" />
    <glyph glyph-name="Uacute" unicode="&#xda;" horiz-adv-x="751" 
d="M541 700h122v-410q0 -151 -79 -226q-80 -75 -199 -75q-135 0 -217 79q-81 79 -81 229v403h123v-377q0 -104 44.5 -161.5t130.5 -57.5q156 0 156 211v385zM509 911l43 -99l-225 -81l-32 69z" />
    <glyph glyph-name="Ucircumflex" unicode="&#xdb;" horiz-adv-x="751" 
d="M541 700h122v-410q0 -151 -79 -226q-80 -75 -199 -75q-135 0 -217 79q-81 79 -81 229v403h123v-377q0 -104 44.5 -161.5t130.5 -57.5q156 0 156 211v385zM236 728l-41 64l175 112h4l179 -111l-45 -65l-136 71z" />
    <glyph glyph-name="Udieresis" unicode="&#xdc;" horiz-adv-x="751" 
d="M178 825q0 27 22 44.5t55 17.5q30 0 50.5 -17.5t20.5 -44.5q0 -30 -20.5 -48t-50.5 -18q-34 0 -55.5 18t-21.5 48zM410 825q0 27 22 44.5t55 17.5q30 0 50.5 -17.5t20.5 -44.5q0 -30 -20.5 -48t-50.5 -18q-34 0 -55.5 18t-21.5 48zM541 700h122v-410q0 -151 -79 -226
q-80 -75 -199 -75q-135 0 -217 79q-81 79 -81 229v403h123v-377q0 -104 44.5 -161.5t130.5 -57.5q156 0 156 211v385z" />
    <glyph glyph-name="Yacute" unicode="&#xdd;" horiz-adv-x="629" 
d="M491 700h133l-249 -408v-292h-123v292l-247 408h140l174 -293zM449 911l43 -99l-225 -81l-32 69z" />
    <glyph glyph-name="Thorn" unicode="&#xde;" horiz-adv-x="612" 
d="M220 151v-151h-123v700h123v-103q18 0 38 1t38 1q143 0 207 -64q64 -63 64 -160q0 -94 -68 -162q-67 -66 -188 -66q-55 0 -91 4zM298 484q-50 0 -78 -3v-214q53 -5 87 -5q59 0 94.5 29.5t35.5 84.5q0 108 -139 108z" />
    <glyph glyph-name="germandbls" unicode="&#xdf;" horiz-adv-x="551" 
d="M235 376q0 65 41 104q41 41 41 71q0 22 -18.5 37t-46.5 15q-39 0 -57 -27t-18 -86v-491h-115v501q0 211 207 211q74 0 121 -40q49 -40 49 -98q0 -28 -8.5 -49.5t-20.5 -35t-23.5 -26t-20 -28.5t-8.5 -35q0 -45 58 -83q22 -14 36.5 -25t32.5 -30.5t27 -45.5t9 -58
q0 -69 -45 -119q-45 -49 -114 -49q-93 0 -146 59l37 88q40 -40 81 -40q43 -4 59.5 38t-21.5 82q-29 29 -56 43q-81 49 -81 117z" />
    <glyph glyph-name="agrave" unicode="&#xe0;" horiz-adv-x="463" 
d="M99 334l-29 84q73 43 159 43q94 0 137 -46t43 -141v-274h-100v52q-40 -58 -133 -58q-64 0 -102.5 37.5t-38.5 100.5q0 70 45 108t119 38q61 0 102 -29q2 60 -17.5 88t-66.5 28q-52 0 -118 -31zM214 91q58 0 87 41v46q-28 22 -79 22q-32 0 -52 -15t-20 -41q0 -24 18 -38.5
t46 -14.5zM316 565l-68 -48l-127 143l91 68z" />
    <glyph glyph-name="aacute" unicode="&#xe1;" horiz-adv-x="463" 
d="M99 334l-29 84q73 43 159 43q94 0 137 -46t43 -141v-274h-100v52q-40 -58 -133 -58q-64 0 -102.5 37.5t-38.5 100.5q0 70 45 108t119 38q61 0 102 -29q2 60 -17.5 88t-66.5 28q-52 0 -118 -31zM214 91q58 0 87 41v46q-28 22 -79 22q-32 0 -52 -15t-20 -41q0 -24 18 -38.5
t46 -14.5zM260 730l90 -68l-126 -145l-69 48z" />
    <glyph glyph-name="acircumflex" unicode="&#xe2;" horiz-adv-x="463" 
d="M99 334l-29 84q73 43 159 43q94 0 137 -46t43 -141v-274h-100v52q-40 -58 -133 -58q-64 0 -102.5 37.5t-38.5 100.5q0 70 45 108t119 38q61 0 102 -29q2 60 -17.5 88t-66.5 28q-52 0 -118 -31zM214 91q58 0 87 41v46q-28 22 -79 22q-32 0 -52 -15t-20 -41q0 -24 18 -38.5
t46 -14.5zM229 706h4l152 -134l-54 -68l-101 81l-102 -79l-52 67z" />
    <glyph glyph-name="atilde" unicode="&#xe3;" horiz-adv-x="463" 
d="M99 334l-29 84q73 43 159 43q94 0 137 -46t43 -141v-274h-100v52q-40 -58 -133 -58q-64 0 -102.5 37.5t-38.5 100.5q0 70 45 108t119 38q61 0 102 -29q2 60 -17.5 88t-66.5 28q-52 0 -118 -31zM214 91q58 0 87 41v46q-28 22 -79 22q-32 0 -52 -15t-20 -41q0 -24 18 -38.5
t46 -14.5zM102 538l-47 52q55 69 121 69q24 0 59 -21q36 -21 56 -21q15 0 26 4q16 7 43 27l39 -58q-59 -65 -117 -65q-21 0 -58 20q-36 21 -59 21t-63 -28z" />
    <glyph glyph-name="adieresis" unicode="&#xe4;" horiz-adv-x="463" 
d="M99 334l-29 84q73 43 159 43q94 0 137 -46t43 -141v-274h-100v52q-40 -58 -133 -58q-64 0 -102.5 37.5t-38.5 100.5q0 70 45 108t119 38q61 0 102 -29q2 60 -17.5 88t-66.5 28q-52 0 -118 -31zM214 91q58 0 87 41v46q-28 22 -79 22q-32 0 -52 -15t-20 -41q0 -24 18 -38.5
t46 -14.5zM74 599q0 29 18.5 46.5t46.5 17.5q25 0 42.5 -18t17.5 -46q0 -30 -17.5 -48.5t-42.5 -18.5q-28 0 -46.5 18.5t-18.5 48.5zM273 599q0 29 18 46.5t46 17.5q25 0 42.5 -18t17.5 -46q0 -30 -17.5 -48.5t-42.5 -18.5q-28 0 -46 18.5t-18 48.5z" />
    <glyph glyph-name="aring" unicode="&#xe5;" horiz-adv-x="463" 
d="M99 334l-29 84q73 43 159 43q94 0 137 -46t43 -141v-274h-100v52q-40 -58 -133 -58q-64 0 -102.5 37.5t-38.5 100.5q0 70 45 108t119 38q61 0 102 -29q2 60 -17.5 88t-66.5 28q-52 0 -118 -31zM214 91q58 0 87 41v46q-28 22 -79 22q-32 0 -52 -15t-20 -41q0 -24 18 -38.5
t46 -14.5zM111 612q0 50 36 85q37 35 90 35q54 0 91 -35q37 -34 37 -85q0 -49 -37 -83.5t-91 -34.5q-55 0 -90 34q-36 34 -36 84zM239 556q32 -2 45.5 27.5t0 59t-45.5 26.5q-24 0 -39 -16t-15 -40t15 -40.5t39 -16.5z" />
    <glyph glyph-name="ae" unicode="&#xe6;" horiz-adv-x="759" 
d="M229 461q93 0 138 -47q64 47 150 47q89 0 151 -59t62 -150q0 -34 -7 -62h-314v-43q15 -28 47.5 -45t75.5 -17q75 0 128 41l32 -81q-71 -56 -169 -56q-108 0 -173 59q-72 -57 -154 -57q-78 0 -119.5 38.5t-41.5 108.5q0 63 45.5 101.5t118.5 38.5q27 0 56 -7q33 -8 46 -15
q5 51 -16 80t-63 29q-57 0 -123 -31l-29 84q76 43 159 43zM409 274v-7h206q-2 45 -30 71.5t-77 26.5q-68 0 -101 -57q2 -30 2 -34zM214 91q45 0 86 38l1 57q-37 14 -79 14q-31 0 -51.5 -15.5t-20.5 -40.5q0 -24 17 -38.5t47 -14.5z" />
    <glyph glyph-name="ccedilla" unicode="&#xe7;" horiz-adv-x="487" 
d="M139 -166l34 54q34 -26 70 -26q39 0 39 25q0 28 -41 28h-6v78q-91 13 -145 75t-54 157q0 101 66 168q66 68 167 68q120 0 181 -61l-54 -91q-46 44 -112 44q-50 0 -88 -36q-37 -34 -37 -92t38 -94q40 -35 92 -35q67 0 116 55l54 -84q-56 -74 -166 -78v-24q104 -6 104 -85
q0 -40 -36.5 -64t-101.5 -24q-63 0 -120 42z" />
    <glyph glyph-name="egrave" unicode="&#xe8;" horiz-adv-x="516" 
d="M417 126l33 -81q-67 -56 -172 -56q-108 0 -176 65q-66 64 -66 171q0 100 65 168t173 68q89 0 151 -59t62 -150q0 -40 -7 -62h-325q7 -49 43.5 -77t91.5 -28q75 0 127 41zM269 365q-98 0 -118 -98h221q1 43 -27.5 70.5t-75.5 27.5zM356 565l-68 -48l-127 143l91 68z" />
    <glyph glyph-name="eacute" unicode="&#xe9;" horiz-adv-x="516" 
d="M417 126l33 -81q-67 -56 -172 -56q-108 0 -176 65q-66 64 -66 171q0 100 65 168t173 68q89 0 151 -59t62 -150q0 -40 -7 -62h-325q7 -49 43.5 -77t91.5 -28q75 0 127 41zM269 365q-98 0 -118 -98h221q1 43 -27.5 70.5t-75.5 27.5zM310 730l90 -68l-126 -145l-69 48z" />
    <glyph glyph-name="ecircumflex" unicode="&#xea;" horiz-adv-x="516" 
d="M417 126l33 -81q-67 -56 -172 -56q-108 0 -176 65q-66 64 -66 171q0 100 65 168t173 68q89 0 151 -59t62 -150q0 -40 -7 -62h-325q7 -49 43.5 -77t91.5 -28q75 0 127 41zM269 365q-98 0 -118 -98h221q1 43 -27.5 70.5t-75.5 27.5zM267 706h4l152 -134l-54 -68l-101 81
l-102 -79l-52 67z" />
    <glyph glyph-name="edieresis" unicode="&#xeb;" horiz-adv-x="516" 
d="M417 126l33 -81q-67 -56 -172 -56q-108 0 -176 65q-66 64 -66 171q0 100 65 168t173 68q89 0 151 -59t62 -150q0 -40 -7 -62h-325q7 -49 43.5 -77t91.5 -28q75 0 127 41zM269 365q-98 0 -118 -98h221q1 43 -27.5 70.5t-75.5 27.5zM107 599q0 29 18.5 46.5t46.5 17.5
q25 0 42.5 -18t17.5 -46q0 -30 -17.5 -48.5t-42.5 -18.5q-28 0 -46.5 18.5t-18.5 48.5zM306 599q0 29 18 46.5t46 17.5q25 0 42.5 -18t17.5 -46q0 -30 -17.5 -48.5t-42.5 -18.5q-28 0 -46 18.5t-18 48.5z" />
    <glyph glyph-name="igrave" unicode="&#xec;" horiz-adv-x="277" 
d="M196 0h-115v450h115v-450zM191 565l-68 -48l-127 143l91 68z" />
    <glyph glyph-name="iacute" unicode="&#xed;" horiz-adv-x="277" 
d="M196 0h-115v450h115v-450zM168 730l90 -68l-126 -145l-69 48z" />
    <glyph glyph-name="icircumflex" unicode="&#xee;" horiz-adv-x="277" 
d="M137 706h4l152 -134l-54 -68l-101 81l-102 -79l-52 67zM196 0h-115v450h115v-450z" />
    <glyph glyph-name="idieresis" unicode="&#xef;" horiz-adv-x="277" 
d="M-23 599q0 29 18.5 46.5t46.5 17.5q25 0 42.5 -18t17.5 -46q0 -30 -17.5 -48.5t-42.5 -18.5q-28 0 -46.5 18.5t-18.5 48.5zM176 599q0 29 18 46.5t46 17.5q25 0 42.5 -18t17.5 -46q0 -30 -17.5 -48.5t-42.5 -18.5q-28 0 -46 18.5t-18 48.5zM196 0h-115v450h115v-450z" />
    <glyph glyph-name="eth" unicode="&#xf0;" horiz-adv-x="562" 
d="M315 538l-126 -45l-33 102l82 29q-45 41 -88 68l129 19q33 -19 67 -48l104 37l32 -102l-59 -21q49 -71 76 -154t27 -159q0 -129 -65.5 -202t-179.5 -73q-111 0 -178 66q-67 67 -67 170t67 169q67 67 178 67q62 0 95 -45q-18 60 -61 122zM159 225q0 -56 34.5 -92.5
t87.5 -36.5q60 0 93.5 46.5t29.5 126.5q-11 37 -44.5 60.5t-78.5 23.5q-52 0 -87 -36t-35 -92z" />
    <glyph glyph-name="ntilde" unicode="&#xf1;" horiz-adv-x="546" 
d="M179 0h-115v450h115v-45q50 53 129 53q185 0 185 -194v-264h-115v244q0 106 -101 106q-55 0 -98 -43v-307zM146 538l-47 52q56 69 121 69q24 0 59 -21q36 -21 56 -21q15 0 26 4q16 7 43 27l39 -58q-59 -65 -117 -65q-21 0 -58 20q-36 21 -59 21t-63 -28z" />
    <glyph glyph-name="ograve" unicode="&#xf2;" horiz-adv-x="562" 
d="M103 55q-67 67 -67 170t67 169q67 67 178 67q110 0 177 -67q68 -66 68 -169q0 -102 -68 -170q-68 -66 -177 -66q-111 0 -178 66zM159 225q0 -56 34.5 -92.5t87.5 -36.5q54 0 88.5 36t34.5 93q0 56 -35 92t-88 36q-52 0 -87 -36t-35 -92zM352 565l-68 -48l-127 143l91 68z
" />
    <glyph glyph-name="oacute" unicode="&#xf3;" horiz-adv-x="562" 
d="M103 55q-67 67 -67 170t67 169q67 67 178 67q110 0 177 -67q68 -66 68 -169q0 -102 -68 -170q-68 -66 -177 -66q-111 0 -178 66zM159 225q0 -56 34.5 -92.5t87.5 -36.5q54 0 88.5 36t34.5 93q0 56 -35 92t-88 36q-52 0 -87 -36t-35 -92zM316 730l90 -68l-126 -145l-69 48
z" />
    <glyph glyph-name="ocircumflex" unicode="&#xf4;" horiz-adv-x="562" 
d="M103 55q-67 67 -67 170t67 169q67 67 178 67q110 0 177 -67q68 -66 68 -169q0 -102 -68 -170q-68 -66 -177 -66q-111 0 -178 66zM159 225q0 -56 34.5 -92.5t87.5 -36.5q54 0 88.5 36t34.5 93q0 56 -35 92t-88 36q-52 0 -87 -36t-35 -92zM281 706h4l152 -134l-54 -68
l-101 81l-102 -79l-52 67z" />
    <glyph glyph-name="otilde" unicode="&#xf5;" horiz-adv-x="562" 
d="M103 55q-67 67 -67 170t67 169q67 67 178 67q110 0 177 -67q68 -66 68 -169q0 -102 -68 -170q-68 -66 -177 -66q-111 0 -178 66zM159 225q0 -56 34.5 -92.5t87.5 -36.5q54 0 88.5 36t34.5 93q0 56 -35 92t-88 36q-52 0 -87 -36t-35 -92zM154 538l-47 52q55 69 121 69
q24 0 59 -21q36 -21 56 -21q15 0 26 4q16 7 43 27l39 -58q-59 -65 -117 -65q-21 0 -58 20q-36 21 -59 21t-63 -28z" />
    <glyph glyph-name="odieresis" unicode="&#xf6;" horiz-adv-x="562" 
d="M103 55q-67 67 -67 170t67 169q67 67 178 67q110 0 177 -67q68 -66 68 -169q0 -102 -68 -170q-68 -66 -177 -66q-111 0 -178 66zM159 225q0 -56 34.5 -92.5t87.5 -36.5q54 0 88.5 36t34.5 93q0 56 -35 92t-88 36q-52 0 -87 -36t-35 -92zM126 599q0 29 18.5 46.5
t46.5 17.5q25 0 42.5 -18t17.5 -46q0 -30 -17.5 -48.5t-42.5 -18.5q-28 0 -46.5 18.5t-18.5 48.5zM325 599q0 29 18 46.5t46 17.5q25 0 42.5 -18t17.5 -46q0 -30 -17.5 -48.5t-42.5 -18.5q-28 0 -46 18.5t-18 48.5z" />
    <glyph glyph-name="divide" unicode="&#xf7;" 
d="M230 557q0 27 19 46t49 19q29 0 48 -19t19 -46q0 -29 -19 -49.5t-48 -20.5q-30 0 -49 20.5t-19 49.5zM230 164q0 26 19 46t49 20q28 0 47.5 -20t19.5 -46q0 -29 -19 -49.5t-48 -20.5q-30 0 -49 20t-19 50zM530 310h-464v100h464v-100z" />
    <glyph glyph-name="oslash" unicode="&#xf8;" horiz-adv-x="577" 
d="M91 0l-42 49l35 32q-48 60 -48 144q0 101 71 169q70 67 182 67q91 0 158 -48l39 36l41 -48l-35 -32q49 -61 49 -144q0 -101 -71 -169q-70 -67 -181 -67q-92 0 -159 47zM419 225q0 36 -15 63l-188 -173q31 -19 73 -19q59 0 94.5 35.5t35.5 93.5zM159 225q0 -33 14 -63
l188 172q-31 19 -72 19q-58 0 -94 -35t-36 -93z" />
    <glyph glyph-name="ugrave" unicode="&#xf9;" horiz-adv-x="535" 
d="M356 450h115v-450h-115v55q-54 -66 -144 -66q-72 0 -115 48t-43 138v275h115v-251q0 -103 86 -103q59 0 101 55v299zM334 565l-68 -48l-127 143l91 68z" />
    <glyph glyph-name="uacute" unicode="&#xfa;" horiz-adv-x="535" 
d="M356 450h115v-450h-115v55q-54 -66 -144 -66q-72 0 -115 48t-43 138v275h115v-251q0 -103 86 -103q59 0 101 55v299zM306 730l90 -68l-126 -145l-69 48z" />
    <glyph glyph-name="ucircumflex" unicode="&#xfb;" horiz-adv-x="535" 
d="M356 450h115v-450h-115v55q-54 -66 -144 -66q-72 0 -115 48t-43 138v275h115v-251q0 -103 86 -103q59 0 101 55v299zM265 706h4l152 -134l-54 -68l-101 81l-102 -79l-52 67z" />
    <glyph glyph-name="udieresis" unicode="&#xfc;" horiz-adv-x="535" 
d="M356 450h115v-450h-115v55q-54 -66 -144 -66q-72 0 -115 48t-43 138v275h115v-251q0 -103 86 -103q59 0 101 55v299zM103 599q0 29 18.5 46.5t46.5 17.5q25 0 42.5 -18t17.5 -46q0 -30 -17.5 -48.5t-42.5 -18.5q-28 0 -46.5 18.5t-18.5 48.5zM302 599q0 29 18 46.5
t46 17.5q25 0 42.5 -18t17.5 -46q0 -30 -17.5 -48.5t-42.5 -18.5q-28 0 -46 18.5t-18 48.5z" />
    <glyph glyph-name="yacute" unicode="&#xfd;" horiz-adv-x="503" 
d="M367 450h131l-177 -450q-48 -117 -86 -158q-37 -42 -88 -42q-48 0 -97 35l37 87q26 -16 47 -16q41 0 69 70l10 24l-208 450h138l105 -246q2 -5 22 -65q6 37 16 66zM282 730l90 -68l-126 -145l-69 48z" />
    <glyph glyph-name="thorn" unicode="&#xfe;" horiz-adv-x="558" 
d="M179 -200h-115v900h115v-286q55 47 139 47q93 0 148 -64q56 -65 56 -165q0 -105 -66 -174t-172 -69q-68 0 -105 22v-211zM282 353q-60 0 -103 -49v-182q41 -26 95 -26q57 0 91.5 37t34.5 96q0 56 -31.5 90t-86.5 34z" />
    <glyph glyph-name="ydieresis" unicode="&#xff;" horiz-adv-x="503" 
d="M367 450h131l-177 -450q-48 -117 -86 -158q-37 -42 -88 -42q-48 0 -97 35l37 87q26 -16 47 -16q41 0 69 70l10 24l-208 450h138l105 -246q2 -5 22 -65q6 37 16 66zM97 599q0 29 18.5 46.5t46.5 17.5q25 0 42.5 -18t17.5 -46q0 -30 -17.5 -48.5t-42.5 -18.5
q-28 0 -46.5 18.5t-18.5 48.5zM296 599q0 29 18 46.5t46 17.5q25 0 42.5 -18t17.5 -46q0 -30 -17.5 -48.5t-42.5 -18.5q-28 0 -46 18.5t-18 48.5z" />
    <glyph glyph-name="Amacron" unicode="&#x100;" horiz-adv-x="715" 
d="M131 0h-124l296 702h108l296 -702h-131l-73 179h-299zM456 294l-102 249l-103 -249h205zM511 760h-309v92h309v-92z" />
    <glyph glyph-name="amacron" unicode="&#x101;" horiz-adv-x="463" 
d="M99 334l-29 84q73 43 159 43q94 0 137 -46t43 -141v-274h-100v52q-40 -58 -133 -58q-64 0 -102.5 37.5t-38.5 100.5q0 70 45 108t119 38q61 0 102 -29q2 60 -17.5 88t-66.5 28q-52 0 -118 -31zM214 91q58 0 87 41v46q-28 22 -79 22q-32 0 -52 -15t-20 -41q0 -24 18 -38.5
t46 -14.5zM375 550h-279v92h279v-92z" />
    <glyph glyph-name="Abreve" unicode="&#x102;" horiz-adv-x="715" 
d="M131 0h-124l296 702h108l296 -702h-131l-73 179h-299zM456 294l-102 249l-103 -249h205zM169 841l50 59q55 -63 143 -63q84 0 140 63l43 -60q-28 -44 -78 -73.5t-105 -29.5q-64 0 -116 31q-50 30 -77 73z" />
    <glyph glyph-name="abreve" unicode="&#x103;" horiz-adv-x="463" 
d="M99 334l-29 84q73 43 159 43q94 0 137 -46t43 -141v-274h-100v52q-40 -58 -133 -58q-64 0 -102.5 37.5t-38.5 100.5q0 70 45 108t119 38q61 0 102 -29q2 60 -17.5 88t-66.5 28q-52 0 -118 -31zM214 91q58 0 87 41v46q-28 22 -79 22q-32 0 -52 -15t-20 -41q0 -24 18 -38.5
t46 -14.5zM69 624l51 57q51 -56 110 -56q69 0 112 55l40 -56q-62 -92 -157 -92q-53 0 -94 27t-62 65z" />
    <glyph glyph-name="Aogonek" unicode="&#x104;" horiz-adv-x="715" 
d="M669 -98l35 -70q-13 -13 -43 -22.5t-60 -9.5q-60 0 -97 24t-37 70q0 75 108 109l-72 176h-299l-73 -179h-124l296 702h108l296 -702h-21q-41 -1 -72.5 -22t-31.5 -46q0 -20 13 -30t32 -10q22 0 42 10zM456 294l-102 249l-103 -249h205z" />
    <glyph glyph-name="aogonek" unicode="&#x105;" horiz-adv-x="463" 
d="M387 -98l35 -70q-13 -13 -43 -22.5t-60 -9.5q-60 0 -97 24t-37 70q0 40 33.5 69t90.5 44v45q-40 -58 -133 -58q-64 0 -102.5 37.5t-38.5 100.5q0 70 45 108t119 38q61 0 102 -29q2 60 -17.5 88t-66.5 28q-52 0 -118 -31l-29 84q73 43 159 43q94 0 137 -46t43 -141v-274
q-44 0 -76.5 -20.5t-32.5 -47.5q0 -20 13 -30t32 -10q22 0 42 10zM214 91q58 0 87 41v46q-28 22 -79 22q-32 0 -52 -15t-20 -41q0 -24 18 -38.5t46 -14.5z" />
    <glyph glyph-name="Cacute" unicode="&#x106;" horiz-adv-x="655" 
d="M583 160l47 -92q-33 -35 -94.5 -57t-129.5 -22q-160 0 -261 99q-100 99 -100 262q0 156 95 259q94 102 263 102q134 0 213 -71l-55 -91q-71 47 -158 47q-100 0 -164 -67t-64 -179q0 -110 67 -178q68 -68 175 -68q92 0 166 56zM514 911l43 -99l-225 -81l-32 69z" />
    <glyph glyph-name="cacute" unicode="&#x107;" horiz-adv-x="487" 
d="M405 151l54 -84q-57 -78 -179 -78q-109 0 -177 65q-67 64 -67 171q0 101 66 168q66 68 167 68q120 0 181 -61l-54 -91q-46 44 -112 44q-50 0 -88 -36q-37 -34 -37 -92t38 -94q40 -35 92 -35q67 0 116 55zM301 730l90 -68l-126 -145l-69 48z" />
    <glyph glyph-name="Ccircumflex" unicode="&#x108;" horiz-adv-x="655" 
d="M583 160l47 -92q-33 -35 -94.5 -57t-129.5 -22q-160 0 -261 99q-100 99 -100 262q0 156 95 259q94 102 263 102q134 0 213 -71l-55 -91q-71 47 -158 47q-100 0 -164 -67t-64 -179q0 -110 67 -178q68 -68 175 -68q92 0 166 56zM249 728l-41 64l175 112h4l179 -111l-45 -65
l-136 71z" />
    <glyph glyph-name="ccircumflex" unicode="&#x109;" horiz-adv-x="487" 
d="M405 151l54 -84q-57 -78 -179 -78q-109 0 -177 65q-67 64 -67 171q0 101 66 168q66 68 167 68q120 0 181 -61l-54 -91q-46 44 -112 44q-50 0 -88 -36q-37 -34 -37 -92t38 -94q40 -35 92 -35q67 0 116 55zM275 706h4l152 -134l-54 -68l-101 81l-102 -79l-52 67z" />
    <glyph glyph-name="Cdotaccent" unicode="&#x10a;" horiz-adv-x="655" 
d="M583 160l47 -92q-33 -35 -94.5 -57t-129.5 -22q-160 0 -261 99q-100 99 -100 262q0 156 95 259q94 102 263 102q134 0 213 -71l-55 -91q-71 47 -158 47q-100 0 -164 -67t-64 -179q0 -110 67 -178q68 -68 175 -68q92 0 166 56zM304 831q0 32 22.5 51.5t56.5 19.5
q31 0 53 -20t22 -51q0 -33 -22 -54t-53 -21q-34 0 -56.5 20.5t-22.5 54.5z" />
    <glyph glyph-name="cdotaccent" unicode="&#x10b;" horiz-adv-x="487" 
d="M405 151l54 -84q-57 -78 -179 -78q-109 0 -177 65q-67 64 -67 171q0 101 66 168q66 68 167 68q120 0 181 -61l-54 -91q-46 44 -112 44q-50 0 -88 -36q-37 -34 -37 -92t38 -94q40 -35 92 -35q67 0 116 55zM203 612q0 30 20.5 48.5t51.5 18.5q27 0 46.5 -19t19.5 -48
q0 -32 -19.5 -52t-46.5 -20q-31 0 -51.5 20t-20.5 52z" />
    <glyph glyph-name="Ccaron" unicode="&#x10c;" horiz-adv-x="655" 
d="M391 735h-4l-179 111l45 65l136 -79l135 79l41 -64zM583 160l47 -92q-33 -35 -94.5 -57t-129.5 -22q-160 0 -261 99q-100 99 -100 262q0 156 95 259q94 102 263 102q134 0 213 -71l-55 -91q-71 47 -158 47q-100 0 -164 -67t-64 -179q0 -110 67 -178q68 -68 175 -68
q92 0 166 56z" />
    <glyph glyph-name="ccaron" unicode="&#x10d;" horiz-adv-x="487" 
d="M271 509h-4l-152 134l54 68l101 -92l102 90l52 -67zM405 151l54 -84q-57 -78 -179 -78q-109 0 -177 65q-67 64 -67 171q0 101 66 168q66 68 167 68q120 0 181 -61l-54 -91q-46 44 -112 44q-50 0 -88 -36q-37 -34 -37 -92t38 -94q40 -35 92 -35q67 0 116 55z" />
    <glyph glyph-name="Dcaron" unicode="&#x10e;" horiz-adv-x="741" 
d="M339 735h-4l-179 111l45 65l136 -79l135 79l41 -64zM111 0h-14v700h13q44 0 93 1q98 2 100 2q204 0 302 -104q91 -97 91 -242q0 -156 -105 -258q-104 -101 -296 -101q-40 0 -84 1q-43 1 -100 1zM301 588q-39 0 -81 -3v-470q46 -2 79 -2q125 0 196 66t71 178
q0 107 -70.5 169t-194.5 62z" />
    <glyph glyph-name="dcaron" unicode="&#x10f;" horiz-adv-x="556" 
d="M492 0h-115v47q-52 -55 -129 -55q-95 0 -154 62q-58 62 -58 166q0 106 69 173q70 68 178 68q57 0 94 -22v261h115v-700zM272 99q59 0 105 46v181q-43 27 -89 27q-55 0 -92 -35t-37 -94q0 -57 32 -91t81 -34zM563 700h112q6 -12 6 -35q0 -119 -99 -174l-53 50
q45 43 45 110q0 24 -11 49z" />
    <glyph glyph-name="Dcroat" unicode="&#x110;" horiz-adv-x="749" 
d="M105 297h-95v108h95v295h13q44 0 93 1q98 2 100 2q204 0 302 -104q91 -97 91 -242q0 -156 -105 -258q-104 -101 -296 -101q-40 0 -84 1t-100 1h-14v297zM309 588q-40 0 -82 -3v-180h177v-108h-177v-182q46 -2 80 -2q125 0 196 66t71 178q0 107 -70.5 169t-194.5 62z" />
    <glyph glyph-name="dslash" unicode="&#x111;" horiz-adv-x="556" 
d="M377 520h-130v93h130v87h115v-87h79v-93h-79v-520h-115v47q-52 -55 -129 -55q-95 0 -154 62q-58 62 -58 166q0 106 69 173q70 68 178 68q57 0 94 -22v81zM272 99q59 0 105 46v181q-43 27 -89 27q-55 0 -92 -35t-37 -94q0 -57 32 -91t81 -34z" />
    <glyph glyph-name="Emacron" unicode="&#x112;" horiz-adv-x="575" 
d="M512 0h-415v700h405v-115h-282v-174h252v-115h-252v-181h292v-115zM454 760h-309v92h309v-92z" />
    <glyph glyph-name="emacron" unicode="&#x113;" horiz-adv-x="516" 
d="M417 126l33 -81q-67 -56 -172 -56q-108 0 -176 65q-66 64 -66 171q0 100 65 168t173 68q89 0 151 -59t62 -150q0 -40 -7 -62h-325q7 -49 43.5 -77t91.5 -28q75 0 127 41zM269 365q-98 0 -118 -98h221q1 43 -27.5 70.5t-75.5 27.5zM404 550h-279v92h279v-92z" />
    <glyph glyph-name="Edotaccent" unicode="&#x116;" horiz-adv-x="575" 
d="M512 0h-415v700h405v-115h-282v-174h252v-115h-252v-181h292v-115zM227 831q0 32 22.5 51.5t56.5 19.5q31 0 53 -20t22 -51q0 -33 -22 -54t-53 -21q-34 0 -56.5 20.5t-22.5 54.5z" />
    <glyph glyph-name="edotaccent" unicode="&#x117;" horiz-adv-x="516" 
d="M417 126l33 -81q-67 -56 -172 -56q-108 0 -176 65q-66 64 -66 171q0 100 65 168t173 68q89 0 151 -59t62 -150q0 -40 -7 -62h-325q7 -49 43.5 -77t91.5 -28q75 0 127 41zM269 365q-98 0 -118 -98h221q1 43 -27.5 70.5t-75.5 27.5zM197 612q0 30 20.5 48.5t51.5 18.5
q27 0 46.5 -19t19.5 -48q0 -32 -19.5 -52t-46.5 -20q-31 0 -51.5 20t-20.5 52z" />
    <glyph glyph-name="Eogonek" unicode="&#x118;" horiz-adv-x="575" 
d="M387 0h-290v700h405v-115h-282v-174h252v-115h-252v-181h292v-115h-5q-41 -1 -72.5 -22t-31.5 -46q0 -20 13 -30t32 -10q22 0 42 10l35 -70q-13 -13 -43 -22.5t-60 -9.5q-60 0 -97 24t-37 70q0 72 99 106z" />
    <glyph glyph-name="eogonek" unicode="&#x119;" horiz-adv-x="516" 
d="M417 126l33 -81q-24 -21 -58 -35q-66 -40 -66 -78q0 -20 13 -30t32 -10q22 0 42 10l35 -70q-13 -13 -43 -22.5t-60 -9.5q-60 0 -97 24t-37 70q0 54 75 95h-8q-108 0 -176 65q-66 64 -66 171q0 100 65 168t173 68q89 0 151 -59t62 -150q0 -40 -7 -62h-325q7 -49 43.5 -77
t91.5 -28q75 0 127 41zM269 365q-98 0 -118 -98h221q1 43 -27.5 70.5t-75.5 27.5z" />
    <glyph glyph-name="Ecaron" unicode="&#x11a;" horiz-adv-x="575" 
d="M311 735h-4l-179 111l45 65l136 -79l135 79l41 -64zM512 0h-415v700h405v-115h-282v-174h252v-115h-252v-181h292v-115z" />
    <glyph glyph-name="ecaron" unicode="&#x11b;" horiz-adv-x="516" 
d="M417 126l33 -81q-67 -56 -172 -56q-108 0 -176 65q-66 64 -66 171q0 100 65 168t173 68q89 0 151 -59t62 -150q0 -40 -7 -62h-325q7 -49 43.5 -77t91.5 -28q75 0 127 41zM269 365q-98 0 -118 -98h221q1 43 -27.5 70.5t-75.5 27.5zM275 509h-4l-152 134l54 68l101 -92
l102 90l52 -67z" />
    <glyph glyph-name="Gcircumflex" unicode="&#x11c;" horiz-adv-x="727" 
d="M557 262h-169v115h284v-290q-45 -45 -120 -72q-75 -26 -142 -26q-170 0 -268 98q-97 97 -97 263q0 154 96 257q96 104 253 104q134 0 225 -71l-52 -98q-26 25 -69 39.5t-89 14.5q-105 0 -169 -66q-65 -65 -65 -180q0 -111 65 -179q64 -67 172 -67q38 0 82 14q44 15 63 34
v110zM249 728l-41 64l175 112h4l179 -111l-45 -65l-136 71z" />
    <glyph glyph-name="gcircumflex" unicode="&#x11d;" horiz-adv-x="499" 
d="M5 -61q0 53 39 88.5t107 50.5q-8 14 -8 31q0 19 10 32q-50 20 -78.5 60.5t-28.5 90.5q0 69 53 119t139 50q65 0 115 -32l136 30l4 -92l-75 -17q11 -30 11 -58q0 -68 -53 -118q-52 -48 -138 -48h-8q-2 -8 -2 -17q0 -13 6 -23h5q105 0 169 -37q65 -38 65 -110t-65 -110
q-64 -37 -169 -37q-108 0 -171 37.5t-63 109.5zM112 -61q0 -26 33.5 -40.5t93.5 -14.5q126 0 126 55q0 25 -33 40t-93 15q-59 0 -93 -15t-34 -40zM238 219q37 0 60.5 20t23.5 53q0 34 -23 55t-61 21t-61 -21.5t-23 -54.5q0 -32 23 -52.5t61 -20.5zM242 706h4l152 -134
l-54 -68l-101 81l-102 -79l-52 67z" />
    <glyph glyph-name="Gbreve" unicode="&#x11e;" horiz-adv-x="727" 
d="M557 262h-169v115h284v-290q-45 -45 -120 -72q-75 -26 -142 -26q-170 0 -268 98q-97 97 -97 263q0 154 96 257q96 104 253 104q134 0 225 -71l-52 -98q-26 25 -69 39.5t-89 14.5q-105 0 -169 -66q-65 -65 -65 -180q0 -111 65 -179q64 -67 172 -67q38 0 82 14q44 15 63 34
v110zM214 841l50 59q55 -63 143 -63q84 0 140 63l43 -60q-28 -44 -78 -73.5t-105 -29.5q-64 0 -116 31q-50 30 -77 73z" />
    <glyph glyph-name="gbreve" unicode="&#x11f;" horiz-adv-x="499" 
d="M5 -61q0 53 39 88.5t107 50.5q-8 14 -8 31q0 19 10 32q-50 20 -78.5 60.5t-28.5 90.5q0 69 53 119t139 50q65 0 115 -32l136 30l4 -92l-75 -17q11 -30 11 -58q0 -68 -53 -118q-52 -48 -138 -48h-8q-2 -8 -2 -17q0 -13 6 -23h5q105 0 169 -37q65 -38 65 -110t-65 -110
q-64 -37 -169 -37q-108 0 -171 37.5t-63 109.5zM112 -61q0 -26 33.5 -40.5t93.5 -14.5q126 0 126 55q0 25 -33 40t-93 15q-59 0 -93 -15t-34 -40zM238 219q37 0 60.5 20t23.5 53q0 34 -23 55t-61 21t-61 -21.5t-23 -54.5q0 -32 23 -52.5t61 -20.5zM82 624l51 57
q51 -56 110 -56q69 0 112 55l40 -56q-62 -92 -157 -92q-53 0 -94 27t-62 65z" />
    <glyph glyph-name="Gdotaccent" unicode="&#x120;" horiz-adv-x="727" 
d="M557 262h-169v115h284v-290q-45 -45 -120 -72q-75 -26 -142 -26q-170 0 -268 98q-97 97 -97 263q0 154 96 257q96 104 253 104q134 0 225 -71l-52 -98q-26 25 -69 39.5t-89 14.5q-105 0 -169 -66q-65 -65 -65 -180q0 -111 65 -179q64 -67 172 -67q38 0 82 14q44 15 63 34
v110zM299 831q0 32 22.5 51.5t56.5 19.5q31 0 53 -20t22 -51q0 -33 -22 -54t-53 -21q-34 0 -56.5 20.5t-22.5 54.5z" />
    <glyph glyph-name="gdotaccent" unicode="&#x121;" horiz-adv-x="499" 
d="M5 -61q0 53 39 88.5t107 50.5q-8 14 -8 31q0 19 10 32q-50 20 -78.5 60.5t-28.5 90.5q0 69 53 119t139 50q65 0 115 -32l136 30l4 -92l-75 -17q11 -30 11 -58q0 -68 -53 -118q-52 -48 -138 -48h-8q-2 -8 -2 -17q0 -13 6 -23h5q105 0 169 -37q65 -38 65 -110t-65 -110
q-64 -37 -169 -37q-108 0 -171 37.5t-63 109.5zM112 -61q0 -26 33.5 -40.5t93.5 -14.5q126 0 126 55q0 25 -33 40t-93 15q-59 0 -93 -15t-34 -40zM238 219q37 0 60.5 20t23.5 53q0 34 -23 55t-61 21t-61 -21.5t-23 -54.5q0 -32 23 -52.5t61 -20.5zM169 612q0 30 20.5 48.5
t51.5 18.5q27 0 46.5 -19t19.5 -48q0 -32 -19.5 -52t-46.5 -20q-31 0 -51.5 20t-20.5 52z" />
    <glyph glyph-name="Gcommaaccent" unicode="&#x122;" horiz-adv-x="727" 
d="M557 262h-169v115h284v-290q-45 -45 -120 -72q-75 -26 -142 -26q-170 0 -268 98q-97 97 -97 263q0 154 96 257q96 104 253 104q134 0 225 -71l-52 -98q-26 25 -69 39.5t-89 14.5q-105 0 -169 -66q-65 -65 -65 -180q0 -111 65 -179q64 -67 172 -67q38 0 82 14q44 15 63 34
v110zM339 -58l112 25q20 -12 20 -49q0 -50 -38 -83q-38 -34 -86 -41l-34 50q43 18 43 60q0 26 -17 38z" />
    <glyph glyph-name="gcommaaccent" unicode="&#x123;" horiz-adv-x="499" 
d="M5 -61q0 53 39 88.5t107 50.5q-8 14 -8 31q0 19 10 32q-50 20 -78.5 60.5t-28.5 90.5q0 69 53 119t139 50q65 0 115 -32l136 30l4 -92l-75 -17q11 -30 11 -58q0 -68 -53 -118q-52 -48 -138 -48h-8q-2 -8 -2 -17q0 -13 6 -23h5q105 0 169 -37q65 -38 65 -110t-65 -110
q-64 -37 -169 -37q-108 0 -171 37.5t-63 109.5zM112 -61q0 -26 33.5 -40.5t93.5 -14.5q126 0 126 55q0 25 -33 40t-93 15q-59 0 -93 -15t-34 -40zM238 219q37 0 60.5 20t23.5 53q0 34 -23 55t-61 21t-61 -21.5t-23 -54.5q0 -32 23 -52.5t61 -20.5zM303 555l-112 -25
q-20 12 -20 49q0 50 38 83q38 34 86 41l34 -50q-43 -18 -43 -60q0 -26 17 -38z" />
    <glyph glyph-name="Hcircumflex" unicode="&#x124;" horiz-adv-x="760" 
d="M662 0h-122v299h-320v-299h-123v700h123v-286h320v286h122v-700zM243 728l-41 64l175 112h4l179 -111l-45 -65l-136 71z" />
    <glyph glyph-name="hcircumflex" unicode="&#x125;" horiz-adv-x="546" 
d="M179 0h-115v700h115v-291q50 49 129 49q185 0 185 -197v-261h-115v246q0 50 -26 77t-74 27q-58 0 -99 -41v-309zM16 728l-41 64l175 112h4l179 -111l-45 -65l-136 71z" />
    <glyph glyph-name="Hbar" unicode="&#x126;" horiz-adv-x="770" 
d="M102 506h-80v107h80v87h123v-87h320v87h122v-87h80v-107h-80v-506h-122v299h-320v-299h-123v506zM225 506v-92h320v92h-320z" />
    <glyph glyph-name="hbar" unicode="&#x127;" horiz-adv-x="583" 
d="M101 505h-106v107h106v88h115v-88h148v-107h-148v-96q50 49 129 49q185 0 185 -197v-261h-115v246q0 50 -26 77t-74 27q-58 0 -99 -41v-309h-115v505z" />
    <glyph glyph-name="Imacron" unicode="&#x12a;" horiz-adv-x="347" 
d="M332 760h-309v92h309v-92zM235 0h-123v700h123v-700z" />
    <glyph glyph-name="imacron" unicode="&#x12b;" horiz-adv-x="277" 
d="M196 0h-115v450h115v-450zM278 550h-279v92h279v-92z" />
    <glyph glyph-name="Iogonek" unicode="&#x12e;" horiz-adv-x="347" 
d="M213 -98l35 -70q-13 -13 -43 -22.5t-60 -9.5q-60 0 -97 24t-37 70q0 71 101 106v700h123v-700q-44 0 -76.5 -20.5t-32.5 -47.5q0 -20 13 -30t32 -10q22 0 42 10z" />
    <glyph glyph-name="iogonek" unicode="&#x12f;" horiz-adv-x="277" 
d="M174 -98l35 -70q-13 -13 -43 -22.5t-60 -9.5q-60 0 -97 24t-37 70q0 38 29.5 66t79.5 43v447h115v-450h-5q-41 -1 -72.5 -22t-31.5 -46q0 -20 13 -30t32 -10q22 0 42 10zM66 612q0 30 20.5 48.5t51.5 18.5q27 0 46.5 -19t19.5 -48q0 -32 -19.5 -52t-46.5 -20
q-31 0 -51.5 20t-20.5 52z" />
    <glyph glyph-name="Idot" unicode="&#x130;" horiz-adv-x="347" 
d="M97 831q0 32 22.5 51.5t56.5 19.5q31 0 53 -20t22 -51q0 -33 -22 -54t-53 -21q-34 0 -56.5 20.5t-22.5 54.5zM235 0h-123v700h123v-700z" />
    <glyph glyph-name="dotlessi" unicode="&#x131;" horiz-adv-x="277" 
d="M196 0h-115v450h115v-450z" />
    <glyph glyph-name="Jcircumflex" unicode="&#x134;" horiz-adv-x="390" 
d="M170 700h123v-535q0 -85 -43 -130.5t-126 -45.5q-37 0 -70 12.5t-49 30.5l40 94q28 -22 62 -22q63 0 63 82v514zM92 728l-41 64l175 112h4l179 -111l-45 -65l-136 71z" />
    <glyph glyph-name="jcircumflex" unicode="&#x135;" horiz-adv-x="284" 
d="M143 706h4l152 -134l-54 -68l-101 81l-102 -79l-52 67zM87 450h115v-483q0 -175 -141 -175q-73 0 -110 32l31 91q25 -16 51 -16q54 0 54 78v473z" />
    <glyph glyph-name="Kcommaaccent" unicode="&#x136;" horiz-adv-x="672" 
d="M220 0h-123v700h123v-332l276 332h148l-288 -326l306 -374h-156l-286 361v-361zM269 -58l112 25q20 -12 20 -49q0 -50 -38 -83q-38 -34 -86 -41l-34 50q43 18 43 60q0 26 -17 38z" />
    <glyph glyph-name="kcommaaccent" unicode="&#x137;" horiz-adv-x="514" 
d="M342 450h145l-169 -206l189 -244h-148l-178 235zM179 0h-115v700h115v-700zM180 -58l112 25q20 -12 20 -49q0 -50 -38 -83q-38 -34 -86 -41l-34 50q43 18 43 60q0 26 -17 38z" />
    <glyph glyph-name="Lacute" unicode="&#x139;" horiz-adv-x="547" 
d="M535 0h-438v700h123v-585h315v-115zM409 911l43 -99l-225 -81l-32 69z" />
    <glyph glyph-name="lacute" unicode="&#x13a;" horiz-adv-x="299" 
d="M64 124v576h115v-529q0 -73 39 -73q22 0 47 18l24 -88q-47 -38 -119 -38q-106 0 -106 134zM285 911l43 -99l-225 -81l-32 69z" />
    <glyph glyph-name="Lcommaaccent" unicode="&#x13b;" horiz-adv-x="547" 
d="M244 -58l112 25q20 -12 20 -49q0 -50 -38 -83q-38 -34 -86 -41l-34 50q43 18 43 60q0 26 -17 38zM535 0h-438v700h123v-585h315v-115z" />
    <glyph glyph-name="lcommaaccent" unicode="&#x13c;" horiz-adv-x="299" 
d="M64 124v576h115v-529q0 -73 39 -73q22 0 47 18l24 -88q-47 -38 -119 -38q-106 0 -106 134zM110 -58l112 25q20 -12 20 -49q0 -50 -38 -83q-38 -34 -86 -41l-34 50q43 18 43 60q0 26 -17 38z" />
    <glyph glyph-name="Lcaron" unicode="&#x13d;" horiz-adv-x="547" 
d="M356 700h112q6 -12 6 -35q0 -119 -99 -174l-53 50q45 43 45 110q0 24 -11 49zM535 0h-438v700h123v-585h315v-115z" />
    <glyph glyph-name="lcaron" unicode="&#x13e;" horiz-adv-x="299" 
d="M64 124v576h115v-529q0 -73 39 -73q22 0 47 18l24 -88q-47 -38 -119 -38q-106 0 -106 134zM256 700h112q6 -12 6 -35q0 -119 -99 -174l-53 50q45 43 45 110q0 24 -11 49z" />
    <glyph glyph-name="Ldot" unicode="&#x13f;" horiz-adv-x="547" 
d="M356 375q0 29 22.5 51.5t57.5 22.5q30 0 51.5 -22.5t21.5 -51.5q0 -33 -21.5 -56.5t-51.5 -23.5q-35 0 -57.5 23.5t-22.5 56.5zM535 0h-438v700h123v-585h315v-115z" />
    <glyph glyph-name="ldot" unicode="&#x140;" horiz-adv-x="350" 
d="M64 124v576h115v-529q0 -73 39 -73q22 0 47 18l24 -88q-47 -38 -119 -38q-106 0 -106 134zM228 338q0 30 20.5 48.5t51.5 18.5q27 0 46.5 -19t19.5 -48q0 -32 -19.5 -52t-46.5 -20q-31 0 -51.5 20t-20.5 52z" />
    <glyph glyph-name="Lslash" unicode="&#x141;" horiz-adv-x="557" 
d="M107 243l-85 -39v118l85 39v339h123v-282l163 75v-117l-163 -76v-185h315v-115h-438v243z" />
    <glyph glyph-name="lslash" unicode="&#x142;" horiz-adv-x="329" 
d="M84 235l-72 -33v118l72 33v347h115v-294l94 43v-118l-94 -43v-117q0 -73 39 -73q22 0 47 18l24 -88q-47 -38 -119 -38q-106 0 -106 134v111z" />
    <glyph glyph-name="Nacute" unicode="&#x143;" horiz-adv-x="792" 
d="M695 700v-700h-98l-385 485v-485h-115v700h98l385 -487v487h115zM536 911l43 -99l-225 -81l-32 69z" />
    <glyph glyph-name="nacute" unicode="&#x144;" horiz-adv-x="546" 
d="M179 0h-115v450h115v-45q50 53 129 53q185 0 185 -194v-264h-115v244q0 106 -101 106q-55 0 -98 -43v-307zM315 730l90 -68l-126 -145l-69 48z" />
    <glyph glyph-name="Ncommaaccent" unicode="&#x145;" horiz-adv-x="792" 
d="M695 700v-700h-98l-385 485v-485h-115v700h98l385 -487v487h115zM331 -58l112 25q20 -12 20 -49q0 -50 -38 -83q-38 -34 -86 -41l-34 50q43 18 43 60q0 26 -17 38z" />
    <glyph glyph-name="ncommaaccent" unicode="&#x146;" horiz-adv-x="546" 
d="M179 0h-115v450h115v-45q50 53 129 53q185 0 185 -194v-264h-115v244q0 106 -101 106q-55 0 -98 -43v-307zM206 -58l112 25q20 -12 20 -49q0 -50 -38 -83q-38 -34 -86 -41l-34 50q43 18 43 60q0 26 -17 38z" />
    <glyph glyph-name="Ncaron" unicode="&#x147;" horiz-adv-x="792" 
d="M401 735h-4l-179 111l45 65l136 -79l135 79l41 -64zM695 700v-700h-98l-385 485v-485h-115v700h98l385 -487v487h115z" />
    <glyph glyph-name="ncaron" unicode="&#x148;" horiz-adv-x="546" 
d="M274 509h-4l-152 134l54 68l101 -92l102 90l52 -67zM179 0h-115v450h115v-45q50 53 129 53q185 0 185 -194v-264h-115v244q0 106 -101 106q-55 0 -98 -43v-307z" />
    <glyph glyph-name="Omacron" unicode="&#x14c;" horiz-adv-x="819" 
d="M45 350q0 153 102 257q104 104 262 104t261 -100q104 -101 104 -261q0 -157 -104 -259t-261 -102q-158 0 -261 100t-103 261zM175 350q0 -106 67 -176t167 -70q108 0 171 70q64 70 64 176q0 107 -68 177q-68 69 -167 69q-101 0 -168 -69q-66 -69 -66 -177zM571 760h-309
v92h309v-92z" />
    <glyph glyph-name="omacron" unicode="&#x14d;" horiz-adv-x="562" 
d="M103 55q-67 67 -67 170t67 169q67 67 178 67q110 0 177 -67q68 -66 68 -169q0 -102 -68 -170q-68 -66 -177 -66q-111 0 -178 66zM159 225q0 -56 34.5 -92.5t87.5 -36.5q54 0 88.5 36t34.5 93q0 56 -35 92t-88 36q-52 0 -87 -36t-35 -92zM428 550h-279v92h279v-92z" />
    <glyph glyph-name="Ohungarumlaut" unicode="&#x150;" horiz-adv-x="819" 
d="M45 350q0 153 102 257q104 104 262 104t261 -100q104 -101 104 -261q0 -157 -104 -259t-261 -102q-158 0 -261 100t-103 261zM175 350q0 -106 67 -176t167 -70q108 0 171 70q64 70 64 176q0 107 -68 177q-68 69 -167 69q-101 0 -168 -69q-66 -69 -66 -177zM598 911
l80 -72l-191 -108l-47 49zM372 911l99 -51l-164 -129l-49 46z" />
    <glyph glyph-name="ohungarumlaut" unicode="&#x151;" horiz-adv-x="562" 
d="M103 55q-67 67 -67 170t67 169q67 67 178 67q110 0 177 -67q68 -66 68 -169q0 -102 -68 -170q-68 -66 -177 -66q-111 0 -178 66zM159 225q0 -56 34.5 -92.5t87.5 -36.5q54 0 88.5 36t34.5 93q0 56 -35 92t-88 36q-52 0 -87 -36t-35 -92zM414 721l85 -65l-132 -139l-69 48
zM236 731l82 -61l-114 -153l-69 48z" />
    <glyph glyph-name="OE" unicode="&#x152;" horiz-adv-x="1038" 
d="M975 0h-415v20q-71 -31 -154 -31q-160 0 -261 99q-100 99 -100 262q0 156 95 259q94 102 263 102q88 0 157 -34v23h405v-115h-282v-174h252v-115h-252v-181h292v-115zM417 104q79 0 143 40v405q-71 47 -157 47q-100 0 -164 -67t-64 -179q0 -110 67 -178q68 -68 175 -68z
" />
    <glyph glyph-name="oe" unicode="&#x153;" horiz-adv-x="833" 
d="M734 126l32 -81q-65 -56 -172 -56q-94 0 -156 48q-63 -48 -157 -48q-111 0 -178 66q-67 67 -67 170t67 169q67 67 178 67q92 0 157 -50q64 50 153 50t151 -59t62 -150q0 -40 -7 -62h-325q7 -50 43 -77.5t91 -27.5q76 0 128 41zM281 96q54 0 89 32q-17 46 -17 97
q0 53 18 97q-37 31 -90 31q-52 0 -87.5 -36t-35.5 -92t35 -92.5t88 -36.5zM586 365q-98 0 -118 -98h221q1 43 -27.5 70.5t-75.5 27.5z" />
    <glyph glyph-name="Racute" unicode="&#x154;" horiz-adv-x="658" 
d="M220 262v-262h-123v700q52 0 113 1t100 1q254 0 254 -216q0 -80 -41 -132q-41 -50 -94 -68l219 -286h-149l-193 262h-86zM304 587q-5 0 -16 -0.5t-31 -1t-37 -0.5v-208h80q59 0 96.5 29t37.5 79q0 102 -130 102zM421 911l43 -99l-225 -81l-32 69z" />
    <glyph glyph-name="racute" unicode="&#x155;" horiz-adv-x="354" 
d="M179 0h-115v450h115v-44q37 52 103 52q47 0 70 -17l-41 -108q-29 17 -58 17q-50 0 -74 -48v-302zM227 730l90 -68l-126 -145l-69 48z" />
    <glyph glyph-name="Rcommaaccent" unicode="&#x156;" horiz-adv-x="658" 
d="M220 262v-262h-123v700q52 0 113 1t100 1q254 0 254 -216q0 -80 -41 -132q-41 -50 -94 -68l219 -286h-149l-193 262h-86zM304 587q-5 0 -16 -0.5t-31 -1t-37 -0.5v-208h80q59 0 96.5 29t37.5 79q0 102 -130 102zM261 -58l112 25q20 -12 20 -49q0 -50 -38 -83
q-38 -34 -86 -41l-34 50q43 18 43 60q0 26 -17 38z" />
    <glyph glyph-name="rcommaaccent" unicode="&#x157;" horiz-adv-x="354" 
d="M179 0h-115v450h115v-44q37 52 103 52q47 0 70 -17l-41 -108q-29 17 -58 17q-50 0 -74 -48v-302zM104 -58l112 25q20 -12 20 -49q0 -50 -38 -83q-38 -34 -86 -41l-34 50q43 18 43 60q0 26 -17 38z" />
    <glyph glyph-name="Rcaron" unicode="&#x158;" horiz-adv-x="658" 
d="M220 262v-262h-123v700q52 0 113 1t100 1q254 0 254 -216q0 -80 -41 -132q-41 -50 -94 -68l219 -286h-149l-193 262h-86zM304 587q-5 0 -16 -0.5t-31 -1t-37 -0.5v-208h80q59 0 96.5 29t37.5 79q0 102 -130 102zM306 735h-4l-179 111l45 65l136 -79l135 79l41 -64z" />
    <glyph glyph-name="rcaron" unicode="&#x159;" horiz-adv-x="354" 
d="M199 509h-4l-152 134l54 68l101 -92l102 90l52 -67zM179 0h-115v450h115v-44q37 52 103 52q47 0 70 -17l-41 -108q-29 17 -58 17q-50 0 -74 -48v-302z" />
    <glyph glyph-name="Sacute" unicode="&#x15a;" horiz-adv-x="553" 
d="M378 186q0 32 -23.5 56.5t-58.5 40t-76.5 36t-76.5 43t-58.5 63t-23.5 93.5q0 81 59 137q61 56 159 56q133 0 200 -75l-66 -92q-53 52 -124 52q-45 0 -71.5 -21t-26.5 -56q0 -18 7 -33.5t15.5 -25.5t28 -22t31 -17.5t38.5 -17.5t38 -17q44 -20 77 -42q37 -22 59.5 -63
t22.5 -94q0 -88 -67 -143t-167 -55q-70 0 -139 29q-66 30 -90 81l70 84q28 -37 72.5 -58t88.5 -21q46 0 74 22t28 60zM423 911l43 -99l-225 -81l-32 69z" />
    <glyph glyph-name="sacute" unicode="&#x15b;" horiz-adv-x="444" 
d="M49 324q0 63 46 100t119 37q110 0 171 -57l-43 -82q-55 43 -122 43q-24 0 -40 -11.5t-16 -27.5q0 -33 85 -55q31 -7 55 -15.5t49.5 -24t39.5 -40.5t14 -58q0 -66 -49.5 -105t-132.5 -39q-59 0 -115 25q-57 26 -73 52l56 75q19 -23 63 -39q45 -17 77 -17q39 -4 55 25.5
t-21 48.5q-15 8 -46.5 17t-58 18.5t-54 24.5t-43.5 41.5t-16 63.5zM250 730l90 -68l-126 -145l-69 48z" />
    <glyph glyph-name="Scircumflex" unicode="&#x15c;" horiz-adv-x="553" 
d="M378 186q0 32 -23.5 56.5t-58.5 40t-76.5 36t-76.5 43t-58.5 63t-23.5 93.5q0 81 59 137q61 56 159 56q133 0 200 -75l-66 -92q-53 52 -124 52q-45 0 -71.5 -21t-26.5 -56q0 -18 7 -33.5t15.5 -25.5t28 -22t31 -17.5t38.5 -17.5t38 -17q44 -20 77 -42q37 -22 59.5 -63
t22.5 -94q0 -88 -67 -143t-167 -55q-70 0 -139 29q-66 30 -90 81l70 84q28 -37 72.5 -58t88.5 -21q46 0 74 22t28 60zM138 728l-41 64l175 112h4l179 -111l-45 -65l-136 71z" />
    <glyph glyph-name="scircumflex" unicode="&#x15d;" horiz-adv-x="444" 
d="M49 324q0 63 46 100t119 37q110 0 171 -57l-43 -82q-55 43 -122 43q-24 0 -40 -11.5t-16 -27.5q0 -33 85 -55q31 -7 55 -15.5t49.5 -24t39.5 -40.5t14 -58q0 -66 -49.5 -105t-132.5 -39q-59 0 -115 25q-57 26 -73 52l56 75q19 -23 63 -39q45 -17 77 -17q39 -4 55 25.5
t-21 48.5q-15 8 -46.5 17t-58 18.5t-54 24.5t-43.5 41.5t-16 63.5zM221 706h4l152 -134l-54 -68l-101 81l-102 -79l-52 67z" />
    <glyph glyph-name="Scedilla" unicode="&#x15e;" horiz-adv-x="553" 
d="M136 -163l37 58q41 -33 74 -33q39 0 39 25q0 28 -41 28h-6v76q-67 7 -120 36t-74 72l70 84q28 -37 72.5 -58t88.5 -21q46 0 74 22t28 60q0 32 -23.5 56.5t-58.5 40t-76.5 36t-76.5 43t-58.5 63t-23.5 93.5q0 81 59 137q61 56 159 56q133 0 200 -75l-66 -92
q-53 52 -124 52q-45 0 -71.5 -21t-26.5 -56q0 -18 7 -33.5t15.5 -25.5t28 -22t31 -17.5t38.5 -17.5t38 -17q44 -20 77 -42q37 -22 59.5 -63t22.5 -94q0 -82 -60 -136q-58 -53 -151 -61v-25q111 -6 111 -85q0 -40 -36 -64t-97 -24q-80 0 -139 45z" />
    <glyph glyph-name="scedilla" unicode="&#x15f;" horiz-adv-x="444" 
d="M84 -166l34 54q34 -26 70 -26q39 0 39 25q0 28 -41 28h-6v79q-47 8 -87.5 29t-55.5 43l56 75q19 -23 63 -39q45 -17 77 -17q39 -4 55 25.5t-21 48.5q-15 8 -46.5 17t-58 18.5t-54 24.5t-43.5 41.5t-16 63.5q0 63 46 100t119 37q110 0 171 -57l-43 -82q-55 43 -122 43
q-24 0 -40 -11.5t-16 -27.5q0 -33 85 -55q31 -7 55 -15.5t49.5 -24t39.5 -40.5t14 -58q0 -63 -45.5 -101.5t-123.5 -41.5v-25q104 -6 104 -85q0 -40 -36.5 -64t-101.5 -24q-63 0 -120 42z" />
    <glyph glyph-name="Scaron" unicode="&#x160;" horiz-adv-x="553" 
d="M378 186q0 32 -23.5 56.5t-58.5 40t-76.5 36t-76.5 43t-58.5 63t-23.5 93.5q0 81 59 137q61 56 159 56q133 0 200 -75l-66 -92q-53 52 -124 52q-45 0 -71.5 -21t-26.5 -56q0 -18 7 -33.5t15.5 -25.5t28 -22t31 -17.5t38.5 -17.5t38 -17q44 -20 77 -42q37 -22 59.5 -63
t22.5 -94q0 -88 -67 -143t-167 -55q-70 0 -139 29q-66 30 -90 81l70 84q28 -37 72.5 -58t88.5 -21q46 0 74 22t28 60zM283 735h-4l-179 111l45 65l136 -79l135 79l41 -64z" />
    <glyph glyph-name="scaron" unicode="&#x161;" horiz-adv-x="444" 
d="M49 324q0 63 46 100t119 37q110 0 171 -57l-43 -82q-55 43 -122 43q-24 0 -40 -11.5t-16 -27.5q0 -33 85 -55q31 -7 55 -15.5t49.5 -24t39.5 -40.5t14 -58q0 -66 -49.5 -105t-132.5 -39q-59 0 -115 25q-57 26 -73 52l56 75q19 -23 63 -39q45 -17 77 -17q39 -4 55 25.5
t-21 48.5q-15 8 -46.5 17t-58 18.5t-54 24.5t-43.5 41.5t-16 63.5zM223 509h-4l-152 134l54 68l101 -92l102 90l52 -67z" />
    <glyph glyph-name="Tcedilla" unicode="&#x162;" horiz-adv-x="597" 
d="M168 -163l37 58q41 -33 74 -33q39 0 39 25q0 28 -41 28h-6v85h-34v585h-227v115h577v-115h-227v-585h-31v-35q111 -6 111 -85q0 -40 -36 -64t-97 -24q-81 0 -139 45z" />
    <glyph glyph-name="tcedilla" unicode="&#x163;" horiz-adv-x="360" 
d="M54 -166l34 54q34 -26 70 -26q39 0 39 25q0 28 -41 28h-6v82q-90 25 -90 174v404h115v-125h145v-108h-145v-164q0 -81 54 -81q34 0 69 26l35 -89q-52 -41 -125 -44v-25q104 -6 104 -85q0 -40 -36.5 -64t-101.5 -24q-63 0 -120 42z" />
    <glyph glyph-name="Tcaron" unicode="&#x164;" horiz-adv-x="597" 
d="M298 735h-4l-179 111l45 65l136 -79l135 79l41 -64zM237 585h-227v115h577v-115h-227v-585h-123v585z" />
    <glyph glyph-name="tcaron" unicode="&#x165;" horiz-adv-x="360" 
d="M54 171v404h115v-125h145v-108h-145v-164q0 -81 54 -81q34 0 69 26l35 -89q-55 -44 -133 -44q-73 0 -106.5 44.5t-33.5 136.5zM251 700h112q6 -12 6 -35q0 -119 -99 -174l-53 50q45 43 45 110q0 24 -11 49z" />
    <glyph glyph-name="Umacron" unicode="&#x16a;" horiz-adv-x="751" 
d="M541 700h122v-410q0 -151 -79 -226q-80 -75 -199 -75q-135 0 -217 79q-81 79 -81 229v403h123v-377q0 -104 44.5 -161.5t130.5 -57.5q156 0 156 211v385zM537 760h-309v92h309v-92z" />
    <glyph glyph-name="umacron" unicode="&#x16b;" horiz-adv-x="535" 
d="M356 450h115v-450h-115v55q-54 -66 -144 -66q-72 0 -115 48t-43 138v275h115v-251q0 -103 86 -103q59 0 101 55v299zM403 550h-279v92h279v-92z" />
    <glyph glyph-name="Ubreve" unicode="&#x16c;" horiz-adv-x="751" 
d="M541 700h122v-410q0 -151 -79 -226q-80 -75 -199 -75q-135 0 -217 79q-81 79 -81 229v403h123v-377q0 -104 44.5 -161.5t130.5 -57.5q156 0 156 211v385zM184 841l50 59q56 -63 143 -63q84 0 140 63l43 -60q-28 -44 -78 -73.5t-105 -29.5q-64 0 -116 31q-50 30 -77 73z
" />
    <glyph glyph-name="ubreve" unicode="&#x16d;" horiz-adv-x="535" 
d="M356 450h115v-450h-115v55q-54 -66 -144 -66q-72 0 -115 48t-43 138v275h115v-251q0 -103 86 -103q59 0 101 55v299zM106 624l51 57q51 -56 110 -56q69 0 112 55l40 -56q-62 -92 -157 -92q-53 0 -94 27t-62 65z" />
    <glyph glyph-name="Uring" unicode="&#x16e;" horiz-adv-x="751" 
d="M236 800q0 52 38 80t101 28q65 0 104 -28t39 -80t-39.5 -81t-103.5 -29q-62 0 -100.5 29t-38.5 81zM321 800q0 -23 15 -35t40 -12q26 0 41.5 12t15.5 35q0 45 -57 45q-55 0 -55 -45zM541 700h122v-410q0 -151 -79 -226q-80 -75 -199 -75q-135 0 -217 79q-81 79 -81 229
v403h123v-377q0 -104 44.5 -161.5t130.5 -57.5q156 0 156 211v385z" />
    <glyph glyph-name="uring" unicode="&#x16f;" horiz-adv-x="535" 
d="M137 612q0 50 36 85q37 35 90 35q54 0 91 -35q37 -34 37 -85q0 -49 -37 -83.5t-91 -34.5q-55 0 -90 34q-36 34 -36 84zM265 556q32 -2 45.5 27.5t0 59t-45.5 26.5q-24 0 -39 -16t-15 -40t15 -40.5t39 -16.5zM356 450h115v-450h-115v55q-54 -66 -144 -66q-72 0 -115 48
t-43 138v275h115v-251q0 -103 86 -103q59 0 101 55v299z" />
    <glyph glyph-name="Uhungarumlaut" unicode="&#x170;" horiz-adv-x="751" 
d="M541 700h122v-410q0 -151 -79 -226q-80 -75 -199 -75q-135 0 -217 79q-81 79 -81 229v403h123v-377q0 -104 44.5 -161.5t130.5 -57.5q156 0 156 211v385zM550 911l80 -72l-191 -108l-47 49zM324 911l99 -51l-164 -129l-49 46z" />
    <glyph glyph-name="uhungarumlaut" unicode="&#x171;" horiz-adv-x="535" 
d="M356 450h115v-450h-115v55q-54 -66 -144 -66q-72 0 -115 48t-43 138v275h115v-251q0 -103 86 -103q59 0 101 55v299zM396 721l85 -65l-132 -139l-69 48zM218 731l82 -61l-114 -153l-69 48z" />
    <glyph glyph-name="Uogonek" unicode="&#x172;" horiz-adv-x="751" 
d="M541 700h122v-410q0 -119 -50.5 -192.5t-140.5 -97.5q-68 -32 -68 -68q0 -20 13 -30t32 -10q22 0 42 10l35 -70q-13 -13 -43 -22.5t-60 -9.5q-60 0 -97 24t-37 70q0 59 79 95q-129 5 -205 84t-76 224v403h123v-377q0 -104 44.5 -161.5t130.5 -57.5q156 0 156 211v385z
" />
    <glyph glyph-name="uogonek" unicode="&#x173;" horiz-adv-x="535" 
d="M449 -98l35 -70q-13 -13 -43 -22.5t-60 -9.5q-60 0 -97 24t-37 70q0 38 29.5 66t79.5 43v52q-54 -66 -144 -66q-72 0 -115 48t-43 138v275h115v-251q0 -103 86 -103q59 0 101 55v299h115v-450h-5q-41 -1 -72.5 -22t-31.5 -46q0 -20 13 -30t32 -10q22 0 42 10z" />
    <glyph glyph-name="Ydieresis" unicode="&#x178;" horiz-adv-x="629" 
d="M491 700h133l-249 -408v-292h-123v292l-247 408h140l174 -293zM124 825q0 27 22 44.5t55 17.5q30 0 50.5 -17.5t20.5 -44.5q0 -30 -20.5 -48t-50.5 -18q-34 0 -55.5 18t-21.5 48zM356 825q0 27 22 44.5t55 17.5q30 0 50.5 -17.5t20.5 -44.5q0 -30 -20.5 -48t-50.5 -18
q-34 0 -55.5 18t-21.5 48z" />
    <glyph glyph-name="Zacute" unicode="&#x179;" horiz-adv-x="642" 
d="M427 585h-367v115h532v-85l-388 -500h398v-115h-562v84zM459 911l43 -99l-225 -81l-32 69z" />
    <glyph glyph-name="zacute" unicode="&#x17a;" horiz-adv-x="490" 
d="M286 342h-229v108h390v-83l-244 -260h239v-107h-400v83zM281 730l90 -68l-126 -145l-69 48z" />
    <glyph glyph-name="Zdotaccent" unicode="&#x17b;" horiz-adv-x="642" 
d="M427 585h-367v115h532v-85l-388 -500h398v-115h-562v84zM247 831q0 32 22.5 51.5t56.5 19.5q31 0 53 -20t22 -51q0 -33 -22 -54t-53 -21q-34 0 -56.5 20.5t-22.5 54.5z" />
    <glyph glyph-name="zdotaccent" unicode="&#x17c;" horiz-adv-x="490" 
d="M286 342h-229v108h390v-83l-244 -260h239v-107h-400v83zM173 612q0 30 20.5 48.5t51.5 18.5q27 0 46.5 -19t19.5 -48q0 -32 -19.5 -52t-46.5 -20q-31 0 -51.5 20t-20.5 52z" />
    <glyph glyph-name="Zcaron" unicode="&#x17d;" horiz-adv-x="642" 
d="M331 735h-4l-179 111l45 65l136 -79l135 79l41 -64zM427 585h-367v115h532v-85l-388 -500h398v-115h-562v84z" />
    <glyph glyph-name="zcaron" unicode="&#x17e;" horiz-adv-x="490" 
d="M254 509h-4l-152 134l54 68l101 -92l102 90l52 -67zM286 342h-229v108h390v-83l-244 -260h239v-107h-400v83z" />
    <glyph glyph-name="longs" unicode="&#x17f;" horiz-adv-x="258" 
d="M184 0h-115v523q0 91 42 139.5t118 48.5q85 0 126 -42l-39 -88q-22 22 -66 22q-66 0 -66 -89v-514z" />
    <glyph glyph-name="uni018F" unicode="&#x18f;" horiz-adv-x="781" 
d="M68 414h556q-18 86 -83.5 134t-164.5 48q-92 0 -165 -54l-47 92q91 77 241 77q157 0 254 -99q98 -100 98 -261q0 -165 -97 -263q-96 -99 -257 -99q-164 0 -260 116q-96 115 -75 309zM401 104q93 0 152.5 50.5t75.5 144.5h-434q6 -83 61 -139q56 -56 145 -56z" />
    <glyph glyph-name="florin" unicode="&#x192;" 
d="M403 514l-11 -64h115v-108h-134l-66 -375q-18 -93 -52.5 -134t-103.5 -41q-73 0 -110 32l31 91q25 -16 52 -16q53 0 68 79l64 364h-117v108h136l13 73q19 100 57.5 144t110.5 44q84 0 125 -42l-39 -88q-22 22 -66 22q-56 0 -73 -89z" />
    <glyph glyph-name="uni01DD" unicode="&#x1dd;" horiz-adv-x="516" 
d="M103 324l-32 81q67 56 174 56q108 0 171 -65q64 -64 64 -171q0 -103 -60 -170q-60 -66 -168 -66q-96 0 -160 58q-63 59 -63 151q0 42 7 64h330q-8 47 -44 75t-89 28q-77 0 -130 -41zM253 85q99 0 116 100h-221q-1 -45 28 -72.5t77 -27.5z" />
    <glyph glyph-name="Scommaaccent" unicode="&#x218;" horiz-adv-x="553" 
d="M378 186q0 32 -23.5 56.5t-58.5 40t-76.5 36t-76.5 43t-58.5 63t-23.5 93.5q0 81 59 137q61 56 159 56q133 0 200 -75l-66 -92q-53 52 -124 52q-45 0 -71.5 -21t-26.5 -56q0 -18 7 -33.5t15.5 -25.5t28 -22t31 -17.5t38.5 -17.5t38 -17q44 -20 77 -42q37 -22 59.5 -63
t22.5 -94q0 -88 -67 -143t-167 -55q-70 0 -139 29q-66 30 -90 81l70 84q28 -37 72.5 -58t88.5 -21q46 0 74 22t28 60zM221 -58l112 25q20 -12 20 -49q0 -50 -38 -83q-38 -34 -86 -41l-34 50q43 18 43 60q0 26 -17 38z" />
    <glyph glyph-name="scommaaccent" unicode="&#x219;" horiz-adv-x="444" 
d="M49 324q0 63 46 100t119 37q110 0 171 -57l-43 -82q-55 43 -122 43q-24 0 -40 -11.5t-16 -27.5q0 -33 85 -55q31 -7 55 -15.5t49.5 -24t39.5 -40.5t14 -58q0 -66 -49.5 -105t-132.5 -39q-59 0 -115 25q-57 26 -73 52l56 75q19 -23 63 -39q45 -17 77 -17q39 -4 55 25.5
t-21 48.5q-15 8 -46.5 17t-58 18.5t-54 24.5t-43.5 41.5t-16 63.5zM162 -58l112 25q20 -12 20 -49q0 -50 -38 -83q-38 -34 -86 -41l-34 50q43 18 43 60q0 26 -17 38z" />
    <glyph glyph-name="Tcommaaccent" unicode="&#x21a;" horiz-adv-x="597" 
d="M237 585h-227v115h577v-115h-227v-585h-123v585zM229 -58l112 25q20 -12 20 -49q0 -50 -38 -83q-38 -34 -86 -41l-34 50q43 18 43 60q0 26 -17 38z" />
    <glyph glyph-name="tcommaaccent" unicode="&#x21b;" horiz-adv-x="360" 
d="M54 171v404h115v-125h145v-108h-145v-164q0 -81 54 -81q34 0 69 26l35 -89q-55 -44 -133 -44q-73 0 -106.5 44.5t-33.5 136.5zM110 -58l112 25q20 -12 20 -49q0 -50 -38 -83q-38 -34 -86 -41l-34 50q43 18 43 60q0 26 -17 38z" />
    <glyph glyph-name="uni0237" unicode="&#x237;" horiz-adv-x="284" 
d="M87 450h115v-483q0 -175 -141 -175q-73 0 -110 32l31 91q25 -16 51 -16q54 0 54 78v473z" />
    <glyph glyph-name="uni0259" unicode="&#x259;" horiz-adv-x="516" 
d="M103 324l-32 81q67 56 174 56q108 0 171 -65q64 -64 64 -171q0 -103 -60 -170q-60 -66 -168 -66q-96 0 -160 58q-63 59 -63 151q0 42 7 64h330q-8 47 -44 75t-89 28q-77 0 -130 -41zM253 85q99 0 116 100h-221q-1 -45 28 -72.5t77 -27.5z" />
    <glyph glyph-name="afii57929" unicode="&#x2bc;" horiz-adv-x="273" 
d="M82 628l97 57q34 -35 34 -93q0 -59 -28.5 -103.5t-71.5 -68.5l-53 49q45 37 45 97q0 39 -23 62z" />
    <glyph glyph-name="circumflex" unicode="&#x2c6;" horiz-adv-x="429" 
d="M213 706h4l152 -134l-54 -68l-101 81l-102 -79l-52 67z" />
    <glyph glyph-name="caron" unicode="&#x2c7;" horiz-adv-x="429" 
d="M216 509h-4l-152 134l54 68l101 -92l102 90l52 -67z" />
    <glyph glyph-name="breve" unicode="&#x2d8;" horiz-adv-x="433" 
d="M60 624l51 57q51 -56 110 -56q69 0 112 55l40 -56q-62 -92 -157 -92q-53 0 -94 27t-62 65z" />
    <glyph glyph-name="dotaccent" unicode="&#x2d9;" horiz-adv-x="258" 
d="M60 612q0 30 20.5 48.5t51.5 18.5q27 0 46.5 -19t19.5 -48q0 -32 -19.5 -52t-46.5 -20q-31 0 -51.5 20t-20.5 52z" />
    <glyph glyph-name="ring" unicode="&#x2da;" horiz-adv-x="374" 
d="M60 612q0 50 36 85q37 35 90 35q54 0 91 -35q37 -34 37 -85q0 -49 -37 -83.5t-91 -34.5q-55 0 -90 34q-36 34 -36 84zM188 556q32 -2 45.5 27.5t0 59t-45.5 26.5q-24 0 -39 -16t-15 -40t15 -40.5t39 -16.5z" />
    <glyph glyph-name="ogonek" unicode="&#x2db;" horiz-adv-x="357" 
d="M262 -98l35 -70q-13 -13 -43 -22.5t-60 -9.5q-60 0 -97 24t-37 70q0 60 68 93q69 33 156 33v-20q-44 0 -76.5 -20.5t-32.5 -47.5q0 -20 13 -30t32 -10q22 0 42 10z" />
    <glyph glyph-name="tilde" unicode="&#x2dc;" horiz-adv-x="464" 
d="M107 538l-47 52q56 69 121 69q24 0 59 -21q36 -21 56 -21q15 0 26 4q16 7 43 27l39 -58q-59 -65 -117 -65q-21 0 -58 20q-36 21 -59 21t-63 -28z" />
    <glyph glyph-name="hungarumlaut" unicode="&#x2dd;" horiz-adv-x="484" 
d="M339 721l85 -65l-132 -139l-69 48zM161 731l82 -61l-114 -153l-69 48z" />
    <glyph glyph-name="gravecomb" unicode="&#x300;" horiz-adv-x="0" 
d="M-199 565l-68 -48l-127 143l91 68z" />
    <glyph glyph-name="acutecomb" unicode="&#x301;" horiz-adv-x="0" 
d="M-205 730l90 -68l-126 -145l-69 48z" />
    <glyph glyph-name="uni0394" unicode="&#x394;" horiz-adv-x="741" 
d="M716 0h-691l303 708h78zM533 115l-169 387l-161 -387h330z" />
    <glyph glyph-name="uni0394" unicode="&#x2206;" horiz-adv-x="741" 
d="M716 0h-691l303 708h78zM533 115l-169 387l-161 -387h330z" />
    <glyph glyph-name="uni03A9" unicode="&#x3a9;" horiz-adv-x="823" 
d="M368 0h-314v115h157q-59 19 -108 93q-48 75 -48 172q0 148 102 240q101 91 255 91q156 0 256 -91q101 -90 101 -240q0 -102 -49 -173q-50 -71 -108 -92h156v-115h-313v115q83 23 133 92q51 71 51 153q0 97 -63 166q-61 70 -164 70q-107 0 -167 -70q-60 -69 -60 -169
q0 -76 50 -150q50 -72 133 -92v-115z" />
    <glyph glyph-name="uni03A9" unicode="&#x2126;" horiz-adv-x="823" 
d="M368 0h-314v115h157q-59 19 -108 93q-48 75 -48 172q0 148 102 240q101 91 255 91q156 0 256 -91q101 -90 101 -240q0 -102 -49 -173q-50 -71 -108 -92h156v-115h-313v115q83 23 133 92q51 71 51 153q0 97 -63 166q-61 70 -164 70q-107 0 -167 -70q-60 -69 -60 -169
q0 -76 50 -150q50 -72 133 -92v-115z" />
    <glyph glyph-name="pi" unicode="&#x3c0;" horiz-adv-x="627" 
d="M125 342h-83v108h534v-108h-77v-176q0 -68 33 -68q19 0 46 18l24 -88q-47 -38 -118 -38q-100 0 -100 129v223h-145v-45q0 -123 -25 -189q-23 -66 -64 -91.5t-115 -25.5l-10 112q94 -7 99 177z" />
    <glyph glyph-name="afii10023" unicode="&#x401;" horiz-adv-x="575" 
d="M512 0h-415v700h405v-115h-282v-174h252v-115h-252v-181h292v-115zM119 825q0 27 22 44.5t55 17.5q30 0 50.5 -17.5t20.5 -44.5q0 -30 -20.5 -48t-50.5 -18q-34 0 -55.5 18t-21.5 48zM351 825q0 27 22 44.5t55 17.5q30 0 50.5 -17.5t20.5 -44.5q0 -30 -20.5 -48
t-50.5 -18q-34 0 -55.5 18t-21.5 48z" />
    <glyph glyph-name="afii10051" unicode="&#x402;" horiz-adv-x="764" 
d="M719 203q0 -106 -47 -160t-132 -54q-37 0 -71.5 13t-47.5 30l41 94q28 -22 62 -22q73 0 73 97q0 107 -111 107q-65 0 -126 -37v-271h-123v585h-227v115h577v-115h-227v-202q65 40 149 40q210 0 210 -220z" />
    <glyph glyph-name="afii10052" unicode="&#x403;" horiz-adv-x="507" 
d="M220 0h-123v700h395v-115h-272v-585zM466 911l43 -99l-225 -81l-32 69z" />
    <glyph glyph-name="afii10053" unicode="&#x404;" horiz-adv-x="673" 
d="M173 414h313v-115h-315q17 -96 86 -145q71 -50 167 -50q98 0 177 61l45 -103q-85 -73 -232 -73q-169 0 -269 97t-100 264q0 159 98 260q99 101 254 101q150 0 241 -77l-55 -92q-72 54 -164 54q-99 0 -163.5 -48t-82.5 -134z" />
    <glyph glyph-name="afii10054" unicode="&#x405;" horiz-adv-x="553" 
d="M378 186q0 32 -23.5 56.5t-58.5 40t-76.5 36t-76.5 43t-58.5 63t-23.5 93.5q0 81 59 137q61 56 159 56q133 0 200 -75l-66 -92q-53 52 -124 52q-45 0 -71.5 -21t-26.5 -56q0 -18 7 -33.5t15.5 -25.5t28 -22t31 -17.5t38.5 -17.5t38 -17q44 -20 77 -42q37 -22 59.5 -63
t22.5 -94q0 -88 -67 -143t-167 -55q-70 0 -139 29q-66 30 -90 81l70 84q28 -37 72.5 -58t88.5 -21q46 0 74 22t28 60z" />
    <glyph glyph-name="afii10055" unicode="&#x406;" horiz-adv-x="347" 
d="M235 0h-123v700h123v-700z" />
    <glyph glyph-name="afii10056" unicode="&#x407;" horiz-adv-x="347" 
d="M26 825q0 27 19 44.5t47 17.5q27 0 45 -17.5t18 -44.5q0 -30 -18 -48t-45 -18q-28 0 -47 18t-19 48zM193 825q0 27 19.5 44.5t47.5 17.5q25 0 43.5 -18t18.5 -44q0 -30 -17.5 -48t-44.5 -18q-30 0 -48.5 18t-18.5 48zM235 0h-123v700h123v-700z" />
    <glyph glyph-name="afii10057" unicode="&#x408;" horiz-adv-x="390" 
d="M170 700h123v-535q0 -85 -43 -130.5t-126 -45.5q-37 0 -70 12.5t-49 30.5l40 94q28 -22 62 -22q63 0 63 82v514z" />
    <glyph glyph-name="afii10058" unicode="&#x409;" horiz-adv-x="1011" 
d="M510 0v585h-204l-14 -132q-12 -120 -31 -205t-42 -136t-54.5 -78t-65 -33.5t-77.5 -0.5l3 122q22 -3 36 2t33 28q21 26 34 69q36 107 53 339l10 140h441v-240q43 5 77 5q125 0 191 -59.5t66 -166.5q0 -114 -74.5 -177.5t-208.5 -63.5q-57 0 -97 1q-39 1 -76 1zM699 350
q-17 0 -67 -5v-229h3q3 -1 9.5 -1.5t13.5 -0.5q17 -1 39 -1q139 0 139 123q0 56 -35.5 85t-101.5 29z" />
    <glyph glyph-name="afii10059" unicode="&#x40a;" horiz-adv-x="1032" 
d="M220 0h-123v700h123v-262h310v262h122v-257q39 4 78 4q125 0 191 -57t66 -160q0 -108 -75.5 -170t-207.5 -62q-57 0 -97 1q-39 1 -76 1h-1v323h-310v-323zM652 327v-211q1 0 4 -0.5t9.5 -1t13.5 -0.5q17 -1 39 -1q139 0 139 114q0 51 -35.5 78t-101.5 27q-30 0 -68 -5z
" />
    <glyph glyph-name="afii10060" unicode="&#x40b;" horiz-adv-x="765" 
d="M237 585h-227v115h577v-115h-227v-202q62 40 150 40q42 0 78 -12t66.5 -37t48 -69.5t17.5 -104.5v-200h-122v164q0 144 -120 144q-59 0 -118 -38v-270h-123v585z" />
    <glyph glyph-name="afii10061" unicode="&#x40c;" horiz-adv-x="672" 
d="M220 0h-123v700h123v-332l276 332h148l-288 -326l306 -374h-156l-286 361v-361zM511 911l43 -99l-225 -81l-32 69z" />
    <glyph glyph-name="afii10062" unicode="&#x40e;" horiz-adv-x="683" 
d="M547 700h124l-238 -537q-37 -84 -82.5 -123.5t-107.5 -39.5t-96 28l43 104q26 -17 52 -17q47 0 69 49l10 24l-309 512h139l229 -391zM156 870h115q12 -58 85 -58q76 0 80 58h115q-1 -63 -57 -104q-56 -39 -138 -39q-88 0 -141.5 38.5t-58.5 104.5z" />
    <glyph glyph-name="afii10145" unicode="&#x40f;" horiz-adv-x="742" 
d="M313 0h-216v700h123v-585h302v585h123v-700h-217v-153h-115v153z" />
    <glyph glyph-name="afii10017" unicode="&#x410;" horiz-adv-x="715" 
d="M131 0h-124l296 702h108l296 -702h-131l-73 179h-299zM456 294l-102 249l-103 -249h205z" />
    <glyph glyph-name="afii10018" unicode="&#x411;" horiz-adv-x="614" 
d="M97 0v700h409v-115h-286v-156q41 6 94 6q109 0 172 -57t63 -154q0 -109 -70.5 -168.5t-199.5 -59.5q-24 0 -106 2q-16 0 -34 0.5t-27.5 1t-14.5 0.5zM304 320q-38 0 -84 -6v-199q49 -4 78 -4q129 0 129 104q0 49 -31 77t-92 28z" />
    <glyph glyph-name="afii10019" unicode="&#x412;" horiz-adv-x="617" 
d="M97 1v697q108 5 202 5q116 0 173 -46t57 -127q0 -113 -100 -159v-2q57 -15 90 -56.5t33 -106.5q0 -102 -70 -156t-190 -54t-195 5zM307 301h-87v-185q47 -5 81 -5q128 0 128 101q0 44 -32 66.5t-90 22.5zM297 588q-44 0 -77 -3v-177h83q47 0 75.5 24t28.5 69
q0 42 -29 64.5t-81 22.5z" />
    <glyph glyph-name="afii10020" unicode="&#x413;" horiz-adv-x="507" 
d="M220 0h-123v700h395v-115h-272v-585z" />
    <glyph glyph-name="afii10021" unicode="&#x414;" horiz-adv-x="756" 
d="M127 -125h-115v240h75q30 35 65 155q36 123 43 290l7 140h434v-585h95v-240h-115v125h-489v-125zM321 585l-11 -122q-9 -126 -37 -221q-29 -99 -51 -127h292v470h-193z" />
    <glyph glyph-name="afii10022" unicode="&#x415;" horiz-adv-x="575" 
d="M512 0h-415v700h405v-115h-282v-174h252v-115h-252v-181h292v-115z" />
    <glyph glyph-name="afii10024" unicode="&#x416;" horiz-adv-x="954" 
d="M10 0l274 365l-263 335h141l254 -334v334h122v-334l253 334h142l-263 -334l274 -366h-142l-264 363v-363h-122v363l-265 -363h-141z" />
    <glyph glyph-name="afii10025" unicode="&#x417;" horiz-adv-x="585" 
d="M275 -11q-81 0 -143.5 33t-96.5 85l67 83q33 -38 79 -62t88 -24q57 0 93 27.5t36 76.5q0 43 -32.5 67.5t-91.5 24.5h-72v115h68q42 0 71.5 25.5t29.5 66.5q0 42 -27.5 65.5t-74.5 23.5q-85 0 -142 -76l-71 82q36 49 97 79t130 30q96 0 153 -51t57 -141q0 -44 -24.5 -86
t-69.5 -68v-3q60 -15 90.5 -58.5t30.5 -107.5q0 -93 -73 -150q-72 -57 -172 -57z" />
    <glyph glyph-name="afii10026" unicode="&#x418;" horiz-adv-x="792" 
d="M572 497l-367 -497h-108v700h123v-498l367 498h108v-700h-123v497z" />
    <glyph glyph-name="afii10027" unicode="&#x419;" horiz-adv-x="792" 
d="M572 497l-367 -497h-108v700h123v-498l367 498h108v-700h-123v497zM208 870h115q12 -58 85 -58q76 0 80 58h115q-1 -63 -57 -104q-56 -39 -138 -39q-88 0 -141.5 38.5t-58.5 104.5z" />
    <glyph glyph-name="afii10028" unicode="&#x41a;" horiz-adv-x="672" 
d="M220 0h-123v700h123v-332l276 332h148l-288 -326l306 -374h-156l-286 361v-361z" />
    <glyph glyph-name="afii10029" unicode="&#x41b;" horiz-adv-x="729" 
d="M632 0h-122v585h-204l-14 -132q-12 -120 -31 -205t-42 -136t-54.5 -78t-65 -33.5t-77.5 -0.5l3 122q22 -3 36 2t33 28q21 26 34 69q36 107 53 339l10 140h441v-700z" />
    <glyph glyph-name="afii10030" unicode="&#x41c;" horiz-adv-x="901" 
d="M220 0h-123v700h124l239 -327l228 327h116v-700h-122v506l-221 -311h-18l-223 308v-503z" />
    <glyph glyph-name="afii10031" unicode="&#x41d;" horiz-adv-x="759" 
d="M662 0h-122v299h-320v-299h-123v700h123v-286h320v286h122v-700z" />
    <glyph glyph-name="afii10032" unicode="&#x41e;" horiz-adv-x="819" 
d="M45 350q0 153 102 257q104 104 262 104t261 -100q104 -101 104 -261q0 -157 -104 -259t-261 -102q-158 0 -261 100t-103 261zM175 350q0 -106 67 -176t167 -70q108 0 171 70q64 70 64 176q0 107 -68 177q-68 69 -167 69q-101 0 -168 -69q-66 -69 -66 -177z" />
    <glyph glyph-name="afii10033" unicode="&#x41f;" horiz-adv-x="752" 
d="M655 0h-123v585h-312v-585h-123v700h558v-700z" />
    <glyph glyph-name="afii10034" unicode="&#x420;" horiz-adv-x="612" 
d="M220 253v-253h-123v700q44 0 95 1q52 1 104 1q74 0 128.5 -18.5t84.5 -51t44 -71t14 -84.5q0 -95 -68 -161q-67 -66 -188 -66q-61 0 -91 3zM308 587l-88 -2v-215q53 -5 87 -5q59 0 94.5 29t35.5 84q0 109 -129 109z" />
    <glyph glyph-name="afii10035" unicode="&#x421;" horiz-adv-x="655" 
d="M583 160l47 -92q-33 -35 -94.5 -57t-129.5 -22q-160 0 -261 99q-100 99 -100 262q0 156 95 259q94 102 263 102q134 0 213 -71l-55 -91q-71 47 -158 47q-100 0 -164 -67t-64 -179q0 -110 67 -178q68 -68 175 -68q92 0 166 56z" />
    <glyph glyph-name="afii10036" unicode="&#x422;" horiz-adv-x="597" 
d="M237 585h-227v115h577v-115h-227v-585h-123v585z" />
    <glyph glyph-name="afii10037" unicode="&#x423;" horiz-adv-x="683" 
d="M547 700h124l-238 -537q-37 -84 -82.5 -123.5t-107.5 -39.5t-96 28l43 104q26 -17 52 -17q47 0 69 49l10 24l-309 512h139l229 -391z" />
    <glyph glyph-name="afii10038" unicode="&#x424;" horiz-adv-x="839" 
d="M481 -8h-123v93q-146 0 -235 72q-88 73 -88 203q0 129 88 201q89 73 235 74v73h123v-73q145 -1 234 -75t89 -200q0 -128 -89 -202q-88 -71 -234 -73v-93zM674 360q0 74 -50 117.5t-143 44.5v-324q193 1 193 162zM165 360q0 -78 50 -119.5t143 -42.5v324
q-92 -1 -142.5 -44.5t-50.5 -117.5z" />
    <glyph glyph-name="afii10039" unicode="&#x425;" horiz-adv-x="669" 
d="M506 700h144l-236 -343l245 -357h-144l-181 263l-180 -263h-144l245 357l-234 343h144l172 -253z" />
    <glyph glyph-name="afii10040" unicode="&#x426;" horiz-adv-x="770" 
d="M630 0h-533v700h123v-585h307v585h123v-585h95v-240h-115v125z" />
    <glyph glyph-name="afii10041" unicode="&#x427;" horiz-adv-x="667" 
d="M447 700h123v-700h-123v287q-66 -48 -167 -48q-91 0 -152 54t-61 170v237h123v-202q0 -144 123 -144q68 0 134 45v301z" />
    <glyph glyph-name="afii10042" unicode="&#x428;" horiz-adv-x="997" 
d="M900 0h-803v700h123v-585h217v585h123v-585h217v585h123v-700z" />
    <glyph glyph-name="afii10043" unicode="&#x429;" horiz-adv-x="1020" 
d="M880 0h-783v700h123v-585h217v585h123v-585h217v585h123v-585h95v-240h-115v125z" />
    <glyph glyph-name="afii10044" unicode="&#x42a;" horiz-adv-x="673" 
d="M161 585h-154v115h276v-240q45 5 81 5q130 0 197 -59t67 -167q0 -113 -76.5 -177t-214.5 -64q-57 0 -98 1t-78 1v585zM354 350q-19 0 -71 -5v-229q9 0 34 -1.5t35 -1.5q146 0 146 123q0 56 -38 85t-106 29z" />
    <glyph glyph-name="afii10045" unicode="&#x42b;" horiz-adv-x="864" 
d="M767 0h-122v700h122v-700zM288 350q-16 0 -68 -5v-229q8 0 32 -1.5t34 -1.5q138 0 138 123q0 56 -35 85t-101 29zM97 700h123v-240q43 5 78 5q125 0 190.5 -59.5t65.5 -166.5q0 -112 -75.5 -176.5t-207.5 -64.5q-56 0 -97 1q-40 1 -77 1v700z" />
    <glyph glyph-name="afii10046" unicode="&#x42c;" horiz-adv-x="609" 
d="M290 350q-18 0 -70 -5v-229q66 -3 68 -3q146 0 146 123q0 56 -38 85t-106 29zM97 700h123v-240q43 5 80 5q130 0 197 -59t67 -167q0 -112 -76.5 -176.5t-213.5 -64.5q-58 0 -99 1t-78 1v700z" />
    <glyph glyph-name="afii10047" unicode="&#x42d;" horiz-adv-x="673" 
d="M502 299h-315v115h312q-18 86 -85 134t-167 48q-92 0 -164 -54l-48 92q91 77 241 77q156 0 254 -99q98 -100 98 -261q0 -165 -99 -264q-100 -98 -267 -98q-70 0 -133 20t-102 53l53 103q79 -61 180 -61q96 0 161.5 51.5t80.5 143.5z" />
    <glyph glyph-name="afii10048" unicode="&#x42e;" horiz-adv-x="1081" 
d="M220 0h-123v700h123v-286h119q20 131 112 214q94 83 230 83q157 0 256 -100q99 -99 99 -261q0 -159 -100 -260q-99 -101 -255 -101q-135 0 -232 85q-95 85 -112 225h-117v-299zM464 350q0 -105 64 -175q65 -71 157 -71q106 0 163 69q58 68 58 177q0 110 -61 177
q-62 69 -160 69q-95 0 -158 -69t-63 -177z" />
    <glyph glyph-name="afii10049" unicode="&#x42f;" horiz-adv-x="632" 
d="M535 0h-122v242h-101l-157 -242h-138l179 267q-56 28 -89.5 78t-33.5 116q0 105 72 173q72 69 216 69q2 0 88 -2q44 -1 86 -1v-700zM301 357h112v228q-51 3 -77 3q-60 0 -96.5 -33t-36.5 -86q0 -44 27.5 -73.5t70.5 -38.5z" />
    <glyph glyph-name="afii10065" unicode="&#x430;" horiz-adv-x="463" 
d="M99 334l-29 84q73 43 159 43q94 0 137 -46t43 -141v-274h-100v52q-40 -58 -133 -58q-64 0 -102.5 37.5t-38.5 100.5q0 70 45 108t119 38q61 0 102 -29q2 60 -17.5 88t-66.5 28q-52 0 -118 -31zM214 91q58 0 87 41v46q-28 22 -79 22q-32 0 -52 -15t-20 -41q0 -24 18 -38.5
t46 -14.5z" />
    <glyph glyph-name="afii10066" unicode="&#x431;" horiz-adv-x="548" 
d="M402 711l60 -94q-24 -30 -60 -44q-32 -11 -80 -22q-47 -9 -78 -25q-83 -39 -97 -168h2q21 37 65 60.5t93 23.5q93 0 149 -60q56 -61 56 -161q0 -97 -66 -165q-66 -67 -170 -67q-113 0 -179 77q-65 77 -65 208q0 288 170 362q37 16 82 24q51 10 75 19.5t43 31.5zM155 250
q1 -68 33 -111t85 -43q52 0 84 34t32 86q0 53 -29.5 86t-81.5 33q-45 0 -78 -23.5t-45 -61.5z" />
    <glyph glyph-name="afii10067" unicode="&#x432;" horiz-adv-x="502" 
d="M64 0v450q9 0 76.5 2.5t100.5 2.5q204 0 204 -118q0 -38 -24 -66.5t-60 -33.5v-2q96 -23 96 -104q0 -136 -214 -136q-31 0 -95 3q-16 0 -36.5 0.5t-31 1t-16.5 0.5zM251 191h-72v-100q60 -4 76 -4q38 0 59.5 14t21.5 38q0 52 -85 52zM251 362q-40 0 -72 -2v-99h75
q31 0 50 14t19 38q0 49 -72 49z" />
    <glyph glyph-name="afii10068" unicode="&#x433;" horiz-adv-x="374" 
d="M179 0h-115v450h302v-108h-187v-342z" />
    <glyph glyph-name="afii10069" unicode="&#x434;" horiz-adv-x="556" 
d="M117 -105h-107v212h57q53 71 63 235l7 108h332v-343h75v-212h-108v105h-319v-105zM244 342l-3 -46q-12 -130 -54 -189h167v235h-110z" />
    <glyph glyph-name="afii10070" unicode="&#x435;" horiz-adv-x="516" 
d="M417 126l33 -81q-67 -56 -172 -56q-108 0 -176 65q-66 64 -66 171q0 100 65 168t173 68q89 0 151 -59t62 -150q0 -40 -7 -62h-325q7 -49 43.5 -77t91.5 -28q75 0 127 41zM269 365q-98 0 -118 -98h221q1 43 -27.5 70.5t-75.5 27.5z" />
    <glyph glyph-name="afii10072" unicode="&#x436;" horiz-adv-x="709" 
d="M553 450h136l-149 -218l161 -232h-136l-150 232zM410 0h-115v450h115v-450zM7 0l159 232l-150 218h140l134 -218l-146 -232h-137z" />
    <glyph glyph-name="afii10073" unicode="&#x437;" horiz-adv-x="472" 
d="M223 -11q-59 0 -115 21q-56 22 -81 54l59 72q20 -23 57 -39t70 -16q44 0 68 15t24 40q0 23 -18 37t-50 14h-84v77h79q27 0 43.5 15.5t16.5 39.5q0 49 -79 49q-62 0 -123 -52l-48 69q64 76 193 76q87 0 133.5 -33.5t46.5 -94.5q0 -33 -22 -60t-61 -40v-2q45 -9 70 -37.5
t25 -68.5q0 -63 -55.5 -99.5t-148.5 -36.5z" />
    <glyph glyph-name="afii10074" unicode="&#x438;" horiz-adv-x="568" 
d="M389 285l-210 -285h-115v450h115v-285l210 285h115v-450h-115v285z" />
    <glyph glyph-name="afii10075" unicode="&#x439;" horiz-adv-x="568" 
d="M389 285l-210 -285h-115v450h115v-285l210 285h115v-450h-115v285zM131 675h105q0 -33 13 -53t39 -20q23 0 35.5 20.5t12.5 52.5h105q0 -70 -41 -112.5t-112 -42.5q-78 0 -117.5 41.5t-39.5 113.5z" />
    <glyph glyph-name="afii10076" unicode="&#x43a;" horiz-adv-x="515" 
d="M345 450h145l-173 -214l194 -236h-150l-178 227zM179 0h-115v450h115v-450z" />
    <glyph glyph-name="afii10077" unicode="&#x43b;" horiz-adv-x="539" 
d="M475 0h-115v335h-119l-3 -48q-13 -122 -37.5 -186t-62 -86.5t-103.5 -23.5l-10 112q22 -1 41 12q22 16 39 67t22 128l7 140h341v-450z" />
    <glyph glyph-name="afii10078" unicode="&#x43c;" horiz-adv-x="631" 
d="M179 0h-115v450h104l153 -188l145 188h101v-450h-115v275l-133 -168h-3l-137 168v-275z" />
    <glyph glyph-name="afii10079" unicode="&#x43d;" horiz-adv-x="555" 
d="M491 0h-115v172h-197v-172h-115v450h115v-170h197v170h115v-450z" />
    <glyph glyph-name="afii10080" unicode="&#x43e;" horiz-adv-x="562" 
d="M103 55q-67 67 -67 170t67 169q67 67 178 67q110 0 177 -67q68 -66 68 -169q0 -102 -68 -170q-68 -66 -177 -66q-111 0 -178 66zM159 225q0 -56 34.5 -92.5t87.5 -36.5q54 0 88.5 36t34.5 93q0 56 -35 92t-88 36q-52 0 -87 -36t-35 -92z" />
    <glyph glyph-name="afii10081" unicode="&#x43f;" horiz-adv-x="550" 
d="M486 0h-115v342h-192v-342h-115v450h422v-450z" />
    <glyph glyph-name="afii10082" unicode="&#x440;" horiz-adv-x="558" 
d="M179 -200h-115v650h115v-43q22 24 60 39t79 15q93 0 148 -64q56 -65 56 -165q0 -105 -66 -174t-172 -69q-68 0 -105 22v-211zM282 353q-60 0 -103 -49v-182q41 -26 95 -26q57 0 91.5 37t34.5 96q0 56 -31.5 90t-86.5 34z" />
    <glyph glyph-name="afii10083" unicode="&#x441;" horiz-adv-x="487" 
d="M405 151l54 -84q-57 -78 -179 -78q-109 0 -177 65q-67 64 -67 171q0 101 66 168q66 68 167 68q120 0 181 -61l-54 -91q-46 44 -112 44q-50 0 -88 -36q-37 -34 -37 -92t38 -94q40 -35 92 -35q67 0 116 55z" />
    <glyph glyph-name="afii10084" unicode="&#x442;" horiz-adv-x="445" 
d="M165 335h-148v115h410v-115h-147v-335h-115v335z" />
    <glyph glyph-name="afii10085" unicode="&#x443;" horiz-adv-x="503" 
d="M367 450h131l-177 -450q-48 -117 -86 -158q-37 -42 -88 -42q-48 0 -97 35l37 87q26 -16 47 -16q41 0 69 70l10 24l-208 450h138l105 -246q2 -5 22 -65q6 37 16 66z" />
    <glyph glyph-name="afii10086" unicode="&#x444;" horiz-adv-x="687" 
d="M401 -200h-115v189h-6q-116 0 -180 66q-64 65 -64 170q0 96 65 166q66 70 178 70h7v239h115v-239h8q113 0 177 -67q65 -67 65 -169q0 -107 -63.5 -171.5t-178.5 -64.5h-8v-189zM409 353h-8v-257h4q59 0 91 34.5t32 94.5q0 56 -31.5 92t-87.5 36zM159 225q0 -59 32.5 -94
t91.5 -35h3v257h-8q-58 0 -88.5 -35t-30.5 -93z" />
    <glyph glyph-name="afii10087" unicode="&#x445;" horiz-adv-x="522" 
d="M361 450h133l-150 -215l160 -235h-140l-105 162l-109 -162h-133l160 229l-150 221h141l95 -149z" />
    <glyph glyph-name="afii10088" unicode="&#x446;" horiz-adv-x="566" 
d="M446 0h-382v450h115v-343h185v343h115v-343h75v-212h-108v105z" />
    <glyph glyph-name="afii10089" unicode="&#x447;" horiz-adv-x="491" 
d="M312 450h115v-450h-115v155q-50 -26 -112 -26q-84 0 -123.5 44t-39.5 133v144h123v-130q0 -83 73 -83q47 0 79 18v195z" />
    <glyph glyph-name="afii10090" unicode="&#x448;" horiz-adv-x="728" 
d="M664 0h-600v450h115v-343h127v343h115v-343h128v343h115v-450z" />
    <glyph glyph-name="afii10091" unicode="&#x449;" horiz-adv-x="751" 
d="M631 0h-567v450h115v-343h127v343h115v-343h128v343h115v-343h75v-212h-108v105z" />
    <glyph glyph-name="afii10092" unicode="&#x44a;" horiz-adv-x="536" 
d="M132 342h-117v108h232v-123h63q101 0 149.5 -42t48.5 -114q0 -77 -52 -124t-155 -47h-169v342zM300 235h-53v-135h52q86 0 86 67q0 68 -85 68z" />
    <glyph glyph-name="afii10093" unicode="&#x44b;" horiz-adv-x="676" 
d="M226 0h-162v450h115v-123h56q101 0 149.5 -42t48.5 -114q0 -77 -52 -124t-155 -47zM612 0h-115v450h115v-450zM225 235h-46v-135h45q87 0 87 67q0 68 -86 68z" />
    <glyph glyph-name="afii10094" unicode="&#x44c;" horiz-adv-x="467" 
d="M232 0h-168v450h115v-123h62q101 0 149.5 -42t48.5 -114q0 -77 -52 -124t-155 -47zM231 235h-52v-135h51q87 0 87 67q0 68 -86 68z" />
    <glyph glyph-name="afii10095" unicode="&#x44d;" horiz-adv-x="496" 
d="M341 189h-201v77h200q-11 46 -45.5 70.5t-83.5 24.5q-64 0 -129 -47l-47 80q29 32 77.5 49.5t96.5 17.5q116 0 183 -64q68 -65 68 -172q0 -101 -65 -169q-64 -67 -175 -67q-123 0 -187 67l54 76q49 -43 126 -43q52 0 85.5 26t42.5 74z" />
    <glyph glyph-name="afii10096" unicode="&#x44e;" horiz-adv-x="772" 
d="M186 0h-122v450h122v-163h80q18 80 79 127t149 47q108 0 175 -67q67 -66 67 -169q0 -101 -68 -169q-67 -67 -174 -67q-91 0 -152.5 49.5t-77.5 133.5h-78v-172zM389 225q0 -56 29.5 -88.5t78.5 -32.5t79 32.5t30 88.5t-29.5 88.5t-79.5 32.5q-48 0 -78 -33t-30 -88z" />
    <glyph glyph-name="afii10097" unicode="&#x44f;" horiz-adv-x="495" 
d="M284 450h147v-450h-115v135h-64l-93 -135h-132l120 160q-37 13 -62 47.5t-25 82.5q0 74 56.5 117t167.5 43zM183 282q0 -26 22 -44t51 -18h60v130h-51q-38 0 -60 -19.5t-22 -48.5z" />
    <glyph glyph-name="afii10071" unicode="&#x451;" horiz-adv-x="516" 
d="M417 126l33 -81q-67 -56 -172 -56q-108 0 -176 65q-66 64 -66 171q0 100 65 168t173 68q89 0 151 -59t62 -150q0 -40 -7 -62h-325q7 -49 43.5 -77t91.5 -28q75 0 127 41zM269 365q-98 0 -118 -98h221q1 43 -27.5 70.5t-75.5 27.5zM109 599q0 29 18.5 46.5t46.5 17.5
q25 0 42.5 -18t17.5 -46q0 -30 -17.5 -48.5t-42.5 -18.5q-28 0 -46.5 18.5t-18.5 48.5zM308 599q0 29 18 46.5t46 17.5q25 0 42.5 -18t17.5 -46q0 -30 -17.5 -48.5t-42.5 -18.5q-28 0 -46 18.5t-18 48.5z" />
    <glyph glyph-name="afii10099" unicode="&#x452;" horiz-adv-x="590" 
d="M125 432h-118v93h118v175h115v-175h158v-93h-158v-118q50 49 129 49q89 0 137 -48t48 -145q0 -123 -45 -220t-120 -150h-123q83 66 127.5 156t44.5 186q0 113 -98 113q-59 0 -100 -41v-214h-115v432z" />
    <glyph glyph-name="afii10100" unicode="&#x453;" horiz-adv-x="374" 
d="M179 0h-115v450h302v-108h-187v-342zM271 730l90 -68l-126 -145l-69 48z" />
    <glyph glyph-name="afii10101" unicode="&#x454;" horiz-adv-x="495" 
d="M155 266h201v-77h-202q10 -47 46.5 -73.5t90.5 -26.5q70 0 119 43l54 -76q-67 -67 -180 -67q-114 0 -181 67t-67 169q0 107 68 172q67 64 183 64q48 0 96.5 -17.5t77.5 -49.5l-47 -80q-55 47 -129 47q-49 0 -83.5 -24.5t-46.5 -70.5z" />
    <glyph glyph-name="afii10102" unicode="&#x455;" horiz-adv-x="444" 
d="M49 324q0 63 46 100t119 37q110 0 171 -57l-43 -82q-55 43 -122 43q-24 0 -40 -11.5t-16 -27.5q0 -33 85 -55q31 -7 55 -15.5t49.5 -24t39.5 -40.5t14 -58q0 -66 -49.5 -105t-132.5 -39q-59 0 -115 25q-57 26 -73 52l56 75q19 -23 63 -39q45 -17 77 -17q39 -4 55 25.5
t-21 48.5q-15 8 -46.5 17t-58 18.5t-54 24.5t-43.5 41.5t-16 63.5z" />
    <glyph glyph-name="afii10103" unicode="&#x456;" horiz-adv-x="277" 
d="M196 0h-115v450h115v-450zM69 612q0 30 20.5 48.5t51.5 18.5q27 0 46.5 -19t19.5 -48q0 -32 -19.5 -52t-46.5 -20q-31 0 -51.5 20t-20.5 52z" />
    <glyph glyph-name="afii10104" unicode="&#x457;" horiz-adv-x="315" 
d="M25 597q0 26 17 41t42 15q22 0 38 -16t16 -40q0 -26 -16 -42.5t-38 -16.5q-27 0 -43 16t-16 43zM177 597q0 24 17 40t42 16q22 0 38 -16t16 -40q0 -26 -16 -42.5t-38 -16.5q-25 0 -42 16.5t-17 42.5zM228 0h-115v450h115v-450z" />
    <glyph glyph-name="afii10105" unicode="&#x458;" horiz-adv-x="284" 
d="M87 450h115v-483q0 -175 -141 -175q-73 0 -110 32l31 91q25 -16 51 -16q54 0 54 78v473zM76 612q0 30 20.5 48.5t51.5 18.5q27 0 46.5 -19t19.5 -48q0 -32 -19.5 -52t-46.5 -20q-31 0 -51.5 20t-20.5 52z" />
    <glyph glyph-name="afii10106" unicode="&#x459;" horiz-adv-x="742" 
d="M508 0h-148v335h-119l-3 -48q-13 -122 -37.5 -186t-62 -86.5t-103.5 -23.5l-10 112q22 -1 41 12q22 16 39 67t22 128l7 140h341v-123h42q101 0 149.5 -42t48.5 -114q0 -77 -52 -124t-155 -47zM507 235h-32v-135h31q86 0 86 67q0 68 -85 68z" />
    <glyph glyph-name="afii10107" unicode="&#x45a;" horiz-adv-x="759" 
d="M524 0h-148v177h-197v-177h-115v450h115v-165h197v165h115v-128h42q102 0 150 -40.5t48 -112.5q0 -77 -52 -123t-155 -46zM523 230h-32v-130h31q87 0 87 65t-86 65z" />
    <glyph glyph-name="afii10108" unicode="&#x45b;" horiz-adv-x="590" 
d="M125 432h-118v93h118v175h115v-175h158v-93h-158v-118q50 49 129 49q185 0 185 -197v-166h-115v151q0 50 -26 77t-73 27q-59 0 -100 -41v-214h-115v432z" />
    <glyph glyph-name="afii10109" unicode="&#x45c;" horiz-adv-x="515" 
d="M345 450h145l-173 -214l194 -236h-150l-178 227zM179 0h-115v450h115v-450zM294 730l90 -68l-126 -145l-69 48z" />
    <glyph glyph-name="afii10110" unicode="&#x45e;" horiz-adv-x="503" 
d="M367 450h131l-177 -450q-48 -117 -86 -158q-37 -42 -88 -42q-48 0 -97 35l37 87q26 -16 47 -16q41 0 69 70l10 24l-208 450h138l105 -246q2 -5 22 -65q6 37 16 66zM103 675h105q0 -33 13 -53t39 -20q23 0 35.5 20.5t12.5 52.5h105q0 -70 -41 -112.5t-112 -42.5
q-78 0 -117.5 41.5t-39.5 113.5z" />
    <glyph glyph-name="afii10193" unicode="&#x45f;" horiz-adv-x="540" 
d="M216 0h-152v450h115v-343h182v343h115v-450h-152v-118h-108v118z" />
    <glyph glyph-name="afii10146" unicode="&#x462;" horiz-adv-x="648" 
d="M136 700h122v-80h148v-115h-148v-75q45 5 81 5q264 0 264 -211q0 -110 -75 -168t-216 -58q-57 0 -98 1t-78 1v505h-121v115h121v80zM329 320q-19 0 -71 -5v-199q9 0 34 -1.5t35 -1.5q75 0 110.5 24.5t35.5 83.5q0 54 -35 76.5t-109 22.5z" />
    <glyph glyph-name="afii10194" unicode="&#x463;" horiz-adv-x="517" 
d="M125 357h-118v93h118v250h115v-250h136v-93h-136v-60h51q198 0 198 -141q0 -73 -51.5 -114.5t-155.5 -41.5h-157v357zM281 212h-41v-120h40q87 0 87 60q0 31 -20.5 45.5t-65.5 14.5z" />
    <glyph glyph-name="afii10147" unicode="&#x472;" horiz-adv-x="819" 
d="M45 350q0 153 102 257q104 104 262 104t261 -100q104 -101 104 -261q0 -157 -104 -259t-261 -102q-158 0 -261 100t-103 261zM304 339q-59 0 -122 -54q19 -81 82 -131q64 -50 145 -50q92 0 154 54t77 143q-63 -36 -116 -36q-47 0 -114 37q-65 37 -106 37zM533 373
q52 0 104 41q-20 83 -82 132q-64 50 -146 50q-86 0 -150 -53q-63 -54 -79 -138q65 41 124 41q49 0 116 -37q69 -36 113 -36z" />
    <glyph glyph-name="afii10195" unicode="&#x473;" horiz-adv-x="577" 
d="M289 461q116 0 183 -67q69 -66 69 -169t-69 -170q-68 -66 -183 -66q-116 0 -185 66q-68 68 -68 170q0 103 68 169q68 67 185 67zM217 211q-32 0 -61 -29q11 -48 47.5 -74.5t85.5 -26.5q51 0 87.5 28t45.5 80q-31 -28 -71 -28q-33 0 -73 25t-61 25zM366 239q34 0 56 24
q-11 50 -47.5 77.5t-85.5 27.5q-51 0 -88.5 -28.5t-46.5 -79.5q34 28 68 28t80 -25q46 -24 64 -24z" />
    <glyph glyph-name="afii10148" unicode="&#x474;" horiz-adv-x="661" 
d="M563 499l-185 -501h-93l-288 702h131l207 -518l130 378q33 97 78 130q47 33 138 9l-16 -107q-39 13 -59 -8q-18 -18 -43 -85z" />
    <glyph glyph-name="afii10196" unicode="&#x475;" horiz-adv-x="492" 
d="M402 268l-110 -270h-86l-209 452h137l85 -193q20 -42 34 -101q15 62 31 103l30 79q30 81 69.5 106.5t128.5 3.5l-17 -108q-34 14 -52 -1.5t-41 -70.5z" />
    <glyph glyph-name="afii10050" unicode="&#x490;" horiz-adv-x="507" 
d="M220 0h-123v700h280v117h115v-232h-272v-585z" />
    <glyph glyph-name="afii10098" unicode="&#x491;" horiz-adv-x="374" 
d="M179 0h-115v450h195v97h107v-205h-187v-342z" />
    <glyph glyph-name="uni1E9E" unicode="&#x1e9e;" horiz-adv-x="674" 
d="M491 184q0 52 -67 103q-33 26 -60 43l-79 48l132 181q-11 16 -36 26.5t-54 10.5q-50 0 -78.5 -31t-28.5 -90v-476h-123v468q0 121 62 182.5t173 61.5q65 0 128 -32.5t105 -91.5l-135 -172q82 -43 136 -108q55 -62 55 -142q0 -77 -56 -127q-55 -49 -123 -49
q-103 0 -173 64l53 96q29 -25 48.5 -35t44.5 -10q33 0 54.5 22t21.5 58z" />
    <glyph glyph-name="uni2010" unicode="&#x2010;" horiz-adv-x="376" 
d="M314 220h-252v107h252v-107z" />
    <glyph glyph-name="uni2011" unicode="&#x2011;" horiz-adv-x="376" 
d="M314 220h-252v107h252v-107z" />
    <glyph glyph-name="figuredash" unicode="&#x2012;" horiz-adv-x="599" 
d="M514 304h-429v100h429v-100z" />
    <glyph glyph-name="endash" unicode="&#x2013;" horiz-adv-x="599" 
d="M514 220h-429v100h429v-100z" />
    <glyph glyph-name="emdash" unicode="&#x2014;" horiz-adv-x="814" 
d="M729 220h-644v100h644v-100z" />
    <glyph glyph-name="afii00208" unicode="&#x2015;" horiz-adv-x="814" 
d="M729 220h-644v100h644v-100z" />
    <glyph glyph-name="quoteleft" unicode="&#x2018;" horiz-adv-x="241" 
d="M178 550l-97 -56q-34 35 -34 93q0 112 100 172l53 -49q-45 -38 -45 -98q0 -39 23 -62z" />
    <glyph glyph-name="quoteright" unicode="&#x2019;" horiz-adv-x="241" 
d="M63 698l97 57q34 -35 34 -93q0 -59 -28.5 -103.5t-71.5 -68.5l-53 49q45 37 45 97q0 39 -23 62z" />
    <glyph glyph-name="quotesinglbase" unicode="&#x201a;" horiz-adv-x="241" 
d="M63 33l97 57q34 -35 34 -93q0 -59 -28.5 -103.5t-71.5 -68.5l-53 49q45 38 45 97q0 39 -23 62z" />
    <glyph glyph-name="quotedblleft" unicode="&#x201c;" horiz-adv-x="404" 
d="M340 550l-97 -56q-34 35 -34 93q0 112 100 172l53 -49q-45 -38 -45 -98q0 -39 23 -62zM178 550l-97 -56q-34 35 -34 93q0 112 100 172l53 -49q-45 -38 -45 -98q0 -39 23 -62z" />
    <glyph glyph-name="quotedblright" unicode="&#x201d;" horiz-adv-x="404" 
d="M225 698l97 57q34 -35 34 -93q0 -59 -28.5 -103.5t-71.5 -68.5l-53 49q45 37 45 97q0 39 -23 62zM63 698l97 57q34 -35 34 -93q0 -59 -28.5 -103.5t-71.5 -68.5l-53 49q45 37 45 97q0 39 -23 62z" />
    <glyph glyph-name="quotedblbase" unicode="&#x201e;" horiz-adv-x="404" 
d="M225 33l97 57q34 -35 34 -93q0 -59 -28.5 -103.5t-71.5 -68.5l-53 49q45 38 45 97q0 39 -23 62zM63 33l97 57q34 -35 34 -93q0 -59 -28.5 -103.5t-71.5 -68.5l-53 49q45 38 45 97q0 39 -23 62z" />
    <glyph glyph-name="dagger" unicode="&#x2020;" horiz-adv-x="491" 
d="M192 395h-152v100h152v205h107v-205h152v-100h-152v-495h-107v495z" />
    <glyph glyph-name="daggerdbl" unicode="&#x2021;" horiz-adv-x="491" 
d="M192 395h-152v100h152v205h107v-205h152v-100h-152v-160h152v-100h-152v-235h-107v235h-152v100h152v160z" />
    <glyph glyph-name="bullet" unicode="&#x2022;" horiz-adv-x="285" 
d="M25 264q0 49 34 83q35 35 83 35t83 -35t35 -83q0 -47 -35 -82t-83 -35t-83 35q-34 34 -34 82z" />
    <glyph glyph-name="ellipsis" unicode="&#x2026;" horiz-adv-x="863" 
d="M655 75q0 29 22.5 51.5t57.5 22.5q30 0 51.5 -22.5t21.5 -51.5q0 -33 -21.5 -56.5t-51.5 -23.5q-35 0 -57.5 23.5t-22.5 56.5zM355 75q0 29 22.5 51.5t57.5 22.5q30 0 51.5 -22.5t21.5 -51.5q0 -33 -21.5 -56.5t-51.5 -23.5q-35 0 -57.5 23.5t-22.5 56.5zM55 75
q0 29 22.5 51.5t57.5 22.5q30 0 51.5 -22.5t21.5 -51.5q0 -33 -21.5 -56.5t-51.5 -23.5q-35 0 -57.5 23.5t-22.5 56.5z" />
    <glyph glyph-name="perthousand" unicode="&#x2030;" horiz-adv-x="1345" 
d="M968 39q-55 49 -55 130q0 80 55 129t142 49q86 0 141 -49q56 -50 56 -129q0 -80 -56 -130q-55 -49 -141 -49q-87 0 -142 49zM1021 169q0 -39 25 -62.5t64 -23.5q40 0 65 23.5t25 62.5q0 38 -25.5 61.5t-64.5 23.5t-64 -23.5t-25 -61.5zM236 -11l-66 46l505 676l65 -49z
M92 401q-55 49 -55 130q0 80 55 129t142 49q86 0 141 -49q56 -50 56 -129q0 -80 -56 -130q-55 -49 -141 -49q-87 0 -142 49zM145 531q0 -39 25 -62.5t64 -23.5q40 0 65 23.5t25 62.5q0 38 -25.5 61.5t-64.5 23.5t-64 -23.5t-25 -61.5zM534 39q-55 49 -55 130q0 80 55 129
t142 49q86 0 141 -49q56 -50 56 -129q0 -80 -56 -130q-55 -49 -141 -49q-87 0 -142 49zM587 169q0 -39 25 -62.5t64 -23.5q40 0 65 23.5t25 62.5q0 38 -25.5 61.5t-64.5 23.5t-64 -23.5t-25 -61.5z" />
    <glyph glyph-name="guilsinglleft" unicode="&#x2039;" horiz-adv-x="351" 
d="M308 87l-78 -65l-193 226v4l197 226l75 -67l-139 -161z" />
    <glyph glyph-name="guilsinglright" unicode="&#x203a;" horiz-adv-x="351" 
d="M314 252v-4l-193 -226l-78 65l138 163l-139 161l75 67z" />
    <glyph glyph-name="fraction" unicode="&#x2044;" horiz-adv-x="210" 
d="M-114 -11l-66 46l505 676l65 -49z" />
    <glyph glyph-name="uni2070" unicode="&#x2070;" horiz-adv-x="398" 
d="M35 525q0 79 43 128q44 51 121 51t121 -51q43 -50 43 -128t-43 -128q-42 -51 -120 -51t-121.5 48.5t-43.5 130.5zM200 431q29 0 42 22t13 72t-13.5 72t-42.5 22q-57 0 -57 -94t58 -94z" />
    <glyph glyph-name="uni2074" unicode="&#x2074;" horiz-adv-x="373" 
d="M297 350h-92v70h-193v67l155 213h95l-148 -202h91v77h92v-77h56v-78h-56v-70z" />
    <glyph glyph-name="uni2075" unicode="&#x2075;" horiz-adv-x="347" 
d="M58 498l20 202h226v-78h-156l-8 -54q22 8 48 8q57 0 91.5 -29t34.5 -78q0 -59 -41.5 -92t-110.5 -33q-107 0 -146 57l51 54q28 -34 78 -34q62 0 62 43q0 42 -76 42q-46 0 -73 -8z" />
    <glyph glyph-name="uni2076" unicode="&#x2076;" horiz-adv-x="395" 
d="M31 484q0 89 74 154q72 63 184 68l20 -68q-129 -13 -170 -101q38 32 96 32q59 0 94.5 -29t35.5 -78q0 -52 -46 -85q-45 -33 -113 -33q-83 0 -129 37.5t-46 102.5zM139 469q1 -20 19.5 -34t47.5 -14q23 0 37.5 11.5t14.5 27.5q0 18 -14 28.5t-40 10.5q-41 0 -65 -30z" />
    <glyph glyph-name="uni2077" unicode="&#x2077;" horiz-adv-x="329" 
d="M200 615h-186v85h302v-61l-153 -289h-109z" />
    <glyph glyph-name="uni2078" unicode="&#x2078;" horiz-adv-x="412" 
d="M202 565h9q36 -2 45 23q8 22 -16 35q-14 7 -35 6q-23 0 -37 -9t-14 -24q0 -14 13 -22.5t35 -8.5zM211 495h-8q-27 0 -44 -10t-17 -27q0 -37 64 -37q48 -3 60 26q9 23 -14 39q-16 11 -41 9zM206 344q-75 0 -119.5 26t-44.5 71q0 65 66 88v2q-54 23 -54 83q0 41 42.5 66.5
t109.5 25.5t109.5 -25.5t42.5 -66.5q0 -60 -62 -83v-1q34 -7 53.5 -28.5t19.5 -53.5q0 -50 -43.5 -77t-119.5 -27z" />
    <glyph glyph-name="uni2079" unicode="&#x2079;" horiz-adv-x="395" 
d="M364 553q0 -94 -72 -151q-73 -57 -188 -58l-16 70q72 6 118 33t50 66q-33 -40 -96 -40q-56 0 -93 32t-37 78q0 54 45 88.5t114 34.5q84 0 129.5 -40t45.5 -113zM256 573q-5 56 -67 56q-23 0 -37.5 -11.5t-14.5 -27.5q0 -19 15 -33t39 -14q41 0 65 30z" />
    <glyph glyph-name="uni207A" unicode="&#x207a;" horiz-adv-x="360" 
d="M140 491h-98v78h98v94h78v-94h99v-78h-99v-96h-78v96z" />
    <glyph glyph-name="uni207B" unicode="&#x207b;" horiz-adv-x="360" 
d="M317 491h-275v78h275v-78z" />
    <glyph glyph-name="uni207C" unicode="&#x207c;" horiz-adv-x="360" 
d="M317 416h-275v78h275v-78zM317 566h-275v78h275v-78z" />
    <glyph glyph-name="uni207D" unicode="&#x207d;" horiz-adv-x="235" 
d="M225 365l-59 -58q-68 34 -102 91.5t-34 124.5q0 61 34.5 117t102.5 98l52 -57q-46 -31 -67.5 -68t-21.5 -90q0 -95 95 -158z" />
    <glyph glyph-name="uni207E" unicode="&#x207e;" horiz-adv-x="235" 
d="M10 679l59 59q68 -34 102 -91.5t34 -124.5q0 -61 -34.5 -117t-102.5 -98l-53 57q90 60 90 158q0 95 -95 157z" />
    <glyph glyph-name="uni2080" unicode="&#x2080;" horiz-adv-x="398" 
d="M35 175q0 79 43 128q44 51 121 51t121 -51q43 -50 43 -128t-43 -128q-42 -51 -120 -51t-121.5 48.5t-43.5 130.5zM200 81q29 0 42 22t13 72t-13.5 72t-42.5 22q-57 0 -57 -94t58 -94z" />
    <glyph glyph-name="uni2081" unicode="&#x2081;" horiz-adv-x="269" 
d="M53 206l-37 68l113 75h72v-349h-100v234z" />
    <glyph glyph-name="uni2082" unicode="&#x2082;" horiz-adv-x="363" 
d="M335 0h-305v73q118 70 152 104q30 29 30 53q0 18 -11.5 28.5t-31.5 10.5t-35.5 -15t-18.5 -35l-83 29q8 49 47.5 77.5t99.5 28.5q66 0 103 -30t37 -81q0 -92 -159 -158h175v-85z" />
    <glyph glyph-name="uni2083" unicode="&#x2083;" horiz-adv-x="361" 
d="M175 -6q-53 0 -95.5 19.5t-62.5 54.5l58 53q10 -19 34 -32.5t49 -13.5q61 0 61 35q0 32 -59 32h-30v70h28q22 0 35 9.5t13 24.5q0 29 -45 29q-52 0 -85 -41l-48 55q43 67 153 67q60 0 96.5 -24t36.5 -65q0 -64 -77 -82v-1q42 -3 65.5 -25.5t23.5 -57.5q0 -47 -43.5 -77
t-107.5 -30z" />
    <glyph glyph-name="uni2084" unicode="&#x2084;" horiz-adv-x="373" 
d="M297 0h-92v70h-193v67l155 213h95l-148 -202h91v77h92v-77h56v-78h-56v-70z" />
    <glyph glyph-name="uni2085" unicode="&#x2085;" horiz-adv-x="347" 
d="M58 148l20 202h226v-78h-156l-8 -54q22 8 48 8q57 0 91.5 -29t34.5 -78q0 -59 -41.5 -92t-110.5 -33q-107 0 -146 57l51 54q28 -34 78 -34q62 0 62 43q0 42 -76 42q-46 0 -73 -8z" />
    <glyph glyph-name="uni2086" unicode="&#x2086;" horiz-adv-x="395" 
d="M31 134q0 89 74 154q72 63 184 68l20 -68q-129 -13 -170 -101q38 32 96 32q59 0 94.5 -29t35.5 -78q0 -52 -46 -85q-45 -33 -113 -33q-83 0 -129 37.5t-46 102.5zM139 119q1 -20 19.5 -34t47.5 -14q23 0 37.5 11.5t14.5 27.5q0 18 -14 28.5t-40 10.5q-41 0 -65 -30z" />
    <glyph glyph-name="uni2087" unicode="&#x2087;" horiz-adv-x="329" 
d="M200 265h-186v85h302v-61l-153 -289h-109z" />
    <glyph glyph-name="uni2088" unicode="&#x2088;" horiz-adv-x="412" 
d="M202 215h9q36 -2 45 23q8 22 -16 35q-14 7 -35 6q-23 0 -37 -9t-14 -24q0 -14 13 -22.5t35 -8.5zM211 145h-8q-27 0 -44 -10t-17 -27q0 -37 64 -37q48 -3 60 26q9 23 -14 39q-16 11 -41 9zM206 -6q-75 0 -119.5 26t-44.5 71q0 65 66 88v2q-54 23 -54 83q0 41 42.5 66.5
t109.5 25.5t109.5 -25.5t42.5 -66.5q0 -60 -62 -83v-1q34 -7 53.5 -28.5t19.5 -53.5q0 -50 -43.5 -77t-119.5 -27z" />
    <glyph glyph-name="uni2089" unicode="&#x2089;" horiz-adv-x="395" 
d="M364 203q0 -94 -72 -151q-73 -57 -188 -58l-16 70q72 6 118 33t50 66q-33 -40 -96 -40q-56 0 -93 32t-37 78q0 54 45 88.5t114 34.5q84 0 129.5 -40t45.5 -113zM256 223q-5 56 -67 56q-23 0 -37.5 -11.5t-14.5 -27.5q0 -19 15 -33t39 -14q41 0 65 30z" />
    <glyph glyph-name="uni208A" unicode="&#x208a;" horiz-adv-x="360" 
d="M140 141h-98v78h98v94h78v-94h99v-78h-99v-96h-78v96z" />
    <glyph glyph-name="uni208B" unicode="&#x208b;" horiz-adv-x="360" 
d="M317 141h-275v78h275v-78z" />
    <glyph glyph-name="uni208C" unicode="&#x208c;" horiz-adv-x="360" 
d="M317 66h-275v78h275v-78zM317 216h-275v78h275v-78z" />
    <glyph glyph-name="uni208D" unicode="&#x208d;" horiz-adv-x="235" 
d="M225 15l-59 -58q-68 34 -102 91.5t-34 124.5q0 61 34.5 117t102.5 98l52 -57q-46 -31 -67.5 -68t-21.5 -90q0 -95 95 -158z" />
    <glyph glyph-name="uni208E" unicode="&#x208e;" horiz-adv-x="235" 
d="M10 329l59 59q68 -34 102 -91.5t34 -124.5q0 -61 -34.5 -117t-102.5 -98l-53 57q90 60 90 158q0 95 -95 157z" />
    <glyph glyph-name="Euro" unicode="&#x20ac;" 
d="M107 397h-89l35 93h75q36 103 120.5 162t202.5 59q82 0 132 -28l-43 -106q-35 19 -90 19q-58 0 -106 -27.5t-77 -78.5h250l-35 -93h-244q-3 -22 -3 -47q0 -21 2 -35h222l-31 -93h-163q29 -56 82 -87t119 -31q56 0 87 15l19 -111q-42 -19 -116 -19q-120 0 -208.5 62
t-123.5 171h-105l35 93h52q-1 7 -1 35q0 5 2 47z" />
    <glyph glyph-name="uni20B4" unicode="&#x20b4;" horiz-adv-x="600" 
d="M288 401h-220v93h292q3 15 3 28q-1 37 -19 55.5t-48 18.5q-63 0 -115 -44l-59 86q63 73 181 73q83 0 133.5 -43.5t50.5 -113.5q0 -41 -16 -60h61v-93h-117q-25 -25 -53 -47q-16 -13 -43 -35h213v-93h-295q-17 -23 -17 -48q0 -34 27 -54t71 -20q73 0 131 58l60 -79
q-69 -94 -207 -94q-78 0 -138 45q-59 47 -59 123q0 40 19 69h-56v93h122q18 18 50 43q34 27 48 39z" />
    <glyph glyph-name="uni20B6" unicode="&#x20b6;" horiz-adv-x="600" 
d="M111 298h-98v92h98v310q44 0 95 1t103 1q271 0 271 -205q0 -93 -67 -146t-188 -53h-92v-83h164v-92h-164v-123h-122v123h-98v92h98v83zM322 587q-1 0 -89 -2v-195h88q129 0 129 96q0 53 -31.5 77t-96.5 24z" />
    <glyph glyph-name="uni20B6" unicode="&#x20cf;" horiz-adv-x="600" 
d="M111 298h-98v92h98v310q44 0 95 1t103 1q271 0 271 -205q0 -93 -67 -146t-188 -53h-92v-83h164v-92h-164v-123h-122v123h-98v92h98v83zM322 587q-1 0 -89 -2v-195h88q129 0 129 96q0 53 -31.5 77t-96.5 24z" />
    <glyph glyph-name="uni20B6" unicode="&#x20ce;" horiz-adv-x="600" 
d="M111 298h-98v92h98v310q44 0 95 1t103 1q271 0 271 -205q0 -93 -67 -146t-188 -53h-92v-83h164v-92h-164v-123h-122v123h-98v92h98v83zM322 587q-1 0 -89 -2v-195h88q129 0 129 96q0 53 -31.5 77t-96.5 24z" />
    <glyph glyph-name="uni20B6" unicode="&#x20cd;" horiz-adv-x="600" 
d="M111 298h-98v92h98v310q44 0 95 1t103 1q271 0 271 -205q0 -93 -67 -146t-188 -53h-92v-83h164v-92h-164v-123h-122v123h-98v92h98v83zM322 587q-1 0 -89 -2v-195h88q129 0 129 96q0 53 -31.5 77t-96.5 24z" />
    <glyph glyph-name="uni20B6" unicode="&#x20cc;" horiz-adv-x="600" 
d="M111 298h-98v92h98v310q44 0 95 1t103 1q271 0 271 -205q0 -93 -67 -146t-188 -53h-92v-83h164v-92h-164v-123h-122v123h-98v92h98v83zM322 587q-1 0 -89 -2v-195h88q129 0 129 96q0 53 -31.5 77t-96.5 24z" />
    <glyph glyph-name="uni20B6" unicode="&#x20cb;" horiz-adv-x="600" 
d="M111 298h-98v92h98v310q44 0 95 1t103 1q271 0 271 -205q0 -93 -67 -146t-188 -53h-92v-83h164v-92h-164v-123h-122v123h-98v92h98v83zM322 587q-1 0 -89 -2v-195h88q129 0 129 96q0 53 -31.5 77t-96.5 24z" />
    <glyph glyph-name="uni20B6" unicode="&#x20ca;" horiz-adv-x="600" 
d="M111 298h-98v92h98v310q44 0 95 1t103 1q271 0 271 -205q0 -93 -67 -146t-188 -53h-92v-83h164v-92h-164v-123h-122v123h-98v92h98v83zM322 587q-1 0 -89 -2v-195h88q129 0 129 96q0 53 -31.5 77t-96.5 24z" />
    <glyph glyph-name="uni20B6" unicode="&#x20c9;" horiz-adv-x="600" 
d="M111 298h-98v92h98v310q44 0 95 1t103 1q271 0 271 -205q0 -93 -67 -146t-188 -53h-92v-83h164v-92h-164v-123h-122v123h-98v92h98v83zM322 587q-1 0 -89 -2v-195h88q129 0 129 96q0 53 -31.5 77t-96.5 24z" />
    <glyph glyph-name="uni20B6" unicode="&#x20c8;" horiz-adv-x="600" 
d="M111 298h-98v92h98v310q44 0 95 1t103 1q271 0 271 -205q0 -93 -67 -146t-188 -53h-92v-83h164v-92h-164v-123h-122v123h-98v92h98v83zM322 587q-1 0 -89 -2v-195h88q129 0 129 96q0 53 -31.5 77t-96.5 24z" />
    <glyph glyph-name="uni20B6" unicode="&#x20c7;" horiz-adv-x="600" 
d="M111 298h-98v92h98v310q44 0 95 1t103 1q271 0 271 -205q0 -93 -67 -146t-188 -53h-92v-83h164v-92h-164v-123h-122v123h-98v92h98v83zM322 587q-1 0 -89 -2v-195h88q129 0 129 96q0 53 -31.5 77t-96.5 24z" />
    <glyph glyph-name="uni20B6" unicode="&#x20c6;" horiz-adv-x="600" 
d="M111 298h-98v92h98v310q44 0 95 1t103 1q271 0 271 -205q0 -93 -67 -146t-188 -53h-92v-83h164v-92h-164v-123h-122v123h-98v92h98v83zM322 587q-1 0 -89 -2v-195h88q129 0 129 96q0 53 -31.5 77t-96.5 24z" />
    <glyph glyph-name="uni20B6" unicode="&#x20c5;" horiz-adv-x="600" 
d="M111 298h-98v92h98v310q44 0 95 1t103 1q271 0 271 -205q0 -93 -67 -146t-188 -53h-92v-83h164v-92h-164v-123h-122v123h-98v92h98v83zM322 587q-1 0 -89 -2v-195h88q129 0 129 96q0 53 -31.5 77t-96.5 24z" />
    <glyph glyph-name="uni20B6" unicode="&#x20c4;" horiz-adv-x="600" 
d="M111 298h-98v92h98v310q44 0 95 1t103 1q271 0 271 -205q0 -93 -67 -146t-188 -53h-92v-83h164v-92h-164v-123h-122v123h-98v92h98v83zM322 587q-1 0 -89 -2v-195h88q129 0 129 96q0 53 -31.5 77t-96.5 24z" />
    <glyph glyph-name="uni20B6" unicode="&#x20c3;" horiz-adv-x="600" 
d="M111 298h-98v92h98v310q44 0 95 1t103 1q271 0 271 -205q0 -93 -67 -146t-188 -53h-92v-83h164v-92h-164v-123h-122v123h-98v92h98v83zM322 587q-1 0 -89 -2v-195h88q129 0 129 96q0 53 -31.5 77t-96.5 24z" />
    <glyph glyph-name="uni20B6" unicode="&#x20c2;" horiz-adv-x="600" 
d="M111 298h-98v92h98v310q44 0 95 1t103 1q271 0 271 -205q0 -93 -67 -146t-188 -53h-92v-83h164v-92h-164v-123h-122v123h-98v92h98v83zM322 587q-1 0 -89 -2v-195h88q129 0 129 96q0 53 -31.5 77t-96.5 24z" />
    <glyph glyph-name="uni20B6" unicode="&#x20c1;" horiz-adv-x="600" 
d="M111 298h-98v92h98v310q44 0 95 1t103 1q271 0 271 -205q0 -93 -67 -146t-188 -53h-92v-83h164v-92h-164v-123h-122v123h-98v92h98v83zM322 587q-1 0 -89 -2v-195h88q129 0 129 96q0 53 -31.5 77t-96.5 24z" />
    <glyph glyph-name="uni20B6" unicode="&#x20c0;" horiz-adv-x="600" 
d="M111 298h-98v92h98v310q44 0 95 1t103 1q271 0 271 -205q0 -93 -67 -146t-188 -53h-92v-83h164v-92h-164v-123h-122v123h-98v92h98v83zM322 587q-1 0 -89 -2v-195h88q129 0 129 96q0 53 -31.5 77t-96.5 24z" />
    <glyph glyph-name="uni20B6" unicode="&#x20bf;" horiz-adv-x="600" 
d="M111 298h-98v92h98v310q44 0 95 1t103 1q271 0 271 -205q0 -93 -67 -146t-188 -53h-92v-83h164v-92h-164v-123h-122v123h-98v92h98v83zM322 587q-1 0 -89 -2v-195h88q129 0 129 96q0 53 -31.5 77t-96.5 24z" />
    <glyph glyph-name="uni20B6" unicode="&#x20be;" horiz-adv-x="600" 
d="M111 298h-98v92h98v310q44 0 95 1t103 1q271 0 271 -205q0 -93 -67 -146t-188 -53h-92v-83h164v-92h-164v-123h-122v123h-98v92h98v83zM322 587q-1 0 -89 -2v-195h88q129 0 129 96q0 53 -31.5 77t-96.5 24z" />
    <glyph glyph-name="uni20B6" unicode="&#x20bd;" horiz-adv-x="600" 
d="M111 298h-98v92h98v310q44 0 95 1t103 1q271 0 271 -205q0 -93 -67 -146t-188 -53h-92v-83h164v-92h-164v-123h-122v123h-98v92h98v83zM322 587q-1 0 -89 -2v-195h88q129 0 129 96q0 53 -31.5 77t-96.5 24z" />
    <glyph glyph-name="uni20B6" unicode="&#x20bc;" horiz-adv-x="600" 
d="M111 298h-98v92h98v310q44 0 95 1t103 1q271 0 271 -205q0 -93 -67 -146t-188 -53h-92v-83h164v-92h-164v-123h-122v123h-98v92h98v83zM322 587q-1 0 -89 -2v-195h88q129 0 129 96q0 53 -31.5 77t-96.5 24z" />
    <glyph glyph-name="uni20B6" unicode="&#x20bb;" horiz-adv-x="600" 
d="M111 298h-98v92h98v310q44 0 95 1t103 1q271 0 271 -205q0 -93 -67 -146t-188 -53h-92v-83h164v-92h-164v-123h-122v123h-98v92h98v83zM322 587q-1 0 -89 -2v-195h88q129 0 129 96q0 53 -31.5 77t-96.5 24z" />
    <glyph glyph-name="uni20B6" unicode="&#x20ba;" horiz-adv-x="600" 
d="M111 298h-98v92h98v310q44 0 95 1t103 1q271 0 271 -205q0 -93 -67 -146t-188 -53h-92v-83h164v-92h-164v-123h-122v123h-98v92h98v83zM322 587q-1 0 -89 -2v-195h88q129 0 129 96q0 53 -31.5 77t-96.5 24z" />
    <glyph glyph-name="uni20B6" unicode="&#x20b9;" horiz-adv-x="600" 
d="M111 298h-98v92h98v310q44 0 95 1t103 1q271 0 271 -205q0 -93 -67 -146t-188 -53h-92v-83h164v-92h-164v-123h-122v123h-98v92h98v83zM322 587q-1 0 -89 -2v-195h88q129 0 129 96q0 53 -31.5 77t-96.5 24z" />
    <glyph glyph-name="uni20B6" unicode="&#x20b7;" horiz-adv-x="600" 
d="M111 298h-98v92h98v310q44 0 95 1t103 1q271 0 271 -205q0 -93 -67 -146t-188 -53h-92v-83h164v-92h-164v-123h-122v123h-98v92h98v83zM322 587q-1 0 -89 -2v-195h88q129 0 129 96q0 53 -31.5 77t-96.5 24z" />
    <glyph glyph-name="afii61352" unicode="&#x2116;" horiz-adv-x="1189" 
d="M675 700v-700h-98l-365 485v-485h-115v700h98l365 -487v487h115zM785 350q-55 49 -55 130q0 80 55 129t142 49q86 0 141 -49q56 -50 56 -129q0 -80 -56 -130q-55 -49 -141 -49q-87 0 -142 49zM837 480q0 -38 25.5 -62t64.5 -24t64 23.5t25 62.5q0 38 -25 61.5t-64 23.5
t-64.5 -23.5t-25.5 -61.5zM1086 146h-319v107h319v-107z" />
    <glyph glyph-name="trademark" unicode="&#x2122;" horiz-adv-x="865" 
d="M487 385h-108v315h97l119 -108l113 108h94v-315h-109v179l-100 -97h-2l-104 97v-179zM125 596h-108v104h323v-104h-107v-211h-108v211z" />
    <glyph glyph-name="arrowleft" unicode="&#x2190;" horiz-adv-x="643" 
d="M40 273l283 283l81 -82l-144 -143h343v-115h-343l144 -145l-81 -81z" />
    <glyph glyph-name="arrowup" unicode="&#x2191;" horiz-adv-x="646" 
d="M265 343l-144 -144l-81 81l283 283l283 -283l-82 -81l-144 144v-343h-115v343z" />
    <glyph glyph-name="arrowright" unicode="&#x2192;" horiz-adv-x="643" 
d="M383 331l-144 143l81 82l283 -283l-283 -283l-81 81l144 145h-343v115h343z" />
    <glyph glyph-name="arrowdown" unicode="&#x2193;" horiz-adv-x="646" 
d="M323 -20l-283 283l81 81l144 -144v343h115v-343l144 144l82 -81z" />
    <glyph glyph-name="partialdiff" unicode="&#x2202;" horiz-adv-x="594" 
d="M36 201q0 108 70 184t182 76q102 0 148 -66q0 98 -60.5 153t-176.5 60l17 103q163 -3 252.5 -86.5t89.5 -235.5q0 -172 -77 -287q-77 -113 -220 -113q-103 0 -164 61t-61 151zM159 211q0 -49 32 -82t83 -33q63 0 103 55q39 54 50 137q-53 65 -134 65q-59 0 -96 -42
q-38 -41 -38 -100z" />
    <glyph glyph-name="product" unicode="&#x220f;" horiz-adv-x="882" 
d="M785 -200h-123v785h-442v-785h-123v900h688v-900z" />
    <glyph glyph-name="summation" unicode="&#x2211;" horiz-adv-x="642" 
d="M40 -116l283 366l-283 365v85h562v-115h-390l253 -335l-261 -335h398v-115h-562v84z" />
    <glyph glyph-name="minus" unicode="&#x2212;" 
d="M530 310h-464v100h464v-100z" />
    <glyph glyph-name="uni2215" unicode="&#x2215;" horiz-adv-x="359" 
d="M59 -208l-89 33l330 886l89 -33z" />
    <glyph glyph-name="radical" unicode="&#x221a;" horiz-adv-x="623" 
d="M107 335h-100v115h179l152 -256l122 506h293v-115h-193l-146 -587h-100z" />
    <glyph glyph-name="infinity" unicode="&#x221e;" horiz-adv-x="756" 
d="M552 168q-99 0 -176 92q-71 -92 -164 -92q-66 0 -117 48q-50 48 -50 125q0 70 47 123q48 52 123 52q87 0 162 -97q69 97 174 97q72 0 116 -50t44 -129q0 -69 -45 -119q-44 -50 -114 -50zM224 268q50 0 97 66q-29 44 -50.5 63t-45.5 19q-33 0 -53 -21t-20 -54t20.5 -53
t51.5 -20zM531 416q-26 0 -48.5 -18t-48.5 -56q56 -74 104 -74q39 -3 56.5 35t-0.5 76.5t-63 36.5z" />
    <glyph glyph-name="integral" unicode="&#x222b;" horiz-adv-x="325" 
d="M184 514v-522q0 -100 -29.5 -148t-101.5 -51q-24 -1 -49 3q-50 6 -72 28l31 91q25 -16 51 -16q32 0 43.5 24t11.5 76v524q0 87 38.5 135t110.5 52q31 0 51 -4q57 -8 86 -37l-39 -88q-17 16 -44 19q-19 4 -42 -1q-46 -13 -46 -85z" />
    <glyph glyph-name="approxequal" unicode="&#x2248;" 
d="M92 193l-50 74q71 80 146 80q43 0 118 -34t115 -34q47 0 88 45l45 -79q-70 -66 -134 -66q-42 0 -116 34t-109 34q-49 0 -103 -54zM92 383l-50 74q71 80 146 80q43 0 118 -34t115 -34q47 0 88 45l45 -79q-70 -66 -134 -66q-42 0 -116 34t-109 34q-49 0 -103 -54z" />
    <glyph glyph-name="notequal" unicode="&#x2260;" 
d="M263 405h-197v100h234l78 206l88 -33l-65 -173h129v-100h-166l-33 -90h199v-100h-237l-84 -226l-90 33l72 193h-125v100h163z" />
    <glyph glyph-name="lessequal" unicode="&#x2264;" 
d="M513 -29l-464 271v105l464 -266v-110zM513 286v-125l-464 271v49l464 269v-124l-306 -169z" />
    <glyph glyph-name="greaterequal" unicode="&#x2265;" 
d="M82 81l465 266v-105l-465 -271v110zM547 481v-49l-465 -271v125l307 171l-307 169v124z" />
    <glyph glyph-name="lozenge" unicode="&#x25ca;" horiz-adv-x="488" 
d="M290 -2h-93l-167 251l168 267h93l167 -256zM244 404l-98 -154l98 -147l98 157z" />
    <glyph glyph-name="spade" unicode="&#x2660;" horiz-adv-x="632" 
d="M316 510q88 -55 172 -151t84 -160q0 -44 -31 -74t-86 -30q-79 0 -131 72q29 -120 107 -167h-230q74 53 105 164q-51 -69 -129 -69q-55 0 -86 30t-31 75q0 63 84 159t172 151z" />
    <glyph glyph-name="club" unicode="&#x2663;" horiz-adv-x="612" 
d="M177 381q0 53 38 91t91 38t91 -38t38 -91q0 -3 -2 -19q51 -5 84 -41q35 -38 35 -87q0 -53 -38 -91t-91 -38q-66 0 -104 53q31 -114 102 -158h-230q62 43 100 156q-41 -51 -102 -51q-53 0 -91 38t-38 91q0 50 34 87q33 36 84 41q-1 4 -1 19z" />
    <glyph glyph-name="heart" unicode="&#x2665;" horiz-adv-x="649" 
d="M325 0q-95 72 -179 181q-86 113 -86 189q0 56 31.5 93t89.5 37q88 0 144 -104q54 104 143 104q57 0 89 -36.5t32 -92.5q0 -76 -86 -189q-87 -113 -178 -182z" />
    <glyph glyph-name="diamond" unicode="&#x2666;" horiz-adv-x="583" 
d="M523 249q-109 -109 -232 -268q-102 134 -231 268q106 110 231 269q124 -158 232 -269z" />
    <glyph glyph-name="uniF350" unicode="&#xf350;" horiz-adv-x="611" 
d="M129 0h-123l245 526h109l245 -526h-131l-49 108h-247zM374 222l-72 161l-73 -161h145z" />
    <glyph glyph-name="uniF351" unicode="&#xf351;" horiz-adv-x="539" 
d="M78 525h372v-115h-250v-80q23 4 86 4q96 0 148.5 -42t52.5 -120q0 -176 -228 -176q-19 0 -105 2q-18 0 -36 0.5t-27.5 1t-12.5 0.5v525zM271 220q-51 0 -71 -4v-103q62 -2 72 -2q50 0 71.5 13.5t21.5 41.5q0 54 -94 54z" />
    <glyph glyph-name="uniF352" unicode="&#xf352;" horiz-adv-x="540" 
d="M78 1v522q88 5 197 5q96 0 145.5 -35t49.5 -95q0 -89 -81 -122v-1q99 -18 99 -116q0 -79 -60 -121t-161 -42q-126 0 -189 5zM282 210h-82v-94q32 -5 77 -5q88 0 88 51q0 48 -83 48zM273 413q-47 0 -73 -3v-92h76q72 0 72 48q0 47 -75 47z" />
    <glyph glyph-name="uniF353" unicode="&#xf353;" horiz-adv-x="441" 
d="M200 0h-122v525h348v-115h-226v-410z" />
    <glyph glyph-name="uniF354" unicode="&#xf354;" horiz-adv-x="638" 
d="M124 -90h-115v205h63q25 28 52 110q27 79 35 195l5 105h376v-410h80v-205h-115v90h-381v-90zM283 410l-10 -75q-7 -75 -28 -141q-19 -58 -38 -79h210v295h-134z" />
    <glyph glyph-name="uniF355" unicode="&#xf355;" horiz-adv-x="498" 
d="M446 0h-368v525h359v-115h-237v-88h213v-115h-213v-92h246v-115z" />
    <glyph glyph-name="uniF356" unicode="&#xf356;" horiz-adv-x="818" 
d="M8 0l215 274l-206 251h148l183 -237v237h123v-237l183 237h148l-206 -249l215 -276h-148l-192 259v-259h-123v259l-192 -259h-148z" />
    <glyph glyph-name="uniF357" unicode="&#xf357;" horiz-adv-x="516" 
d="M247 -11q-75 0 -133 27t-88 68l67 83q65 -63 155 -63q93 0 93 53q0 52 -95 52h-78v115h74q33 0 55 12.5t22 33.5q0 47 -72 47q-89 0 -132 -54l-71 83q68 86 207 86q84 0 136 -39q54 -39 54 -109q0 -81 -68 -111v-3q44 -10 67.5 -43.5t23.5 -81.5q0 -72 -59 -114t-158 -42
z" />
    <glyph glyph-name="uniF358" unicode="&#xf358;" horiz-adv-x="663" 
d="M463 330l-278 -330h-107v525h122v-330l278 330h107v-525h-122v330z" />
    <glyph glyph-name="uniF359" unicode="&#xf359;" horiz-adv-x="663" 
d="M463 330l-278 -330h-107v525h122v-330l278 330h107v-525h-122v330zM166 700h107q0 -53 60 -53q55 0 55 53h108q0 -64 -43.5 -101t-119.5 -37q-82 0 -124.5 35.5t-42.5 102.5z" />
    <glyph glyph-name="uniF35A" unicode="&#xf35a;" horiz-adv-x="586" 
d="M200 0h-122v525h122v-238l203 238h159l-224 -242l240 -283h-166l-212 260v-260z" />
    <glyph glyph-name="uniF35B" unicode="&#xf35b;" horiz-adv-x="613" 
d="M535 0h-123v410h-146l-12 -99q-11 -101 -31 -166.5t-50.5 -99t-67.5 -43.5t-88 -2l2 118q17 -3 30 0t28.5 20t27 48.5t22.5 91t18 142.5l9 105h381v-525z" />
    <glyph glyph-name="uniF35C" unicode="&#xf35c;" horiz-adv-x="761" 
d="M200 0h-122v525h123l188 -219l178 219h116v-525h-122v338l-172 -202h-17l-172 199v-335z" />
    <glyph glyph-name="uniF35D" unicode="&#xf35d;" horiz-adv-x="649" 
d="M571 0h-122v210h-249v-210h-122v525h122v-200h249v200h122v-525z" />
    <glyph glyph-name="uniF35E" unicode="&#xf35e;" horiz-adv-x="659" 
d="M35 261q0 117 82 193q83 78 212 78t212 -74t83 -197q0 -119 -84 -196q-82 -76 -211 -76t-212 74q-82 73 -82 198zM165 261q0 -67 47 -112q48 -45 117 -45q77 0 121 43.5t44 113.5q0 69 -47 113q-46 43 -118 43t-118 -43.5t-46 -112.5z" />
    <glyph glyph-name="uniF35F" unicode="&#xf35f;" horiz-adv-x="649" 
d="M571 0h-122v410h-249v-410h-122v525h493v-525z" />
    <glyph glyph-name="uniF360" unicode="&#xf360;" horiz-adv-x="521" 
d="M200 155v-155h-122v525q38 0 83 1t91 1q119 0 176.5 -49t57.5 -137q0 -84 -58 -136q-59 -53 -158 -53q-36 0 -70 3zM265 412q-11 0 -65 -2v-139q37 -4 66 -4q42 0 66 19.5t24 54.5q0 71 -91 71z" />
    <glyph glyph-name="uniF361" unicode="&#xf361;" horiz-adv-x="549" 
d="M476 142l47 -92q-27 -27 -79.5 -44t-109.5 -17q-135 0 -218 74q-81 75 -81 198q0 116 76 193q77 78 220 78q113 0 180 -54l-55 -92q-63 31 -124 31q-76 0 -121.5 -41.5t-45.5 -114.5q0 -70 49.5 -113.5t130.5 -43.5q73 0 131 38z" />
    <glyph glyph-name="uniF362" unicode="&#xf362;" horiz-adv-x="503" 
d="M190 410h-181v115h485v-115h-182v-410h-122v410z" />
    <glyph glyph-name="uniF363" unicode="&#xf363;" horiz-adv-x="567" 
d="M434 525h126l-198 -397q-62 -128 -169 -128q-44 0 -78 23l43 104q21 -12 41 -12q29 0 45 30l9 14l-244 366h154l152 -245z" />
    <glyph glyph-name="uniF364" unicode="&#xf364;" horiz-adv-x="705" 
d="M413 -6h-123v56q-122 2 -193 60t-71 160q0 100 72 159q75 60 192 61v41h123v-41q123 -2 194 -59.5t71 -160.5q0 -102 -72 -160.5t-193 -59.5v-56zM548 270q0 41 -34 74t-101 34v-216q66 1 100.5 30t34.5 78zM156 270q0 -47 35.5 -77t98.5 -31v216q-66 -2 -100 -34
q-34 -33 -34 -74z" />
    <glyph glyph-name="uniF365" unicode="&#xf365;" horiz-adv-x="563" 
d="M401 525h151l-191 -257l199 -268h-152l-128 174l-125 -174h-152l199 268l-190 257h152l120 -167z" />
    <glyph glyph-name="uniF366" unicode="&#xf366;" horiz-adv-x="657" 
d="M525 0h-447v525h122v-410h237v410h123v-410h79v-205h-114v90z" />
    <glyph glyph-name="uniF367" unicode="&#xf367;" horiz-adv-x="576" 
d="M376 525h122v-525h-122v201q-50 -32 -132 -32q-34 0 -65 8.5t-59.5 27t-45 52.5t-16.5 80v188h122v-144q0 -97 90 -97q62 0 106 28v213z" />
    <glyph glyph-name="uniF368" unicode="&#xf368;" horiz-adv-x="837" 
d="M759 0h-681v525h122v-410h157v410h123v-410h157v410h122v-525z" />
    <glyph glyph-name="uniF369" unicode="&#xf369;" horiz-adv-x="857" 
d="M724 0h-646v525h122v-410h157v410h123v-410h157v410h122v-410h80v-205h-115v90z" />
    <glyph glyph-name="uniF36A" unicode="&#xf36a;" horiz-adv-x="565" 
d="M128 410h-121v115h244v-163q23 3 58 3q109 0 165 -46.5t56 -131.5q0 -87 -65 -138t-182 -51q-50 0 -87 1q-36 1 -68 1v410zM298 250q-18 0 -47 -3v-132q22 -2 55 -2q94 0 94 71q0 66 -102 66z" />
    <glyph glyph-name="uniF36B" unicode="&#xf36b;" horiz-adv-x="736" 
d="M658 0h-123v525h123v-525zM247 250q-21 0 -47 -2v-133q22 -2 46 -2q95 0 95 71q0 66 -94 66zM78 525h122v-163q22 3 57 3q104 0 159 -47t55 -131q0 -87 -64 -138t-176 -51q-51 0 -86 1t-67 1v525z" />
    <glyph glyph-name="uniF36C" unicode="&#xf36c;" horiz-adv-x="515" 
d="M248 250q-3 0 -9 -0.5t-17.5 -1t-21.5 -0.5v-133q9 0 20 -0.5t16.5 -1t9.5 -0.5q104 0 104 71q0 66 -102 66zM78 525h122v-163q23 3 58 3q109 0 165.5 -46.5t56.5 -131.5q0 -87 -66 -138t-183 -51q-50 0 -86 1q-35 1 -67 1v525z" />
    <glyph glyph-name="uniF36D" unicode="&#xf36d;" horiz-adv-x="562" 
d="M398 210h-244v115h240q-33 94 -167 94q-97 0 -156 -38l-47 92q80 61 208 61q130 0 212 -75q83 -75 83 -197q0 -126 -84 -199q-84 -72 -227 -72q-59 0 -113 15.5t-84 39.5l52 103q64 -43 160 -43q138 0 167 104z" />
    <glyph glyph-name="uniF36E" unicode="&#xf36e;" horiz-adv-x="877" 
d="M200 0h-122v525h122v-200h83q19 95 91.5 152t181.5 57q133 0 209 -73q77 -74 77 -198q0 -122 -78 -197q-76 -75 -208 -75q-110 0 -184 59t-90 160h-82v-210zM408 263q0 -69 42 -113t110 -44q72 0 112 43t40 114t-41.5 113.5t-110.5 42.5q-68 0 -110 -43t-42 -113z" />
    <glyph glyph-name="uniF36F" unicode="&#xf36f;" horiz-adv-x="559" 
d="M481 0h-123v160h-92l-110 -160h-145l136 187q-89 51 -89 147q0 82 60 138q61 56 180 56q16 0 104 -2q44 -1 79 -1v-525zM256 275h102v135q-33 3 -72 3q-47 0 -72.5 -19t-25.5 -52q0 -26 19.5 -43.5t48.5 -23.5z" />
    <glyph glyph-name="uniF371" unicode="&#xf371;" horiz-adv-x="498" 
d="M108 645q0 27 18.5 43.5t46.5 16.5q23 0 40.5 -17.5t17.5 -42.5q0 -27 -17 -44.5t-41 -17.5q-28 0 -46.5 16.5t-18.5 45.5zM287 645q0 26 18.5 43t45.5 17q25 0 42.5 -17t17.5 -43q0 -28 -17.5 -45t-42.5 -17q-28 0 -46 16.5t-18 45.5zM446 0h-368v525h359v-115h-237v-88
h213v-115h-213v-92h246v-115z" />
    <glyph glyph-name="uniF372" unicode="&#xf372;" horiz-adv-x="642" 
d="M607 160q0 -83 -40 -126t-114 -43q-33 0 -63.5 11t-42.5 26l40 94q25 -16 50 -16q47 0 47 49q0 54 -77 54q-41 0 -95 -25v-184h-122v410h-181v115h485v-115h-182v-107q57 21 118 21q82 0 129.5 -41t47.5 -123z" />
    <glyph glyph-name="uniF373" unicode="&#xf373;" horiz-adv-x="441" 
d="M200 0h-122v525h348v-115h-226v-410zM309 776l71 -88l-149 -118l-55 64z" />
    <glyph glyph-name="uniF374" unicode="&#xf374;" horiz-adv-x="562" 
d="M164 322h245v-115h-243q32 -101 178 -101q91 0 155 43l44 -103q-30 -24 -83 -39.5t-113 -15.5q-144 0 -228 72q-84 73 -84 200q0 121 83 196q82 75 213 75q127 0 207 -61l-54 -92q-59 38 -149 38q-146 0 -171 -97z" />
    <glyph glyph-name="uniF375" unicode="&#xf375;" horiz-adv-x="500" 
d="M335 151q0 33 -101 62q-37 11 -64.5 22t-58.5 30.5t-47.5 48.5t-15.5 66q0 70 54 111t161 41q50 0 109 -22q59 -21 88 -51l-56 -91q-30 22 -72 35q-45 14 -74 14q-80 0 -80 -43q0 -18 29.5 -31.5t72 -25.5t84.5 -29.5t71.5 -54t29.5 -88.5q0 -69 -59 -113
q-58 -43 -153 -43q-68 0 -131 25q-65 26 -95 66l70 83q26 -25 74 -42q51 -17 91 -17q33 0 53 12.5t20 34.5z" />
    <glyph glyph-name="uniF376" unicode="&#xf376;" horiz-adv-x="297" 
d="M210 0h-123v525h123v-525z" />
    <glyph glyph-name="uniF377" unicode="&#xf377;" horiz-adv-x="322" 
d="M29 645q0 24 17 40t42 16q22 0 38 -16t16 -40q0 -26 -16 -43t-38 -17q-26 0 -42.5 16.5t-16.5 43.5zM181 645q0 24 17 40t42 16q22 0 38 -16t16 -40q0 -26 -16 -43t-38 -17q-25 0 -42 16.5t-17 43.5zM223 0h-123v525h123v-525z" />
    <glyph glyph-name="uniF378" unicode="&#xf378;" horiz-adv-x="336" 
d="M136 525h122v-396q0 -67 -38 -102.5t-111 -35.5q-34 0 -64.5 11t-42.5 26l40 94q22 -16 49 -16q45 0 45 44v375z" />
    <glyph glyph-name="uniF379" unicode="&#xf379;" horiz-adv-x="840" 
d="M412 0v410h-143l-14 -99q-13 -102 -33 -167t-50.5 -99t-66.5 -43.5t-88 -1.5l2 122q35 -5 58 19q49 49 68 279l9 105h381v-163q22 3 56 3q104 0 159 -47t55 -131q0 -88 -63.5 -138.5t-176.5 -50.5q-51 0 -86 1t-67 1zM580 250q-18 0 -45 -3v-131q22 -3 44 -3q96 0 96 71
q0 66 -95 66z" />
    <glyph glyph-name="uniF37A" unicode="&#xf37a;" horiz-adv-x="869" 
d="M200 0h-122v525h122v-183h241v183h122v-178q30 2 57 2q104 0 159 -45t55 -124q0 -82 -64.5 -132t-175.5 -50q-40 0 -70 1q-29 1 -59 1h-24v227h-241v-227zM563 232v-116q24 -3 45 -3q96 0 96 63q0 28 -25.5 43.5t-69.5 15.5q-17 0 -46 -3z" />
    <glyph glyph-name="uniF37B" unicode="&#xf37b;" horiz-adv-x="642" 
d="M190 410h-181v115h485v-115h-182v-116q51 23 116 23q75 0 127 -40q52 -39 52 -127v-150h-123v113q0 89 -82 89q-51 0 -90 -21v-181h-122v410z" />
    <glyph glyph-name="uniF37C" unicode="&#xf37c;" horiz-adv-x="586" 
d="M200 0h-122v525h122v-238l203 238h159l-224 -242l240 -283h-166l-212 260v-260zM344 776l71 -88l-149 -118l-55 64z" />
    <glyph glyph-name="uniF37E" unicode="&#xf37e;" horiz-adv-x="567" 
d="M434 525h126l-198 -397q-62 -128 -169 -128q-44 0 -78 23l43 104q21 -12 41 -12q29 0 45 30l9 14l-244 366h154l152 -245zM122 700h107q0 -53 60 -53q55 0 55 53h108q0 -64 -43.5 -101t-119.5 -37q-82 0 -124.5 35.5t-42.5 102.5z" />
    <glyph glyph-name="uniF37F" unicode="&#xf37f;" horiz-adv-x="641" 
d="M263 0h-185v525h122v-410h241v410h122v-525h-185v-113h-115v113z" />
    <glyph glyph-name="uniF381" unicode="&#xf381;" horiz-adv-x="527" 
d="M90 375h-83v100h83v50h123v-50h123v-100h-123v-43q23 3 57 3q222 0 222 -163q0 -84 -64 -129t-184 -45q-50 0 -86 1t-68 1v375zM260 227q-3 0 -21.5 -0.5t-25.5 -0.5v-119q6 0 23.5 -1t21.5 -1q104 0 104 64q0 58 -102 58z" />
    <glyph glyph-name="uniF389" unicode="&#xf389;" horiz-adv-x="659" 
d="M35 261q0 117 82 193q83 78 212 78t212 -74t83 -197q0 -119 -84 -196q-82 -76 -211 -76t-212 74q-82 73 -82 198zM242 247q-41 0 -72 -28q14 -51 58 -83t101 -32q103 0 144 74q-25 -12 -50 -12q-29 -2 -64.5 19t-67 42t-49.5 20zM433 274q30 0 57 21q-11 56 -55.5 89
t-105.5 33q-101 0 -144 -76q33 14 58 14q31 1 68 -20t69.5 -42t52.5 -19z" />
    <glyph glyph-name="uniF38A" unicode="&#xf38a;" horiz-adv-x="548" 
d="M468 354l-143 -354h-94l-237 525h139l149 -358l87 239q30 85 71 111q43 27 123 8v-100q-32 6 -54 -10t-41 -61z" />
    <glyph glyph-name="uniF393" unicode="&#xf393;" horiz-adv-x="449" 
d="M200 0h-122v525h241v82h115v-197h-234v-410z" />
    <glyph glyph-name="uniF3CF" unicode="&#xf3cf;" horiz-adv-x="1003" 
d="M569 525v-525h-99l-277 326v-326h-115v525h98l278 -327v327h115zM606 361q0 63 48.5 101.5t124.5 38.5t124 -38.5t48 -101.5t-48 -102.5t-124 -39.5t-124.5 39.5t-48.5 102.5zM714 361q-4 -31 30.5 -44t69 0t30.5 44q0 22 -18 35t-47 13t-47 -13t-18 -35zM918 77h-279
v107h279v-107z" />
    <glyph glyph-name="uniF3D0" unicode="&#xf3d0;" horiz-adv-x="450" 
d="M60 700h107q0 -53 60 -53q55 0 55 53h108q0 -64 -43.5 -101t-119.5 -37q-82 0 -124.5 35.5t-42.5 102.5z" />
    <glyph glyph-name="uniF400" unicode="&#xf400;" horiz-adv-x="0" 
d="M-216 730l90 -68l-126 -145l-69 48z" />
    <glyph glyph-name="uniF401" unicode="&#xf401;" horiz-adv-x="0" 
d="M-278 911l43 -99l-225 -81l-32 69z" />
    <glyph glyph-name="uniF406" unicode="&#xf406;" horiz-adv-x="496" 
d="M60 841l50 59q55 -63 143 -63q85 0 140 63l43 -60q-28 -44 -78 -73.5t-105 -29.5q-64 0 -116 31q-50 30 -77 73z" />
    <glyph glyph-name="uniF407" unicode="&#xf407;" horiz-adv-x="392" 
d="M60 -163l37 58q41 -33 74 -33q39 0 39 25q0 28 -41 28h-6v85h58v-35q111 -6 111 -85q0 -40 -36 -64t-97 -24q-81 0 -139 45z" />
    <glyph glyph-name="uniF408" unicode="&#xf408;" horiz-adv-x="478" 
d="M101 728l-41 64l175 112h4l179 -111l-45 -65l-136 71z" />
    <glyph glyph-name="uniF409" unicode="&#xf409;" horiz-adv-x="278" 
d="M86 -58l112 25q20 -12 20 -49q0 -50 -38 -83q-38 -34 -86 -41l-34 50q43 18 43 60q0 26 -17 38z" />
    <glyph glyph-name="uniF40A" unicode="&#xf40a;" horiz-adv-x="273" 
d="M82 716l97 57q34 -35 34 -93q0 -59 -28.5 -103.5t-71.5 -68.5l-53 49q45 37 45 97q0 39 -23 62z" />
    <glyph glyph-name="uniF40B" unicode="&#xf40b;" horiz-adv-x="274" 
d="M60 831q0 32 22.5 51.5t56.5 19.5q31 0 53 -20t22 -51q0 -33 -22 -54t-53 -21q-34 0 -56.5 20.5t-22.5 54.5z" />
    <glyph glyph-name="uniF40C" unicode="&#xf40c;" horiz-adv-x="402" 
d="M60 800q0 52 38 80t101 28q65 0 104 -28t39 -80t-39.5 -81t-103.5 -29q-62 0 -100.5 29t-38.5 81zM145 800q0 -23 15 -35t40 -12q26 0 41.5 12t15.5 35q0 45 -57 45q-55 0 -55 -45z" />
    <glyph glyph-name="uniF40D" unicode="&#xf40d;" horiz-adv-x="482" 
d="M96 753l-36 73q47 54 112 54q30 0 74 -18q45 -17 69 -17q46 0 76 32l31 -73q-41 -59 -115 -59q-23 0 -71 17q-45 18 -74 18q-33 0 -66 -27z" />
    <glyph glyph-name="uniF40E" unicode="&#xf40e;" horiz-adv-x="357" 
d="M262 -98l35 -70q-13 -13 -43 -22.5t-60 -9.5q-60 0 -97 24t-37 70q0 60 68 93q69 33 156 33v-20q-44 0 -76.5 -20.5t-32.5 -47.5q0 -20 13 -30t32 -10q22 0 42 10z" />
    <glyph glyph-name="uniF410" unicode="&#xf410;" horiz-adv-x="0" 
d="M-255 800l-32 -69l-225 81l43 99z" />
    <glyph glyph-name="uniF416" unicode="&#xf416;" horiz-adv-x="278" 
d="M86 -58l112 25q20 -12 20 -49q0 -50 -38 -83q-38 -34 -86 -41l-34 50q43 18 43 60q0 26 -17 38z" />
    <glyph glyph-name="uniF418" unicode="&#xf418;" horiz-adv-x="273" 
d="M82 519l97 57q34 -35 34 -93q0 -59 -28.5 -103.5t-71.5 -68.5l-53 49q45 38 45 97q0 39 -23 62z" />
    <glyph glyph-name="uniF447" unicode="&#xf447;" horiz-adv-x="503" 
d="M125 -166l34 54q34 -26 70 -26q39 0 39 25q0 28 -41 28h-6v85h-31v410h-181v115h485v-115h-182v-410h-33v-35q104 -6 104 -85q0 -40 -36.5 -64t-101.5 -24q-63 0 -120 42z" />
    <glyph glyph-name="uniF44E" unicode="&#xf44e;" horiz-adv-x="624" 
d="M58 324h418q-12 44 -54.5 68.5t-104.5 24.5q-78 0 -133 -37l-48 91q79 61 193 61q127 0 204 -75q76 -73 76 -197q0 -125 -79 -198t-206 -73q-137 0 -212 89q-74 88 -54 246zM323 104q140 0 158 105h-296q1 -44 39.5 -74.5t98.5 -30.5z" />
    <glyph glyph-name="uniF639" unicode="&#xf639;" 
d="M298 708q116 0 175 -96q59 -97 59 -262q0 -170 -59 -264t-173 -94q-115 0 -176 95t-61 263q0 169 60 263.5t175 94.5zM186 350q0 -251 114 -251q59 0 84.5 59t25.5 192q0 132 -26 191t-86 59q-59 0 -85.5 -60.5t-26.5 -189.5z" />
    <glyph glyph-name="uniF63A" unicode="&#xf63a;" 
d="M520 0h-439v92q125 123 170 175q120 139 120 235q0 43 -23 67t-66 24q-37 0 -63.5 -25t-37.5 -69l-96 43q15 77 71.5 121.5t138.5 44.5q95 0 147 -54q52 -53 52 -129q0 -197 -264 -418h290v-107z" />
    <glyph glyph-name="uniF63B" unicode="&#xf63b;" 
d="M292 -11q-77 0 -135.5 31.5t-86.5 86.5l65 84q59 -87 150 -87q53 0 83 27t30 70q0 48 -34.5 73.5t-95.5 25.5h-50v115h45q46 0 77 27t31 69q0 40 -23 62.5t-66 22.5q-81 0 -132 -75l-64 81q58 109 207 109q91 0 146 -48.5t55 -129.5q0 -119 -107 -166v-3
q63 -11 98.5 -56.5t35.5 -110.5q0 -95 -65 -152q-65 -56 -164 -56z" />
    <glyph glyph-name="uniF63C" unicode="&#xf63c;" 
d="M470 0h-115v162h-321v85l270 453h132l-253 -423h172v173h115v-173h89v-115h-89v-162z" />
    <glyph glyph-name="uniF63D" unicode="&#xf63d;" 
d="M126 328l46 372h331v-115h-230l-20 -139q20 4 40 4q96 0 157 -61q63 -61 63 -162q0 -109 -69 -174q-68 -64 -172 -64q-57 0 -117 26q-56 26 -88 74l66 87q21 -32 61.5 -52t80.5 -20q50 0 82.5 33t32.5 85q0 55 -40.5 89.5t-108.5 34.5q-73 0 -115 -18z" />
    <glyph glyph-name="uniF63E" unicode="&#xf63e;" 
d="M50 248q0 90 31 172.5t84 141.5q104 117 229 149l47 -87q-92 -28 -160.5 -95t-94.5 -161q47 65 144 65q82 0 139 -60t57 -154q0 -105 -68 -168q-68 -62 -158 -62q-114 0 -182 75q-68 76 -68 184zM172 247q0 -63 34.5 -103t94.5 -40q45 0 74 31t29 76q0 51 -30 83t-83 32
q-81 0 -119 -79z" />
    <glyph glyph-name="uniF63F" unicode="&#xf63f;" 
d="M388 585h-302v115h440v-77l-247 -623h-126z" />
    <glyph glyph-name="uniF640" unicode="&#xf640;" 
d="M289 417h20q38 0 64 26.5t26 63.5q0 42 -28 65.5t-74 23.5q-45 0 -72 -24.5t-27 -64.5q0 -37 26.5 -63.5t64.5 -26.5zM308 302h-17q-47 0 -80 -27.5t-33 -71.5q0 -43 33 -71t87 -28q59 0 90 27t30 72q0 46 -30.5 72.5t-79.5 26.5zM56 181q0 64 33 111.5t86 65.5v3
q-44 19 -72 63.5t-28 102.5q0 81 64 132q64 52 159 52q94 0 158 -52q65 -51 65 -132q0 -53 -29 -98.5t-78 -66.5v-3q55 -12 91 -57.5t36 -110.5q0 -94 -69 -148q-68 -54 -173 -54q-106 0 -174 52q-69 53 -69 140z" />
    <glyph glyph-name="uniF641" unicode="&#xf641;" 
d="M542 444q0 -194 -102 -316q-100 -119 -257 -139l-38 91q217 43 261 244q-46 -63 -133 -63q-88 0 -150 62q-61 61 -61 155q0 104 71 169q70 64 161 64q115 0 181 -74q67 -73 67 -193zM420 445q0 66 -34 108.5t-92 42.5q-48 0 -79 -33q-31 -32 -31 -77q0 -49 32.5 -83
t84.5 -34q83 0 119 76z" />
    <glyph glyph-name="uniF643" unicode="&#xf643;" 
d="M105 66q-72 76 -72 184t72 184q72 77 193 77t193 -77q72 -76 72 -184t-72 -184q-72 -77 -193 -77t-193 77zM155 250q0 -63 39.5 -104.5t103.5 -41.5q65 0 103.5 41t38.5 105q0 66 -38.5 106t-103.5 40t-104 -41t-39 -105z" />
    <glyph glyph-name="uniF644" unicode="&#xf644;" 
d="M155 311l-38 104l170 93h80v-508h-123v362z" />
    <glyph glyph-name="uniF645" unicode="&#xf645;" 
d="M521 0h-440v85q291 120 291 227q0 39 -22.5 62t-61.5 23q-84 0 -118 -84l-74 74q21 56 76 90q56 35 120 35q94 0 144.5 -47.5t50.5 -125.5q0 -77 -54 -138q-53 -60 -110 -86h198v-115z" />
    <glyph glyph-name="uniF646" unicode="&#xf646;" 
d="M292 -211q-77 0 -135.5 31.5t-86.5 86.5l65 84q59 -87 150 -87q53 0 83 27t30 70q0 48 -34.5 73.5t-95.5 25.5h-50v115h45q46 0 77 27t31 69q0 40 -23 62.5t-66 22.5q-81 0 -132 -75l-64 81q58 109 207 109q91 0 146 -48.5t55 -129.5q0 -119 -107 -166v-3
q63 -11 98.5 -56.5t35.5 -110.5q0 -95 -65 -151q-64 -57 -164 -57z" />
    <glyph glyph-name="uniF647" unicode="&#xf647;" 
d="M469 -200h-115v200h-320v84l250 416h132l-233 -385h171v172h115v-172h90v-115h-90v-200z" />
    <glyph glyph-name="uniF648" unicode="&#xf648;" 
d="M126 128l46 372h331v-115h-230l-20 -139q20 4 40 4q96 0 157 -61q63 -61 63 -162q0 -109 -69 -174q-68 -64 -172 -64q-58 0 -117 27q-55 25 -88 73l66 87q21 -32 61.5 -52t80.5 -20q50 0 82.5 33t32.5 85q0 55 -40.5 89.5t-108.5 34.5q-73 0 -115 -18z" />
    <glyph glyph-name="uniF649" unicode="&#xf649;" 
d="M50 248q0 90 31 172.5t84 141.5q104 117 229 149l47 -87q-92 -28 -160.5 -95t-94.5 -161q47 65 144 65q82 0 139 -60t57 -154q0 -105 -68 -168q-68 -62 -158 -62q-114 0 -182 75q-68 76 -68 184zM172 247q0 -63 34.5 -103t94.5 -40q45 0 74 31t29 76q0 51 -30 83t-83 32
q-81 0 -119 -79z" />
    <glyph glyph-name="uniF64A" unicode="&#xf64a;" 
d="M388 385h-302v115h440v-77l-248 -623h-126z" />
    <glyph glyph-name="uniF64B" unicode="&#xf64b;" 
d="M290 417h19q38 0 64 26.5t26 63.5q0 42 -28 65.5t-74 23.5q-45 0 -72 -25t-27 -64q0 -37 26.5 -63.5t65.5 -26.5zM309 302h-17q-47 0 -80 -27.5t-33 -71.5q0 -43 32.5 -71t86.5 -28q59 0 90.5 27t30.5 72q-1 46 -31 72.5t-79 26.5zM56 181q0 64 33 111.5t87 65.5v3
q-44 19 -72 63.5t-28 102.5q0 81 64 132q64 52 158 52q95 0 159 -52q65 -51 65 -132q0 -53 -29.5 -98.5t-78.5 -66.5v-3q55 -12 91 -57.5t36 -110.5q0 -94 -69 -148q-68 -54 -173 -54q-106 0 -174 52q-69 53 -69 140z" />
    <glyph glyph-name="uniF64C" unicode="&#xf64c;" 
d="M542 244q0 -195 -102 -315q-100 -120 -257 -140l-38 91q217 43 261 244q-46 -63 -133 -63q-88 0 -150 62q-61 61 -61 155q0 104 71 169q70 64 161 64q115 0 181 -74q67 -73 67 -193zM420 245q0 66 -34 108.5t-92 42.5q-48 0 -79 -33q-31 -32 -31 -77q0 -49 32.5 -83
t84.5 -34q83 0 119 76z" />
    <glyph glyph-name="uniF66D" unicode="&#xf66d;" horiz-adv-x="611" 
d="M129 0h-123l245 526h109l245 -526h-131l-49 108h-247zM374 222l-72 161l-73 -161h145zM149 671l51 58q49 -57 110 -57q69 0 112 55l40 -55q-62 -92 -157 -92q-53 0 -94 27t-62 64z" />
    <glyph glyph-name="uniF66E" unicode="&#xf66e;" horiz-adv-x="611" 
d="M129 0h-123l245 526h109l245 -526h-131l-49 108h-247zM374 222l-72 161l-73 -161h145zM445 597h-279v93h279v-93z" />
    <glyph glyph-name="uniF66F" unicode="&#xf66f;" horiz-adv-x="611" 
d="M563 -98l35 -70q-13 -13 -43 -22.5t-60 -9.5q-60 0 -97 24t-37 70q0 76 111 110l-47 104h-247l-49 -108h-123l245 526h109l245 -526h-25q-41 -1 -72.5 -22t-31.5 -46q0 -20 13 -30t32 -10q22 0 42 10zM374 222l-72 161l-73 -161h145z" />
    <glyph glyph-name="uniF671" unicode="&#xf671;" horiz-adv-x="549" 
d="M476 142l47 -92q-27 -27 -79.5 -44t-109.5 -17q-135 0 -218 74q-81 75 -81 198q0 116 76 193q77 78 220 78q113 0 180 -54l-55 -92q-63 31 -124 31q-76 0 -121.5 -41.5t-45.5 -114.5q0 -70 49.5 -113.5t130.5 -43.5q73 0 131 38zM372 776l71 -88l-149 -118l-55 64z" />
    <glyph glyph-name="uniF672" unicode="&#xf672;" horiz-adv-x="549" 
d="M315 564h-4l-155 122l54 67l104 -79l104 78l53 -67zM476 142l47 -92q-27 -27 -79.5 -44t-109.5 -17q-135 0 -218 74q-81 75 -81 198q0 116 76 193q77 78 220 78q113 0 180 -54l-55 -92q-63 31 -124 31q-76 0 -121.5 -41.5t-45.5 -114.5q0 -70 49.5 -113.5t130.5 -43.5
q73 0 131 38z" />
    <glyph glyph-name="uniF673" unicode="&#xf673;" horiz-adv-x="549" 
d="M314 749h4l157 -122l-54 -68l-106 80l-107 -78l-52 67zM476 142l47 -92q-27 -27 -79.5 -44t-109.5 -17q-135 0 -218 74q-81 75 -81 198q0 116 76 193q77 78 220 78q113 0 180 -54l-55 -92q-63 31 -124 31q-76 0 -121.5 -41.5t-45.5 -114.5q0 -70 49.5 -113.5t130.5 -43.5
q73 0 131 38z" />
    <glyph glyph-name="uniF674" unicode="&#xf674;" horiz-adv-x="549" 
d="M476 142l47 -92q-27 -27 -79.5 -44t-109.5 -17q-135 0 -218 74q-81 75 -81 198q0 116 76 193q77 78 220 78q113 0 180 -54l-55 -92q-63 31 -124 31q-76 0 -121.5 -41.5t-45.5 -114.5q0 -70 49.5 -113.5t130.5 -43.5q73 0 131 38zM240 659q0 30 20.5 48.5t51.5 18.5
q27 0 46.5 -19t19.5 -48q0 -32 -19 -51.5t-47 -19.5q-31 0 -51.5 19.5t-20.5 51.5z" />
    <glyph glyph-name="uniF675" unicode="&#xf675;" horiz-adv-x="622" 
d="M283 564h-4l-155 122l54 67l104 -79l104 78l53 -67zM91 0h-13v525h12q37 0 81 1t87 1q164 0 246.5 -69t82.5 -192q0 -120 -87 -194q-86 -74 -248 -74q-34 0 -73 1t-88 1zM257 412q-31 0 -57 -2v-295q30 -2 56 -2q96 0 148.5 39.5t52.5 113.5q0 72 -51.5 109t-148.5 37z
" />
    <glyph glyph-name="uniF676" unicode="&#xf676;" horiz-adv-x="625" 
d="M80 212h-71v107h71v206h12q36 0 83 1t102 1q154 0 234 -74q79 -73 79 -187t-84 -191q-83 -77 -228 -77q-50 0 -93 1t-91 1h-14v212zM280 412q-54 0 -78 -4v-89h142v-107h-142v-97q58 -2 66 -2q91 0 141.5 40t50.5 113q0 70 -47.5 108t-132.5 38z" />
    <glyph glyph-name="uniF678" unicode="&#xf678;" horiz-adv-x="498" 
d="M263 564h-4l-155 122l54 67l104 -79l104 78l53 -67zM446 0h-368v525h359v-115h-237v-88h213v-115h-213v-92h246v-115z" />
    <glyph glyph-name="uniF679" unicode="&#xf679;" horiz-adv-x="498" 
d="M446 0h-368v525h359v-115h-237v-88h213v-115h-213v-92h246v-115zM187 659q0 30 20.5 48.5t51.5 18.5q27 0 46.5 -19t19.5 -48q0 -32 -19 -51.5t-47 -19.5q-31 0 -51.5 19.5t-20.5 51.5z" />
    <glyph glyph-name="uniF67A" unicode="&#xf67a;" horiz-adv-x="498" 
d="M446 0h-368v525h359v-115h-237v-88h213v-115h-213v-92h246v-115zM395 597h-279v93h279v-93z" />
    <glyph glyph-name="uniF67C" unicode="&#xf67c;" horiz-adv-x="498" 
d="M423 -98l35 -70q-13 -13 -43 -22.5t-60 -9.5q-60 0 -97 24t-37 70q0 72 99 106h-242v525h359v-115h-237v-88h213v-115h-213v-92h246v-115h-6q-41 -1 -72.5 -22t-31.5 -46q0 -20 13 -30t32 -10q22 0 42 10z" />
    <glyph glyph-name="uniF67D" unicode="&#xf67d;" horiz-adv-x="609" 
d="M451 191h-131v108h246v-236q-37 -33 -101 -54q-63 -20 -119 -20q-147 0 -229 73t-82 199q0 117 81 193q81 78 215 78q110 0 190 -54l-52 -96q-53 35 -124 35q-83 0 -131.5 -40t-48.5 -116q0 -72 50 -114.5t133 -42.5q62 0 103 26v61zM161 671l51 58q50 -57 110 -57
q69 0 112 55l40 -55q-62 -92 -157 -92q-53 0 -94 27t-62 64z" />
    <glyph glyph-name="uniF67E" unicode="&#xf67e;" horiz-adv-x="609" 
d="M451 191h-131v108h246v-236q-37 -33 -101 -54q-63 -20 -119 -20q-147 0 -229 73t-82 199q0 117 81 193q81 78 215 78q110 0 190 -54l-52 -96q-53 35 -124 35q-83 0 -131.5 -40t-48.5 -116q0 -72 50 -114.5t133 -42.5q62 0 103 26v61zM324 749h4l157 -122l-54 -68l-106 80
l-107 -78l-52 67z" />
    <glyph glyph-name="uniF67F" unicode="&#xf67f;" horiz-adv-x="609" 
d="M451 191h-131v108h246v-236q-37 -33 -101 -54q-63 -20 -119 -20q-147 0 -229 73t-82 199q0 117 81 193q81 78 215 78q110 0 190 -54l-52 -96q-53 35 -124 35q-83 0 -131.5 -40t-48.5 -116q0 -72 50 -114.5t133 -42.5q62 0 103 26v61zM266 -58l112 25q20 -12 20 -49
q0 -50 -38 -83q-38 -34 -86 -41l-34 50q43 18 43 60q0 26 -17 38z" />
    <glyph glyph-name="uniF680" unicode="&#xf680;" horiz-adv-x="609" 
d="M451 191h-131v108h246v-236q-37 -33 -101 -54q-63 -20 -119 -20q-147 0 -229 73t-82 199q0 117 81 193q81 78 215 78q110 0 190 -54l-52 -96q-53 35 -124 35q-83 0 -131.5 -40t-48.5 -116q0 -72 50 -114.5t133 -42.5q62 0 103 26v61zM255 659q0 30 20.5 48.5t51.5 18.5
q27 0 46.5 -19t19.5 -48q0 -32 -19 -51.5t-47 -19.5q-31 0 -51.5 19.5t-20.5 51.5z" />
    <glyph glyph-name="uniF681" unicode="&#xf681;" horiz-adv-x="649" 
d="M78 373h-48v107h48v45h122v-45h249v45h122v-45h48v-107h-48v-373h-122v210h-249v-210h-122v373zM200 373v-48h249v48h-249z" />
    <glyph glyph-name="uniF682" unicode="&#xf682;" horiz-adv-x="649" 
d="M323 749h4l157 -122l-54 -68l-106 80l-107 -78l-52 67zM571 0h-122v210h-249v-210h-122v525h122v-200h249v200h122v-525z" />
    <glyph glyph-name="uniF685" unicode="&#xf685;" horiz-adv-x="297" 
d="M288 597h-279v93h279v-93zM210 0h-123v525h123v-525z" />
    <glyph glyph-name="uniF686" unicode="&#xf686;" horiz-adv-x="297" 
d="M180 -98l35 -70q-13 -13 -43 -22.5t-60 -9.5q-60 0 -97 24t-37 70q0 38 29.5 66t79.5 43v522h123v-525h-13q-41 -1 -72.5 -22t-31.5 -46q0 -20 13 -30t32 -10q22 0 42 10z" />
    <glyph glyph-name="uniF688" unicode="&#xf688;" horiz-adv-x="336" 
d="M189 749h4l157 -122l-54 -68l-106 80l-107 -78l-52 67zM136 525h122v-396q0 -67 -38 -102.5t-111 -35.5q-34 0 -64.5 11t-42.5 26l40 94q22 -16 49 -16q45 0 45 44v375z" />
    <glyph glyph-name="uniF689" unicode="&#xf689;" horiz-adv-x="586" 
d="M200 0h-122v525h122v-238l203 238h159l-224 -242l240 -283h-166l-212 260v-260zM211 -58l112 25q20 -12 20 -49q0 -50 -38 -83q-38 -34 -86 -41l-34 50q43 18 43 60q0 26 -17 38z" />
    <glyph glyph-name="uniF68A" unicode="&#xf68a;" horiz-adv-x="467" 
d="M448 0h-370v525h122v-403h248v-122zM282 776l71 -88l-149 -118l-55 64z" />
    <glyph glyph-name="uniF68B" unicode="&#xf68b;" horiz-adv-x="467" 
d="M298 525h112q6 -12 6 -35q0 -118 -99 -174l-53 50q45 44 45 110q0 24 -11 49zM448 0h-370v525h122v-403h248v-122z" />
    <glyph glyph-name="uniF68C" unicode="&#xf68c;" horiz-adv-x="467" 
d="M206 -58l112 25q20 -12 20 -49q0 -50 -38 -83q-38 -34 -86 -41l-34 50q43 18 43 60q0 26 -17 38zM448 0h-370v525h122v-403h248v-122z" />
    <glyph glyph-name="uniF68D" unicode="&#xf68d;" horiz-adv-x="467" 
d="M297 307q0 29 22.5 51.5t57.5 22.5q30 0 51.5 -22.5t21.5 -51.5q0 -33 -21.5 -56.5t-51.5 -23.5q-35 0 -57.5 23.5t-22.5 56.5zM448 0h-370v525h122v-403h248v-122z" />
    <glyph glyph-name="uniF68E" unicode="&#xf68e;" horiz-adv-x="663" 
d="M585 525v-525h-98l-294 326v-326h-115v525h98l294 -327v327h115zM399 776l71 -88l-149 -118l-55 64z" />
    <glyph glyph-name="uniF68F" unicode="&#xf68f;" horiz-adv-x="663" 
d="M333 564h-4l-155 122l54 67l104 -79l104 78l53 -67zM585 525v-525h-98l-294 326v-326h-115v525h98l294 -327v327h115z" />
    <glyph glyph-name="uniF690" unicode="&#xf690;" horiz-adv-x="663" 
d="M585 525v-525h-98l-294 326v-326h-115v525h98l294 -327v327h115zM264 -58l112 25q20 -12 20 -49q0 -50 -38 -83q-38 -34 -86 -41l-34 50q43 18 43 60q0 26 -17 38z" />
    <glyph glyph-name="uniF692" unicode="&#xf692;" horiz-adv-x="659" 
d="M35 261q0 117 82 193q83 78 212 78t212 -74t83 -197q0 -119 -84 -196q-82 -76 -211 -76t-212 74q-82 73 -82 198zM165 261q0 -67 47 -112q48 -45 117 -45q77 0 121 43.5t44 113.5q0 69 -47 113q-46 43 -118 43t-118 -43.5t-46 -112.5zM466 768l85 -64l-158 -131l-51 42z
M288 779l82 -62l-124 -144l-59 40z" />
    <glyph glyph-name="uniF693" unicode="&#xf693;" horiz-adv-x="659" 
d="M35 261q0 117 82 193q83 78 212 78t212 -74t83 -197q0 -119 -84 -196q-82 -76 -211 -76t-212 74q-82 73 -82 198zM165 261q0 -67 47 -112q48 -45 117 -45q77 0 121 43.5t44 113.5q0 69 -47 113q-46 43 -118 43t-118 -43.5t-46 -112.5zM469 597h-279v93h279v-93z" />
    <glyph glyph-name="uniF695" unicode="&#xf695;" horiz-adv-x="556" 
d="M200 167v-167h-122v525q35 0 79 1q45 1 99 1q229 0 229 -177q0 -116 -94 -153l150 -197h-156l-119 167h-66zM263 412q-25 0 -63 -2v-128h64q41 0 66 17.5t25 49.5q0 27 -23 45t-69 18zM327 776l71 -88l-149 -118l-55 64z" />
    <glyph glyph-name="uniF696" unicode="&#xf696;" horiz-adv-x="556" 
d="M260 564h-4l-155 122l54 67l104 -79l104 78l53 -67zM200 167v-167h-122v525q35 0 79 1q45 1 99 1q229 0 229 -177q0 -116 -94 -153l150 -197h-156l-119 167h-66zM263 412q-25 0 -63 -2v-128h64q41 0 66 17.5t25 49.5q0 27 -23 45t-69 18z" />
    <glyph glyph-name="uniF697" unicode="&#xf697;" horiz-adv-x="556" 
d="M200 167v-167h-122v525q35 0 79 1q45 1 99 1q229 0 229 -177q0 -116 -94 -153l150 -197h-156l-119 167h-66zM263 412q-25 0 -63 -2v-128h64q41 0 66 17.5t25 49.5q0 27 -23 45t-69 18zM206 -58l112 25q20 -12 20 -49q0 -50 -38 -83q-38 -34 -86 -41l-34 50q43 18 43 60
q0 26 -17 38z" />
    <glyph glyph-name="uniF698" unicode="&#xf698;" horiz-adv-x="500" 
d="M335 151q0 33 -101 62q-37 11 -64.5 22t-58.5 30.5t-47.5 48.5t-15.5 66q0 70 54 111t161 41q50 0 109 -22q59 -21 88 -51l-56 -91q-30 22 -72 35q-45 14 -74 14q-80 0 -80 -43q0 -18 29.5 -31.5t72 -25.5t84.5 -29.5t71.5 -54t29.5 -88.5q0 -69 -59 -113
q-58 -43 -153 -43q-68 0 -131 25q-65 26 -95 66l70 83q26 -25 74 -42q51 -17 91 -17q33 0 53 12.5t20 34.5zM324 776l71 -88l-149 -118l-55 64z" />
    <glyph glyph-name="uniF699" unicode="&#xf699;" horiz-adv-x="500" 
d="M122 -166l34 54q34 -26 70 -26q39 0 39 25q0 28 -41 28h-6v76q-61 6 -114 30t-77 59l70 83q26 -25 74 -42q51 -17 91 -17q33 0 53 12.5t20 34.5q0 33 -101 62q-37 11 -64.5 22t-58.5 30.5t-47.5 48.5t-15.5 66q0 70 54 111t161 41q50 0 109 -22q59 -21 88 -51l-56 -91
q-30 22 -72 35q-45 14 -74 14q-80 0 -80 -43q0 -18 29.5 -31.5t72 -25.5t84.5 -29.5t71.5 -54t29.5 -88.5q0 -65 -52 -107t-137 -48v-25q104 -6 104 -85q0 -40 -36.5 -64t-101.5 -24q-63 0 -120 42z" />
    <glyph glyph-name="uniF69A" unicode="&#xf69a;" horiz-adv-x="500" 
d="M335 151q0 33 -101 62q-37 11 -64.5 22t-58.5 30.5t-47.5 48.5t-15.5 66q0 70 54 111t161 41q50 0 109 -22q59 -21 88 -51l-56 -91q-30 22 -72 35q-45 14 -74 14q-80 0 -80 -43q0 -18 29.5 -31.5t72 -25.5t84.5 -29.5t71.5 -54t29.5 -88.5q0 -69 -59 -113
q-58 -43 -153 -43q-68 0 -131 25q-65 26 -95 66l70 83q26 -25 74 -42q51 -17 91 -17q33 0 53 12.5t20 34.5zM249 749h4l157 -122l-54 -68l-106 80l-107 -78l-52 67z" />
    <glyph glyph-name="uniF69B" unicode="&#xf69b;" horiz-adv-x="500" 
d="M335 151q0 33 -101 62q-37 11 -64.5 22t-58.5 30.5t-47.5 48.5t-15.5 66q0 70 54 111t161 41q50 0 109 -22q59 -21 88 -51l-56 -91q-30 22 -72 35q-45 14 -74 14q-80 0 -80 -43q0 -18 29.5 -31.5t72 -25.5t84.5 -29.5t71.5 -54t29.5 -88.5q0 -69 -59 -113
q-58 -43 -153 -43q-68 0 -131 25q-65 26 -95 66l70 83q26 -25 74 -42q51 -17 91 -17q33 0 53 12.5t20 34.5zM194 -58l112 25q20 -12 20 -49q0 -50 -38 -83q-38 -34 -86 -41l-34 50q43 18 43 60q0 26 -17 38z" />
    <glyph glyph-name="uniF69D" unicode="&#xf69d;" horiz-adv-x="503" 
d="M253 564h-4l-155 122l54 67l104 -79l104 78l53 -67zM190 410h-181v115h485v-115h-182v-410h-122v410z" />
    <glyph glyph-name="uniF69E" unicode="&#xf69e;" horiz-adv-x="503" 
d="M190 410h-181v115h485v-115h-182v-410h-122v410zM189 -58l112 25q20 -12 20 -49q0 -50 -38 -83q-38 -34 -86 -41l-34 50q43 18 43 60q0 26 -17 38z" />
    <glyph glyph-name="uniF69F" unicode="&#xf69f;" horiz-adv-x="629" 
d="M437 525h123v-309q0 -113 -68 -170q-68 -56 -170 -56q-117 0 -185 60.5t-68 170.5v304h123v-277q0 -143 130 -143q115 0 115 136v284zM158 671l51 58q50 -57 110 -57q69 0 112 55l40 -55q-62 -92 -157 -92q-53 0 -94 27t-62 64z" />
    <glyph glyph-name="uniF6A0" unicode="&#xf6a0;" horiz-adv-x="629" 
d="M437 525h123v-309q0 -113 -68 -170q-68 -56 -170 -56q-117 0 -185 60.5t-68 170.5v304h123v-277q0 -143 130 -143q115 0 115 136v284zM454 768l85 -64l-158 -131l-51 42zM276 779l82 -62l-124 -144l-59 40z" />
    <glyph glyph-name="uniF6A1" unicode="&#xf6a1;" horiz-adv-x="629" 
d="M437 525h123v-309q0 -113 -68 -170q-68 -56 -170 -56q-117 0 -185 60.5t-68 170.5v304h123v-277q0 -143 130 -143q115 0 115 136v284zM454 597h-279v93h279v-93z" />
    <glyph glyph-name="uniF6A2" unicode="&#xf6a2;" horiz-adv-x="629" 
d="M437 525h123v-309q0 -159 -135 -209q-63 -39 -63 -75q0 -19 13.5 -29.5t32.5 -10.5q22 0 42 10l34 -70q-13 -13 -42.5 -22.5t-60.5 -9.5q-60 0 -97 24t-37 70q0 32 21.5 54t66.5 42h-13q-117 0 -185 60.5t-68 170.5v304h123v-277q0 -143 130 -143q115 0 115 136v284z" />
    <glyph glyph-name="uniF6A3" unicode="&#xf6a3;" horiz-adv-x="629" 
d="M313 773q54 0 91 -35q37 -34 37 -85t-37 -85q-35 -34 -91 -34q-55 0 -90 34q-36 34 -36 85t36 85q37 35 90 35zM315 597q32 -2 45.5 27.5t0 59t-45.5 26.5q-24 0 -39 -16t-15 -40t15 -40.5t39 -16.5zM437 525h123v-309q0 -113 -68 -170q-68 -56 -170 -56
q-117 0 -185 60.5t-68 170.5v304h123v-277q0 -143 130 -143q115 0 115 136v284z" />
    <glyph glyph-name="uniF6AB" unicode="&#xf6ab;" horiz-adv-x="542" 
d="M321 410h-271v115h450v-86l-288 -324h296v-115h-475v85zM337 776l71 -88l-149 -118l-55 64z" />
    <glyph glyph-name="uniF6AC" unicode="&#xf6ac;" horiz-adv-x="542" 
d="M321 410h-271v115h450v-86l-288 -324h296v-115h-475v85zM201 659q0 30 20.5 48.5t51.5 18.5q27 0 46.5 -19t19.5 -48q0 -32 -19 -51.5t-47 -19.5q-31 0 -51.5 19.5t-20.5 51.5z" />
    <glyph glyph-name="uniF6AD" unicode="&#xf6ad;" horiz-adv-x="297" 
d="M79 659q0 30 20.5 48.5t51.5 18.5q27 0 46.5 -19t19.5 -48q0 -32 -19 -51.5t-47 -19.5q-31 0 -51.5 19.5t-20.5 51.5zM210 0h-123v525h123v-525z" />
    <glyph glyph-name="uniF6BA" unicode="&#xf6ba;" horiz-adv-x="376" 
d="M314 300h-252v107h252v-107z" />
    <glyph glyph-name="uniF6BB" unicode="&#xf6bb;" horiz-adv-x="599" 
d="M514 304h-429v100h429v-100z" />
    <glyph glyph-name="uniF6BC" unicode="&#xf6bc;" horiz-adv-x="814" 
d="M729 304h-644v100h644v-100z" />
    <glyph glyph-name="uniF6C3" unicode="&#xf6c3;" horiz-adv-x="278" 
d="M86 -58l112 25q20 -12 20 -49q0 -50 -38 -83q-38 -34 -86 -41l-34 50q43 18 43 60q0 26 -17 38z" />
    <glyph glyph-name="uniF6C9" unicode="&#xf6c9;" horiz-adv-x="377" 
d="M274 911l43 -99l-225 -81l-32 69z" />
    <glyph glyph-name="uniF6CA" unicode="&#xf6ca;" horiz-adv-x="477" 
d="M243 735h-4l-179 111l45 65l136 -79l135 79l41 -64z" />
    <glyph glyph-name="uniF6CB" unicode="&#xf6cb;" horiz-adv-x="500" 
d="M60 825q0 27 22 44.5t55 17.5q30 0 50.5 -17.5t20.5 -44.5q0 -30 -20.5 -48t-50.5 -18q-34 0 -55.5 18t-21.5 48zM292 825q0 27 22 44.5t55 17.5q30 0 50.5 -17.5t20.5 -44.5q0 -30 -20.5 -48t-50.5 -18q-34 0 -55.5 18t-21.5 48z" />
    <glyph glyph-name="uniF6CE" unicode="&#xf6ce;" horiz-adv-x="377" 
d="M317 800l-32 -69l-225 81l43 99z" />
    <glyph glyph-name="uniF6CF" unicode="&#xf6cf;" horiz-adv-x="540" 
d="M400 911l80 -72l-191 -108l-47 49zM174 911l99 -51l-164 -129l-49 46z" />
    <glyph glyph-name="uniF6D0" unicode="&#xf6d0;" horiz-adv-x="429" 
d="M369 760h-309v92h309v-92z" />
    <glyph glyph-name="uniF6D1" unicode="&#xf6d1;" horiz-adv-x="515" 
d="M60 870h115q12 -58 85 -58q76 0 80 58h115q-1 -63 -57 -104q-56 -39 -138 -39q-88 0 -141.5 38.5t-58.5 104.5z" />
    <glyph glyph-name="uniF6D4" unicode="&#xf6d4;" horiz-adv-x="430" 
d="M60 675h105q0 -33 13 -53t39 -20q23 0 35.5 20.5t12.5 52.5h105q0 -70 -41 -112.5t-112 -42.5q-78 0 -117.5 41.5t-39.5 113.5z" />
    <glyph glyph-name="uniF6DC" unicode="&#xf6dc;" 
d="M177 473l-60 95l179 134h82v-702h-115v538z" />
    <glyph glyph-name="uniF6DE" unicode="&#xf6de;" horiz-adv-x="610" 
d="M547 220h-483v100h483v-100z" />
    <glyph glyph-name="uniF6F4" unicode="&#xf6f4;" horiz-adv-x="433" 
d="M60 671l51 58q50 -57 110 -57q69 0 112 55l40 -55q-62 -92 -157 -92q-53 0 -94 27t-62 64z" />
    <glyph glyph-name="uniF6F5" unicode="&#xf6f5;" horiz-adv-x="435" 
d="M219 564h-4l-155 122l54 67l104 -79l104 78l53 -67z" />
    <glyph glyph-name="uniF6F6" unicode="&#xf6f6;" horiz-adv-x="439" 
d="M218 749h4l157 -122l-54 -68l-106 80l-107 -78l-52 67z" />
    <glyph glyph-name="uniF6F7" unicode="&#xf6f7;" horiz-adv-x="258" 
d="M60 659q0 30 20.5 48.5t51.5 18.5q27 0 46.5 -19t19.5 -48q0 -32 -19 -51.5t-47 -19.5q-31 0 -51.5 19.5t-20.5 51.5z" />
    <glyph glyph-name="uniF6F8" unicode="&#xf6f8;" horiz-adv-x="484" 
d="M339 768l85 -64l-158 -131l-51 42zM161 779l82 -62l-124 -144l-59 40z" />
    <glyph glyph-name="uniF6F9" unicode="&#xf6f9;" horiz-adv-x="467" 
d="M78 168l-58 -27v119l58 26v239h122v-183l101 47v-118l-101 -47v-102h248v-122h-370v168z" />
    <glyph glyph-name="uniF6FA" unicode="&#xf6fa;" horiz-adv-x="868" 
d="M816 0h-368v18q-61 -29 -128 -29q-126 0 -206 75q-79 75 -79 197q0 117 75 194t212 77q68 0 126 -27v20h360v-115h-237v-88h212v-115h-212v-92h245v-115zM330 104q65 0 118 37v241q-52 35 -116 35q-76 0 -121.5 -41.5t-45.5 -114.5q0 -70 46 -113q47 -44 119 -44z" />
    <glyph glyph-name="uniF6FB" unicode="&#xf6fb;" horiz-adv-x="357" 
d="M262 -98l35 -70q-13 -13 -43 -22.5t-60 -9.5q-60 0 -97 24t-37 70q0 60 68 93q69 33 156 33v-20q-44 0 -76.5 -20.5t-32.5 -47.5q0 -20 13 -30t32 -10q22 0 42 10z" />
    <glyph glyph-name="uniF6FC" unicode="&#xf6fc;" horiz-adv-x="374" 
d="M186 773q54 0 91 -35q37 -34 37 -85t-37 -85q-35 -34 -91 -34q-55 0 -90 34q-36 34 -36 85t36 85q37 35 90 35zM188 597q32 -2 45.5 27.5t0 59t-45.5 26.5q-24 0 -39 -16t-15 -40t15 -40.5t39 -16.5z" />
    <glyph glyph-name="uniF6FD" unicode="&#xf6fd;" horiz-adv-x="500" 
d="M335 151q0 33 -101 62q-37 11 -64.5 22t-58.5 30.5t-47.5 48.5t-15.5 66q0 70 54 111t161 41q50 0 109 -22q59 -21 88 -51l-56 -91q-30 22 -72 35q-45 14 -74 14q-80 0 -80 -43q0 -18 29.5 -31.5t72 -25.5t84.5 -29.5t71.5 -54t29.5 -88.5q0 -69 -59 -113
q-58 -43 -153 -43q-68 0 -131 25q-65 26 -95 66l70 83q26 -25 74 -42q51 -17 91 -17q33 0 53 12.5t20 34.5zM250 564h-4l-155 122l54 67l104 -79l104 78l53 -67z" />
    <glyph glyph-name="uniF6FE" unicode="&#xf6fe;" horiz-adv-x="464" 
d="M107 586l-47 52q54 68 121 68q24 0 59 -21q37 -20 56 -20q15 0 26 4q16 7 43 27l39 -58q-60 -66 -117 -66q-22 0 -58 21t-59 21q-20 0 -63 -28z" />
    <glyph glyph-name="uniF6FF" unicode="&#xf6ff;" horiz-adv-x="542" 
d="M270 564h-4l-155 122l54 67l104 -79l104 78l53 -67zM321 410h-271v115h450v-86l-288 -324h296v-115h-475v85z" />
    <glyph glyph-name="uniF730" unicode="&#xf730;" horiz-adv-x="620" 
d="M117 66q-72 76 -72 184t72 184q72 77 193 77t193 -77q72 -76 72 -184t-72 -184q-72 -77 -193 -77t-193 77zM167 250q0 -63 39.5 -104.5t103.5 -41.5q65 0 103.5 41t38.5 105q0 66 -38.5 106t-103.5 40t-104 -41t-39 -105z" />
    <glyph glyph-name="uniF731" unicode="&#xf731;" horiz-adv-x="377" 
d="M68 311l-38 104l170 93h80v-508h-123v362z" />
    <glyph glyph-name="uniF732" unicode="&#xf732;" horiz-adv-x="517" 
d="M477 0h-440v85q291 120 291 227q0 39 -22.5 62t-61.5 23q-84 0 -118 -84l-74 74q21 56 76 90q56 35 120 35q94 0 144.5 -47.5t50.5 -125.5q0 -77 -54 -138q-53 -60 -110 -86h198v-115z" />
    <glyph glyph-name="uniF733" unicode="&#xf733;" horiz-adv-x="530" 
d="M244 -211q-77 0 -135.5 31.5t-86.5 86.5l65 84q59 -87 150 -87q53 0 83 27t30 70q0 48 -34.5 73.5t-95.5 25.5h-50v115h45q46 0 77 27t31 69q0 40 -23 62.5t-66 22.5q-81 0 -132 -75l-64 81q58 109 207 109q91 0 146 -48.5t55 -129.5q0 -119 -107 -166v-3
q63 -11 98.5 -56.5t35.5 -110.5q0 -95 -65 -151q-64 -57 -164 -57z" />
    <glyph glyph-name="uniF734" unicode="&#xf734;" horiz-adv-x="565" 
d="M450 -200h-115v200h-320v84l250 416h132l-233 -385h171v172h115v-172h90v-115h-90v-200z" />
    <glyph glyph-name="uniF735" unicode="&#xf735;" horiz-adv-x="514" 
d="M81 128l46 372h331v-115h-230l-20 -139q20 4 40 4q96 0 157 -61q63 -61 63 -162q0 -109 -69 -174q-68 -64 -172 -64q-59 0 -117 27q-55 25 -88 73l66 87q21 -32 61.5 -52t80.5 -20q50 0 82.5 33t32.5 85q0 55 -40.5 89.5t-108.5 34.5q-73 0 -115 -18z" />
    <glyph glyph-name="uniF736" unicode="&#xf736;" horiz-adv-x="559" 
d="M45 248q0 90 31 172.5t84 141.5q104 117 229 149l47 -87q-92 -28 -160.5 -95t-94.5 -161q47 65 144 65q82 0 139 -60t57 -154q0 -105 -68 -168q-68 -62 -158 -62q-115 0 -182 75q-68 76 -68 184zM167 247q0 -63 34.5 -103t94.5 -40q45 0 74 31t29 76q0 51 -30 83t-83 32
q-81 0 -119 -79z" />
    <glyph glyph-name="uniF737" unicode="&#xf737;" horiz-adv-x="497" 
d="M327 385h-302v115h440v-77l-248 -623h-126z" />
    <glyph glyph-name="uniF738" unicode="&#xf738;" horiz-adv-x="600" 
d="M291 417h19q38 0 64 26.5t26 63.5q0 42 -28 65.5t-74 23.5q-45 0 -72 -25t-27 -64q0 -37 26.5 -63.5t65.5 -26.5zM310 302h-17q-47 0 -80 -27.5t-33 -71.5q0 -43 32.5 -71t86.5 -28q59 0 90.5 27t30.5 72q-1 46 -31 72.5t-79 26.5zM57 181q0 64 33 111.5t87 65.5v3
q-44 19 -72 63.5t-28 102.5q0 81 64 132q64 52 158 52q95 0 159 -52q65 -51 65 -132q0 -53 -29.5 -98.5t-78.5 -66.5v-3q55 -12 91 -57.5t36 -110.5q0 -94 -69 -148q-67 -54 -173 -54t-174 52q-69 53 -69 140z" />
    <glyph glyph-name="uniF739" unicode="&#xf739;" horiz-adv-x="555" 
d="M510 244q0 -195 -102 -315q-100 -120 -257 -140l-38 91q217 43 261 244q-46 -63 -133 -63q-88 0 -150 62q-61 61 -61 155q0 104 71 169q70 64 161 64q115 0 181 -74q67 -73 67 -193zM388 245q0 66 -34 108.5t-92 42.5q-48 0 -79 -33q-31 -32 -31 -77q0 -49 32.5 -83
t84.5 -34q83 0 119 76z" />
    <glyph glyph-name="uniF760" unicode="&#xf760;" horiz-adv-x="324" 
d="M264 634l-56 -64l-148 118l70 88z" />
    <glyph glyph-name="uniF761" unicode="&#xf761;" horiz-adv-x="611" 
d="M129 0h-123l245 526h109l245 -526h-131l-49 108h-247zM374 222l-72 161l-73 -161h145z" />
    <glyph glyph-name="uniF762" unicode="&#xf762;" horiz-adv-x="540" 
d="M78 1v522q88 5 197 5q96 0 145.5 -35t49.5 -95q0 -89 -81 -122v-1q99 -18 99 -116q0 -79 -60 -121t-161 -42q-126 0 -189 5zM282 210h-82v-94q32 -5 77 -5q88 0 88 51q0 48 -83 48zM273 413q-47 0 -73 -3v-92h76q72 0 72 48q0 47 -75 47z" />
    <glyph glyph-name="uniF763" unicode="&#xf763;" horiz-adv-x="549" 
d="M476 142l47 -92q-27 -27 -79.5 -44t-109.5 -17q-135 0 -218 74q-81 75 -81 198q0 116 76 193q77 78 220 78q113 0 180 -54l-55 -92q-63 31 -124 31q-76 0 -121.5 -41.5t-45.5 -114.5q0 -70 49.5 -113.5t130.5 -43.5q73 0 131 38z" />
    <glyph glyph-name="uniF764" unicode="&#xf764;" horiz-adv-x="622" 
d="M91 0h-13v525h12q37 0 81 1t87 1q164 0 246.5 -69t82.5 -192q0 -120 -87 -194q-86 -74 -248 -74q-34 0 -73 1t-88 1zM257 412q-31 0 -57 -2v-295q30 -2 56 -2q96 0 148.5 39.5t52.5 113.5q0 72 -51.5 109t-148.5 37z" />
    <glyph glyph-name="uniF765" unicode="&#xf765;" horiz-adv-x="498" 
d="M446 0h-368v525h359v-115h-237v-88h213v-115h-213v-92h246v-115z" />
    <glyph glyph-name="uniF766" unicode="&#xf766;" horiz-adv-x="464" 
d="M200 0h-122v525h352v-115h-230v-107h205v-115h-205v-188z" />
    <glyph glyph-name="uniF767" unicode="&#xf767;" horiz-adv-x="609" 
d="M451 191h-131v108h246v-236q-37 -33 -101 -54q-63 -20 -119 -20q-147 0 -229 73t-82 199q0 117 81 193q81 78 215 78q110 0 190 -54l-52 -96q-53 35 -124 35q-83 0 -131.5 -40t-48.5 -116q0 -72 50 -114.5t133 -42.5q62 0 103 26v61z" />
    <glyph glyph-name="uniF768" unicode="&#xf768;" horiz-adv-x="649" 
d="M571 0h-122v210h-249v-210h-122v525h122v-200h249v200h122v-525z" />
    <glyph glyph-name="uniF769" unicode="&#xf769;" horiz-adv-x="297" 
d="M210 0h-123v525h123v-525z" />
    <glyph glyph-name="uniF76A" unicode="&#xf76a;" horiz-adv-x="336" 
d="M136 525h122v-396q0 -67 -38 -102.5t-111 -35.5q-34 0 -64.5 11t-42.5 26l40 94q22 -16 49 -16q45 0 45 44v375z" />
    <glyph glyph-name="uniF76B" unicode="&#xf76b;" horiz-adv-x="586" 
d="M200 0h-122v525h122v-238l203 238h159l-224 -242l240 -283h-166l-212 260v-260z" />
    <glyph glyph-name="uniF76C" unicode="&#xf76c;" horiz-adv-x="467" 
d="M448 0h-370v525h122v-403h248v-122z" />
    <glyph glyph-name="uniF76D" unicode="&#xf76d;" horiz-adv-x="761" 
d="M200 0h-122v525h123l188 -219l178 219h116v-525h-122v338l-172 -202h-17l-172 199v-335z" />
    <glyph glyph-name="uniF76E" unicode="&#xf76e;" horiz-adv-x="663" 
d="M585 525v-525h-98l-294 326v-326h-115v525h98l294 -327v327h115z" />
    <glyph glyph-name="uniF76F" unicode="&#xf76f;" horiz-adv-x="659" 
d="M35 261q0 117 82 193q83 78 212 78t212 -74t83 -197q0 -119 -84 -196q-82 -76 -211 -76t-212 74q-82 73 -82 198zM165 261q0 -67 47 -112q48 -45 117 -45q77 0 121 43.5t44 113.5q0 69 -47 113q-46 43 -118 43t-118 -43.5t-46 -112.5z" />
    <glyph glyph-name="uniF770" unicode="&#xf770;" horiz-adv-x="521" 
d="M200 155v-155h-122v525q38 0 83 1t91 1q119 0 176.5 -49t57.5 -137q0 -84 -58 -136q-59 -53 -158 -53q-36 0 -70 3zM265 412q-11 0 -65 -2v-139q37 -4 66 -4q42 0 66 19.5t24 54.5q0 71 -91 71z" />
    <glyph glyph-name="uniF771" unicode="&#xf771;" horiz-adv-x="659" 
d="M35 261q0 117 82 193q83 78 212 78t212 -74t83 -197q0 -102 -63 -174l79 -87h-143l-21 22q-64 -33 -147 -33q-129 0 -212 74q-82 73 -82 198zM165 261q0 -67 47 -112q48 -45 117 -45q35 0 63 9l-42 46l80 72l45 -50q19 34 19 80q0 69 -47 113q-46 43 -118 43t-118 -43.5
t-46 -112.5z" />
    <glyph glyph-name="uniF772" unicode="&#xf772;" horiz-adv-x="556" 
d="M200 167v-167h-122v525q35 0 79 1q45 1 99 1q229 0 229 -177q0 -116 -94 -153l150 -197h-156l-119 167h-66zM263 412q-25 0 -63 -2v-128h64q41 0 66 17.5t25 49.5q0 27 -23 45t-69 18z" />
    <glyph glyph-name="uniF773" unicode="&#xf773;" horiz-adv-x="500" 
d="M335 151q0 33 -101 62q-37 11 -64.5 22t-58.5 30.5t-47.5 48.5t-15.5 66q0 70 54 111t161 41q50 0 109 -22q59 -21 88 -51l-56 -91q-30 22 -72 35q-45 14 -74 14q-80 0 -80 -43q0 -18 29.5 -31.5t72 -25.5t84.5 -29.5t71.5 -54t29.5 -88.5q0 -69 -59 -113
q-58 -43 -153 -43q-68 0 -131 25q-65 26 -95 66l70 83q26 -25 74 -42q51 -17 91 -17q33 0 53 12.5t20 34.5z" />
    <glyph glyph-name="uniF774" unicode="&#xf774;" horiz-adv-x="503" 
d="M190 410h-181v115h485v-115h-182v-410h-122v410z" />
    <glyph glyph-name="uniF775" unicode="&#xf775;" horiz-adv-x="629" 
d="M437 525h123v-309q0 -113 -68 -170q-68 -56 -170 -56q-117 0 -185 60.5t-68 170.5v304h123v-277q0 -143 130 -143q115 0 115 136v284z" />
    <glyph glyph-name="uniF776" unicode="&#xf776;" horiz-adv-x="550" 
d="M425 525h131l-231 -525h-94l-237 525h139l149 -358z" />
    <glyph glyph-name="uniF777" unicode="&#xf777;" horiz-adv-x="833" 
d="M709 525h122l-165 -525h-117l-128 334l-125 -334h-121l-173 525h138l106 -342l117 342h123l121 -343z" />
    <glyph glyph-name="uniF778" unicode="&#xf778;" horiz-adv-x="563" 
d="M401 525h151l-191 -257l199 -268h-152l-128 174l-125 -174h-152l199 268l-190 257h152l120 -167z" />
    <glyph glyph-name="uniF779" unicode="&#xf779;" horiz-adv-x="540" 
d="M399 525h139l-208 -312v-213h-122v213l-206 312h148l124 -197z" />
    <glyph glyph-name="uniF77A" unicode="&#xf77a;" horiz-adv-x="542" 
d="M321 410h-271v115h450v-86l-288 -324h296v-115h-475v85z" />
    <glyph glyph-name="uniF7A8" unicode="&#xf7a8;" horiz-adv-x="423" 
d="M60 645q0 27 18.5 43.5t46.5 16.5q23 0 40.5 -17.5t17.5 -42.5q0 -27 -17 -44.5t-41 -17.5q-28 0 -46.5 16.5t-18.5 45.5zM239 645q0 26 18.5 43t45.5 17q25 0 42.5 -17t17.5 -43q0 -28 -17.5 -45t-42.5 -17q-28 0 -46 16.5t-18 45.5z" />
    <glyph glyph-name="uniF7AF" unicode="&#xf7af;" horiz-adv-x="399" 
d="M339 597h-279v93h279v-93z" />
    <glyph glyph-name="uniF7B4" unicode="&#xf7b4;" horiz-adv-x="324" 
d="M193 776l71 -88l-149 -118l-55 64z" />
    <glyph glyph-name="uniF7B8" unicode="&#xf7b8;" horiz-adv-x="378" 
d="M60 -166l34 54q34 -26 70 -26q39 0 39 25q0 28 -41 28h-6v85h58v-35q104 -6 104 -85q0 -40 -36.5 -64t-101.5 -24q-63 0 -120 42z" />
    <glyph glyph-name="uniF7E0" unicode="&#xf7e0;" horiz-adv-x="611" 
d="M129 0h-123l245 526h109l245 -526h-131l-49 108h-247zM374 222l-72 161l-73 -161h145zM387 634l-56 -64l-148 118l70 88z" />
    <glyph glyph-name="uniF7E1" unicode="&#xf7e1;" horiz-adv-x="611" 
d="M129 0h-123l245 526h109l245 -526h-131l-49 108h-247zM374 222l-72 161l-73 -161h145zM361 776l71 -88l-149 -118l-55 64z" />
    <glyph glyph-name="uniF7E2" unicode="&#xf7e2;" horiz-adv-x="611" 
d="M129 0h-123l245 526h109l245 -526h-131l-49 108h-247zM374 222l-72 161l-73 -161h145zM304 749h4l157 -122l-54 -68l-106 80l-107 -78l-52 67z" />
    <glyph glyph-name="uniF7E3" unicode="&#xf7e3;" horiz-adv-x="611" 
d="M129 0h-123l245 526h109l245 -526h-131l-49 108h-247zM374 222l-72 161l-73 -161h145zM181 586l-47 52q54 68 121 68q25 0 59 -21q37 -20 56 -20q15 0 26 4q16 7 43 27l39 -58q-60 -66 -117 -66q-22 0 -58 21t-59 21q-20 0 -63 -28z" />
    <glyph glyph-name="uniF7E4" unicode="&#xf7e4;" horiz-adv-x="611" 
d="M129 0h-123l245 526h109l245 -526h-131l-49 108h-247zM374 222l-72 161l-73 -161h145zM154 645q0 27 18.5 43.5t46.5 16.5q23 0 40.5 -17.5t17.5 -42.5q0 -27 -17 -44.5t-41 -17.5q-28 0 -46.5 16.5t-18.5 45.5zM333 645q0 26 18.5 43t45.5 17q25 0 42.5 -17t17.5 -43
q0 -28 -17.5 -45t-42.5 -17q-28 0 -46 16.5t-18 45.5z" />
    <glyph glyph-name="uniF7E5" unicode="&#xf7e5;" horiz-adv-x="611" 
d="M129 0h-123l245 526h109l245 -526h-131l-49 108h-247zM374 222l-72 161l-73 -161h145zM304 782q54 0 91 -35q37 -34 37 -85t-37 -85q-35 -34 -91 -34q-55 0 -90 34q-36 35 -36 85t36 85q37 35 90 35zM306 606q32 -2 45.5 27.5t0 59t-45.5 26.5q-24 0 -39 -16t-15 -40
t15 -40.5t39 -16.5z" />
    <glyph glyph-name="uniF7E6" unicode="&#xf7e6;" horiz-adv-x="795" 
d="M743 0h-353v107h-194l-84 -107h-142l171 212l251 313h342v-115h-222v-88h197v-115h-197v-92h231v-115zM390 222v131l-102 -131h102z" />
    <glyph glyph-name="uniF7E7" unicode="&#xf7e7;" horiz-adv-x="549" 
d="M185 -166l34 54q34 -26 70 -26q39 0 39 25q0 28 -41 28h-6v77q-113 13 -180 86q-66 72 -66 183q0 116 76 193q77 78 220 78q113 0 180 -54l-55 -92q-63 31 -124 31q-76 0 -121.5 -41.5t-45.5 -114.5q0 -70 49.5 -113.5t130.5 -43.5q73 0 131 38l47 -92q-27 -26 -78 -43
t-106 -18v-24q104 -6 104 -85q0 -40 -36.5 -64t-101.5 -24q-63 0 -120 42z" />
    <glyph glyph-name="uniF7E8" unicode="&#xf7e8;" horiz-adv-x="498" 
d="M446 0h-368v525h359v-115h-237v-88h213v-115h-213v-92h246v-115zM345 634l-56 -64l-148 118l70 88z" />
    <glyph glyph-name="uniF7E9" unicode="&#xf7e9;" horiz-adv-x="498" 
d="M446 0h-368v525h359v-115h-237v-88h213v-115h-213v-92h246v-115zM307 776l71 -88l-149 -118l-55 64z" />
    <glyph glyph-name="uniF7EA" unicode="&#xf7ea;" horiz-adv-x="498" 
d="M256 749h4l157 -122l-54 -68l-106 80l-107 -78l-52 67zM446 0h-368v525h359v-115h-237v-88h213v-115h-213v-92h246v-115z" />
    <glyph glyph-name="uniF7EB" unicode="&#xf7eb;" horiz-adv-x="498" 
d="M110 645q0 27 18.5 43.5t46.5 16.5q23 0 40.5 -17.5t17.5 -42.5q0 -27 -17 -44.5t-41 -17.5q-28 0 -46.5 16.5t-18.5 45.5zM289 645q0 26 18.5 43t45.5 17q25 0 42.5 -17t17.5 -43q0 -28 -17.5 -45t-42.5 -17q-28 0 -46 16.5t-18 45.5zM446 0h-368v525h359v-115h-237v-88
h213v-115h-213v-92h246v-115z" />
    <glyph glyph-name="uniF7EC" unicode="&#xf7ec;" horiz-adv-x="297" 
d="M210 0h-123v525h123v-525zM230 634l-56 -64l-148 118l70 88z" />
    <glyph glyph-name="uniF7ED" unicode="&#xf7ed;" horiz-adv-x="297" 
d="M217 776l71 -88l-149 -118l-55 64zM210 0h-123v525h123v-525z" />
    <glyph glyph-name="uniF7EE" unicode="&#xf7ee;" horiz-adv-x="297" 
d="M148 749h4l157 -122l-54 -68l-106 80l-107 -78l-52 67zM210 0h-123v525h123v-525z" />
    <glyph glyph-name="uniF7EF" unicode="&#xf7ef;" horiz-adv-x="297" 
d="M-2 645q0 27 18.5 43.5t46.5 16.5q23 0 40.5 -17.5t17.5 -42.5q0 -27 -17 -44.5t-41 -17.5q-28 0 -46.5 16.5t-18.5 45.5zM177 645q0 26 18.5 43t45.5 17q25 0 42.5 -17t17.5 -43q0 -28 -17.5 -45t-42.5 -17q-28 0 -46 16.5t-18 45.5zM210 0h-123v525h123v-525z" />
    <glyph glyph-name="uniF7F0" unicode="&#xf7f0;" horiz-adv-x="625" 
d="M80 212h-71v107h71v206h12q36 0 83 1t102 1q154 0 234 -74q79 -73 79 -187t-84 -191q-83 -77 -228 -77q-50 0 -93 1t-91 1h-14v212zM280 412q-54 0 -78 -4v-89h142v-107h-142v-97q58 -2 66 -2q91 0 141.5 40t50.5 113q0 70 -47.5 108t-132.5 38z" />
    <glyph glyph-name="uniF7F1" unicode="&#xf7f1;" horiz-adv-x="663" 
d="M585 525v-525h-98l-294 326v-326h-115v525h98l294 -327v327h115zM199 586l-47 52q54 68 121 68q25 0 59 -21q37 -20 56 -20q15 0 26 4q16 7 43 27l39 -58q-60 -66 -117 -66q-22 0 -58 21t-59 21q-20 0 -63 -28z" />
    <glyph glyph-name="uniF7F2" unicode="&#xf7f2;" horiz-adv-x="659" 
d="M35 261q0 117 82 193q83 78 212 78t212 -74t83 -197q0 -119 -84 -196q-82 -76 -211 -76t-212 74q-82 73 -82 198zM165 261q0 -67 47 -112q48 -45 117 -45q77 0 121 43.5t44 113.5q0 69 -47 113q-46 43 -118 43t-118 -43.5t-46 -112.5zM400 634l-56 -64l-148 118l70 88z
" />
    <glyph glyph-name="uniF7F3" unicode="&#xf7f3;" horiz-adv-x="659" 
d="M35 261q0 117 82 193q83 78 212 78t212 -74t83 -197q0 -119 -84 -196q-82 -76 -211 -76t-212 74q-82 73 -82 198zM165 261q0 -67 47 -112q48 -45 117 -45q77 0 121 43.5t44 113.5q0 69 -47 113q-46 43 -118 43t-118 -43.5t-46 -112.5zM392 776l71 -88l-149 -118l-55 64z
" />
    <glyph glyph-name="uniF7F4" unicode="&#xf7f4;" horiz-adv-x="659" 
d="M328 749h4l157 -122l-54 -68l-106 80l-107 -78l-52 67zM35 261q0 117 82 193q83 78 212 78t212 -74t83 -197q0 -119 -84 -196q-82 -76 -211 -76t-212 74q-82 73 -82 198zM165 261q0 -67 47 -112q48 -45 117 -45q77 0 121 43.5t44 113.5q0 69 -47 113q-46 43 -118 43
t-118 -43.5t-46 -112.5z" />
    <glyph glyph-name="uniF7F5" unicode="&#xf7f5;" horiz-adv-x="659" 
d="M35 261q0 117 82 193q83 78 212 78t212 -74t83 -197q0 -119 -84 -196q-82 -76 -211 -76t-212 74q-82 73 -82 198zM165 261q0 -67 47 -112q48 -45 117 -45q77 0 121 43.5t44 113.5q0 69 -47 113q-46 43 -118 43t-118 -43.5t-46 -112.5zM205 586l-47 52q54 68 121 68
q25 0 59 -21q37 -20 56 -20q15 0 26 4q16 7 43 27l39 -58q-60 -66 -117 -66q-22 0 -58 21t-59 21q-20 0 -63 -28z" />
    <glyph glyph-name="uniF7F6" unicode="&#xf7f6;" horiz-adv-x="659" 
d="M35 261q0 117 82 193q83 78 212 78t212 -74t83 -197q0 -119 -84 -196q-82 -76 -211 -76t-212 74q-82 73 -82 198zM165 261q0 -67 47 -112q48 -45 117 -45q77 0 121 43.5t44 113.5q0 69 -47 113q-46 43 -118 43t-118 -43.5t-46 -112.5zM178 645q0 27 18.5 43.5t46.5 16.5
q23 0 40.5 -17.5t17.5 -42.5q0 -27 -17 -44.5t-41 -17.5q-28 0 -46.5 16.5t-18.5 45.5zM357 645q0 26 18.5 43t45.5 17q25 0 42.5 -17t17.5 -43q0 -28 -17.5 -45t-42.5 -17q-28 0 -46 16.5t-18 45.5z" />
    <glyph glyph-name="uniF7F8" unicode="&#xf7f8;" horiz-adv-x="659" 
d="M35 261q0 117 82 193q83 78 212 78q96 0 172 -44l50 49l66 -68l-45 -44q52 -68 52 -164q0 -119 -84 -196q-82 -76 -211 -76q-92 0 -164 39l-48 -47l-66 68l41 40q-57 71 -57 172zM165 261q0 -46 21 -80l224 218q-36 18 -81 18q-72 0 -118 -43.5t-46 -112.5zM494 261
q0 40 -17 72l-219 -215q34 -14 71 -14q77 0 121 43.5t44 113.5z" />
    <glyph glyph-name="uniF7F9" unicode="&#xf7f9;" horiz-adv-x="629" 
d="M437 525h123v-309q0 -113 -68 -170q-68 -56 -170 -56q-117 0 -185 60.5t-68 170.5v304h123v-277q0 -143 130 -143q115 0 115 136v284zM380 634l-56 -64l-148 118l70 88z" />
    <glyph glyph-name="uniF7FA" unicode="&#xf7fa;" horiz-adv-x="629" 
d="M437 525h123v-309q0 -113 -68 -170q-68 -56 -170 -56q-117 0 -185 60.5t-68 170.5v304h123v-277q0 -143 130 -143q115 0 115 136v284zM377 776l71 -88l-149 -118l-55 64z" />
    </font>
</defs>
</svg>
