<?xml version="1.0" standalone="no"?>
<!DOCTYPE svg PUBLIC "-//W3C//DTD SVG 1.1//EN" "http://www.w3.org/Graphics/SVG/1.1/DTD/svg11.dtd" >
<svg xmlns="http://www.w3.org/2000/svg" xmlns:xlink="http://www.w3.org/1999/xlink" version="1.1">
<metadata>
Created by FontForge 20170910 at Tue Feb  4 22:12:52 2014
 By Jimmy Wärting
Copyright (c) 2011 ParaType Inc., ParaType Ltd. All rights reserved.
</metadata>
<defs>
<font id="Circe-ExtraBold" horiz-adv-x="600" >
  <font-face 
    font-family="Circe ExtraBold"
    font-weight="800"
    font-stretch="normal"
    units-per-em="1000"
    panose-1="2 11 8 2 2 2 3 2 2 3"
    ascent="800"
    descent="-200"
    x-height="450"
    cap-height="700"
    bbox="-533 -454 1671 1020"
    underline-thickness="50"
    underline-position="-200"
    unicode-range="U+0020-FB02"
  />
<missing-glyph horiz-adv-x="200" 
 />
    <glyph glyph-name="uniF350.var.accented" unicode="&#xf350;`" horiz-adv-x="632" 
d="M161 0h-161l244 525h144l244 -525h-171l-33 75h-234zM362 225l-50 115l-51 -115h101zM361 786l92 -115l-162 -110l-71 83z" />
    <glyph glyph-name="uniF355.var.accented" unicode="&#xf355;`" horiz-adv-x="508" 
d="M460 0h-388v525h379v-150h-219v-37h194v-150h-194v-38h228v-150zM296 786l92 -115l-162 -110l-71 83z" />
    <glyph glyph-name="uniF358.var.accented" unicode="&#xf358;`" horiz-adv-x="671" 
d="M439 270l-227 -270h-140v525h160v-270l227 270h140v-525h-160v270zM376 786l92 -115l-162 -110l-71 83z" />
    <glyph glyph-name="uniF35E.var.accented" unicode="&#xf35e;`" horiz-adv-x="664" 
d="M31 261q0 117 83 194q82 78 218 78q134 0 217 -73q84 -73 84 -199q0 -121 -85 -197t-216 -76q-135 0 -218 73q-83 74 -83 200zM201 261q0 -52 38 -88q38 -35 93 -35q65 0 98 33t33 90q0 56 -36.5 89t-94.5 33q-60 0 -95.5 -32.5t-35.5 -89.5zM386 786l92 -115l-162 -110
l-71 83z" />
    <glyph glyph-name="uniF363.var.accented" unicode="&#xf363;`" horiz-adv-x="587" 
d="M419 525h164l-197 -393q-64 -132 -188 -132q-48 0 -86 26l56 136q21 -12 39 -12q19 0 28 12l8 12l-236 351h201l117 -193zM371 786l92 -115l-162 -110l-71 83z" />
    <glyph glyph-name="uniF36B.var.accented" unicode="&#xf36b;`" horiz-adv-x="766" 
d="M694 0h-160v525h160v-525zM260 235q-20 0 -28 -1v-84q16 -2 28 -2q60 0 60 45q0 42 -60 42zM72 525h160v-142q22 2 43 2q104 0 159.5 -49.5t55.5 -138.5t-66.5 -144t-182.5 -55q-56 0 -96 1q-39 1 -73 1v525zM418 786l92 -115l-162 -110l-71 83z" />
    <glyph glyph-name="uniF36D.var.accented" unicode="&#xf36d;`" horiz-adv-x="567" 
d="M362 193h-212v150h201q-36 42 -122 42q-98 0 -154 -35l-61 120q88 65 222 65q128 0 214 -77t86 -197q0 -129 -86 -200t-237 -71q-65 0 -120 16t-81 39l68 135q55 -40 154 -40t128 53zM286 786l92 -115l-162 -110l-71 83z" />
    <glyph glyph-name="uniF36E.var.accented" unicode="&#xf36e;`" horiz-adv-x="884" 
d="M232 0h-160v525h160v-182h56q24 89 94.5 140.5t177.5 51.5q139 0 216 -71.5t77 -200.5q0 -123 -78 -198t-215 -75q-108 0 -181.5 54t-93.5 149h-53v-193zM448 263q0 -55 32 -89t85 -34q59 0 88.5 33t29.5 90q0 58 -31 90t-87 32q-54 0 -85.5 -32.5t-31.5 -89.5zM417 786
l92 -115l-162 -110l-71 83z" />
    <glyph glyph-name="uniF36F.var.accented" unicode="&#xf36f;`" horiz-adv-x="584" 
d="M512 0h-160v140h-71l-88 -140h-189l123 179q-75 51 -75 144q0 86 62 146q63 60 192 60q19 0 119 -2q21 0 42 -0.5t31.5 -1t13.5 -0.5v-525zM268 290h84v85q-9 4 -61 4q-69 0 -69 -45q0 -35 46 -44zM356 786l92 -115l-162 -110l-71 83z" />
    <glyph glyph-name="uniF371.var.accented" unicode="&#xf371;`" horiz-adv-x="508" 
d="M74 637q0 33 23 54t59 21q30 0 52 -21t22 -54q0 -35 -22 -57t-52 -22q-36 0 -59 21.5t-23 57.5zM295 637q0 33 23 54t57 21q32 0 54 -21t22 -54q0 -35 -22 -57t-54 -22q-34 0 -57 21.5t-23 57.5zM460 0h-388v525h379v-150h-219v-37h194v-150h-194v-38h228v-150zM326 896
l92 -115l-162 -110l-71 83z" />
    <glyph glyph-name="afii10017.var.accented" unicode="&#x410;`" horiz-adv-x="725" 
d="M161 0h-161l291 700h143l291 -700h-171l-58 147h-277zM436 297l-78 198l-79 -198h157zM491 935l56 -129l-249 -78l-41 89z" />
    <glyph glyph-name="afii10022.var.accented" unicode="&#x415;`" horiz-adv-x="575" 
d="M515 0h-425v700h415v-150h-255v-123h225v-150h-225v-127h265v-150zM461 935l56 -129l-249 -78l-41 89z" />
    <glyph glyph-name="afii10026.var.accented" unicode="&#x418;`" horiz-adv-x="790" 
d="M540 435l-310 -435h-140v700h160v-435l310 435h140v-700h-160v435zM551 935l56 -129l-249 -78l-41 89z" />
    <glyph glyph-name="afii10032.var.accented" unicode="&#x41e;`" horiz-adv-x="824" 
d="M40 350q0 155 103 258q104 104 269 104q164 0 267 -99q105 -99 105 -263q0 -158 -106 -260q-105 -102 -266 -102q-163 0 -268 99q-104 99 -104 263zM210 350q0 -89 59 -151q58 -61 143 -61q96 0 149 59q53 61 53 153q0 95 -58 153q-59 59 -144 59q-88 0 -145 -59
t-57 -153zM561 935l56 -129l-249 -78l-41 89z" />
    <glyph glyph-name="afii10037.var.accented" unicode="&#x423;`" horiz-adv-x="701" 
d="M530 700h161l-235 -534q-37 -85 -86.5 -125.5t-118.5 -40.5q-29 0 -60 9.5t-46 21.5l56 136q26 -17 49 -17q39 0 52 28l9 21l-301 501h181l197 -342zM511 935l56 -129l-249 -78l-41 89z" />
    <glyph glyph-name="afii10045.var.accented" unicode="&#x42b;`" horiz-adv-x="885" 
d="M795 0h-160v700h160v-700zM298 335q-11 0 -48 -5v-178q32 -4 47 -4q100 0 100 97q0 44 -26 67t-73 23zM90 700h160v-219q29 4 62 4q124 0 189.5 -62t65.5 -174q0 -114 -76 -183q-77 -68 -213 -68q-62 0 -106 1q-43 1 -82 1v700zM571 935l56 -129l-249 -78l-41 89z" />
    <glyph glyph-name="afii10047.var.accented" unicode="&#x42d;`" horiz-adv-x="670" 
d="M462 282h-281v150h275q-23 63 -80 96.5t-138 33.5q-84 0 -152 -51l-61 120q93 81 252 81q154 0 253 -100q100 -100 100 -262q0 -167 -101 -265q-100 -97 -273 -97q-71 0 -136.5 21t-99.5 52l68 135q70 -58 165 -58q78 0 134.5 37t74.5 107zM421 935l56 -129l-249 -78
l-41 89z" />
    <glyph glyph-name="afii10048.var.accented" unicode="&#x42e;`" horiz-adv-x="1084" 
d="M250 0h-160v700h160v-268h88q26 126 117 202q91 78 227 78q162 0 262 -99q100 -97 100 -263q0 -158 -101 -261q-101 -101 -261 -101q-132 0 -229 79t-118 215h-85v-282zM500 350q0 -90 55 -151t132 -61q93 0 140 57t47 155q0 96 -51 154t-136 58q-81 0 -134 -59t-53 -153
zM711 935l56 -129l-249 -78l-41 89z" />
    <glyph glyph-name="afii10049.var.accented" unicode="&#x42f;`" horiz-adv-x="643" 
d="M553 0h-160v225h-71l-133 -225h-179l164 260q-108 64 -108 191q0 109 74 181q73 72 227 72q7 0 19 -0.5t34.5 -1t40.5 -0.5q19 0 41 -0.5t33.5 -1t17.5 -0.5v-700zM309 375h84v175q-17 4 -58 4q-42 0 -70.5 -25.5t-28.5 -66.5q0 -35 20 -57.5t53 -29.5zM501 935l56 -129
l-249 -78l-41 89z" />
    <glyph glyph-name="afii10023.var.accented" unicode="&#x401;`" horiz-adv-x="575" 
d="M70 836q0 36 20.5 57.5t53.5 21.5q29 0 49.5 -22t20.5 -57q0 -38 -20.5 -61.5t-49.5 -23.5q-33 0 -53.5 23t-20.5 62zM395 836q0 35 21.5 57t53.5 22q29 0 49 -22t20 -57q0 -39 -19.5 -62t-49.5 -23q-33 0 -54 23t-21 62zM268 935l130 -34l-125 -161l-53 23zM515 0h-425
v700h415v-150h-255v-123h225v-150h-225v-127h265v-150z" />
    <glyph glyph-name="afii10065.var.accented" unicode="&#x430;`" horiz-adv-x="465" 
d="M103 309l-37 109q72 44 167 44q98 0 142.5 -47t44.5 -144v-271h-130v41q-33 -47 -118 -47q-64 0 -103 38t-39 104q0 71 44.5 110t117.5 39q57 0 88 -25q5 77 -62 77q-46 0 -115 -28zM223 119q40 0 57 23v28q-21 15 -57 15q-19 0 -31 -9t-12 -25q0 -15 12 -23.5t31 -8.5z
M267 738l117 -89l-131 -146l-89 63z" />
    <glyph glyph-name="afii10070.var.accented" unicode="&#x435;`" horiz-adv-x="512" 
d="M408 145l41 -106q-68 -51 -175 -51q-110 0 -178 65q-66 65 -66 172q0 102 67 169q68 68 177 68q89 0 154 -60q64 -58 64 -152q0 -45 -9 -75h-298q20 -62 105 -62q66 0 118 32zM269 337q-66 0 -89 -62h162q0 26 -20 44t-53 18zM291 738l117 -89l-131 -146l-89 63z" />
    <glyph glyph-name="afii10074.var.accented" unicode="&#x438;`" horiz-adv-x="570" 
d="M365 235l-160 -235h-150v450h150v-235l160 235h150v-450h-150v235zM302 738l117 -89l-131 -146l-89 63z" />
    <glyph glyph-name="afii10080.var.accented" unicode="&#x43e;`" horiz-adv-x="560" 
d="M98 55q-68 68 -68 170t68 170q68 67 182 67t181 -67q69 -67 69 -170t-69 -170q-67 -67 -181 -67t-182 67zM190 225q0 -42 25.5 -69.5t64.5 -27.5q40 0 65 26.5t25 70.5q0 42 -25.5 69.5t-64.5 27.5t-64.5 -26.5t-25.5 -70.5zM307 738l117 -89l-131 -146l-89 63z" />
    <glyph glyph-name="afii10085.var.accented" unicode="&#x443;`" horiz-adv-x="516" 
d="M345 450h171l-175 -450q-48 -118 -86 -159t-91 -41q-57 0 -107 42l48 113q23 -16 43 -16q28 0 43 37l10 24l-201 450h181l77 -206q8 -22 17 -62q5 45 11 63zM277 738l117 -89l-131 -146l-89 63z" />
    <glyph glyph-name="afii10093.var.accented" unicode="&#x44b;`" horiz-adv-x="705" 
d="M241 0h-186v450h150v-105h47q108 0 157 -47q48 -46 48 -115q0 -75 -53 -130q-53 -53 -163 -53zM650 0h-150v450h150v-450zM239 225h-34v-95h33q59 0 59 47q0 48 -58 48zM347 738l117 -89l-131 -146l-89 63z" />
    <glyph glyph-name="afii10095.var.accented" unicode="&#x44d;`" horiz-adv-x="496" 
d="M309 177h-180v100h177q-22 55 -94 55q-56 0 -120 -40l-61 104q31 31 80.5 48.5t97.5 17.5q120 0 188.5 -64t68.5 -173q0 -103 -66 -170q-64 -67 -182 -67q-124 0 -193 72l70 98q44 -40 114 -40q82 0 100 59zM238 738l117 -89l-131 -146l-89 63z" />
    <glyph glyph-name="afii10096.var.accented" unicode="&#x44e;`" horiz-adv-x="785" 
d="M215 0h-160v450h160v-145h61q22 73 82.5 115t146.5 42q113 0 181 -67q69 -67 69 -170t-70 -170q-68 -67 -180 -67q-89 0 -150 45t-82 122h-58v-155zM435 225q0 -41 20.5 -64t54.5 -23t54.5 23t20.5 64t-19.5 64t-55.5 23q-34 0 -54.5 -23t-20.5 -64zM422 738l117 -89
l-131 -146l-89 63z" />
    <glyph glyph-name="afii10097.var.accented" unicode="&#x44f;`" horiz-adv-x="503" 
d="M293 450h155v-450h-150v115h-36l-71 -115h-171l107 148q-75 40 -75 133q0 78 61 123.5t180 45.5zM212 269q0 -18 17 -31t42 -13h27v95h-29q-24 0 -40.5 -15.5t-16.5 -35.5zM294 738l117 -89l-131 -146l-89 63z" />
    <glyph glyph-name="afii10071.var.accented" unicode="&#x451;`" horiz-adv-x="512" 
d="M47 574q0 30 18.5 48t48.5 18q26 0 44 -18.5t18 -47.5q0 -32 -18 -51t-44 -19q-30 0 -48.5 19t-18.5 51zM361 574q0 29 19.5 47.5t47.5 18.5q26 0 44 -18.5t18 -47.5q0 -32 -17.5 -51t-44.5 -19q-29 0 -48 19t-19 51zM291 724l97 -75l-131 -146l-69 49zM408 145l41 -106
q-68 -51 -175 -51q-110 0 -178 65q-66 65 -66 172q0 102 67 169q68 68 177 68q89 0 154 -60q64 -58 64 -152q0 -45 -9 -75h-298q20 -62 105 -62q66 0 118 32zM269 337q-66 0 -89 -62h162q0 26 -20 44t-53 18z" />
    <glyph glyph-name="fi" unicode="fi" horiz-adv-x="547" 
d="M492 0h-150v310h-137v-310h-150v500q0 105 56.5 158.5t157.5 53.5q155 0 220 -113l-109 -84q-10 25 -33 41t-51 16q-48 0 -69.5 -18.5t-21.5 -63.5v-40h287v-450z" />
    <glyph glyph-name="fl" unicode="fl" horiz-adv-x="579" 
d="M325 129v421q-31 22 -61 22q-59 0 -59 -58v-64h60v-140h-60v-310h-150v523q0 91 43 140t121 49q76 0 119 -28h137v-498q0 -58 25 -58q14 0 39 16l30 -114q-51 -42 -132 -42q-112 0 -112 141z" />
    <glyph glyph-name=".notdef" horiz-adv-x="200" 
 />
    <glyph glyph-name=".null" horiz-adv-x="0" 
 />
    <glyph glyph-name="nonmarkingreturn" horiz-adv-x="333" 
 />
    <glyph glyph-name="space" unicode=" " horiz-adv-x="200" 
 />
    <glyph glyph-name="exclam" unicode="!" horiz-adv-x="310" 
d="M235 270h-160v430h160v-430zM57 96q0 37 29 65.5t73 28.5q39 0 66.5 -28.5t27.5 -65.5q0 -42 -26.5 -72t-67.5 -30q-45 0 -73.5 29.5t-28.5 72.5z" />
    <glyph glyph-name="quotedbl" unicode="&#x22;" horiz-adv-x="450" 
d="M400 440h-150v260h150v-260zM200 440h-150v260h150v-260z" />
    <glyph glyph-name="numbersign" unicode="#" horiz-adv-x="744" 
d="M424 -12l-115 41l50 136h-120l-66 -177l-116 40l51 137h-68v130h116l41 110h-157v130h205l66 177l116 -42l-50 -135h118l66 177l116 -40l-51 -137h78v-130h-126l-41 -110h167v-130h-215zM447 405h-119l-41 -110h120z" />
    <glyph glyph-name="dollar" unicode="$" 
d="M367 192q0 44 -103 93q-30 13 -52.5 24.5t-50 32t-45 42.5t-30 55t-11.5 71q0 64 42 116.5t113 73.5v90h150v-85q88 -17 137 -70l-86 -120q-29 27 -50.5 37t-55.5 10q-80 0 -80 -52q0 -27 21.5 -48t54 -34.5t70.5 -33.5t70.5 -42.5t54 -63t21.5 -94.5q0 -74 -42.5 -126.5
t-114.5 -70.5v-97h-150v97q-124 27 -160 106l91 109q27 -35 68 -54.5t82 -19.5q56 0 56 54z" />
    <glyph glyph-name="percent" unicode="%" horiz-adv-x="945" 
d="M89 389q-59 53 -59 137q0 85 59 135q59 51 152 51t152 -51q59 -50 59 -135q0 -84 -59 -137q-59 -51 -152 -51t-152 51zM170 526q0 -32 20 -50t51 -18q33 0 52 18t19 50q0 30 -19.5 48t-51.5 18t-51.5 -18t-19.5 -48zM552 39q-59 53 -59 137q0 85 59 135q58 51 152 51
t152 -51q59 -50 59 -135q0 -84 -59 -137q-58 -51 -152 -51t-152 51zM633 176q0 -32 20 -50t51 -18q33 0 52 18t19 50q0 30 -19.5 48t-51.5 18t-51.5 -18t-19.5 -48zM266 -12l-86 59l497 665l84 -63z" />
    <glyph glyph-name="ampersand" unicode="&#x26;" horiz-adv-x="762" 
d="M722 0h-186l-45 55q-73 -67 -196 -67q-110 0 -178 56q-67 57 -67 146q0 54 20 99q20 42 48 68q26 24 77 60q-69 48 -69 136q0 73 52 116t126 43t126 -43q53 -44 53 -116q0 -42 -22 -80.5t-55 -56.5l101 -135q37 80 37 169h149q0 -168 -96 -289zM300 138q70 0 101 37
l-108 156q-43 -37 -58 -60t-15 -50q0 -33 23.5 -58t56.5 -25zM266 553q0 -24 23.5 -34.5t42.5 7.5q17 17 7 41.5t-35 24.5q-17 0 -27.5 -11t-10.5 -28z" />
    <glyph glyph-name="quotesingle" unicode="'" horiz-adv-x="250" 
d="M200 440h-150v260h150v-260z" />
    <glyph glyph-name="parenleft" unicode="(" horiz-adv-x="337" 
d="M337 -124l-95 -82q-202 174 -202 431q0 248 203 431l93 -82q-75 -77 -110.5 -160t-35.5 -189q0 -105 42 -196t105 -153z" />
    <glyph glyph-name="parenright" unicode=")" horiz-adv-x="337" 
d="M95 -206l-95 82q63 62 105 153t42 196q0 106 -35.5 189t-110.5 160l93 82q203 -183 203 -431q0 -257 -202 -431z" />
    <glyph glyph-name="asterisk" unicode="*" horiz-adv-x="516" 
d="M207 587q-21 21 -21 51t21 51q21 22 51 22t51 -22q22 -21 22 -51t-22 -51q-21 -21 -51 -21t-51 21zM205 254q-21 21 -21 51t21 51q21 22 51 22t51 -22q22 -21 22 -51t-22 -51q-21 -21 -51 -21t-51 21zM352 506q-21 21 -21 51t21 51q21 22 51 22t51 -22q22 -21 22 -51
t-22 -51q-21 -21 -51 -21t-51 21zM352 340q-21 21 -21 51t21 51q21 22 51 22t51 -22q22 -21 22 -51t-22 -51q-21 -21 -51 -21t-51 21zM61 340q-21 21 -21 51t21 51q21 22 51 22t51 -22q22 -21 22 -51t-22 -51q-21 -21 -51 -21t-51 21zM61 506q-21 21 -21 51t21 51
q21 22 51 22t51 -22q22 -21 22 -51t-22 -51q-21 -21 -51 -21t-51 21z" />
    <glyph glyph-name="plus" unicode="+" 
d="M229 295h-166v130h166v171h140v-171h168v-130h-168v-173h-140v173z" />
    <glyph glyph-name="comma" unicode="," horiz-adv-x="281" 
d="M40 81q0 43 25.5 68t71.5 25q47 0 75.5 -35t28.5 -91q0 -71 -37 -121t-106 -71l-41 69q40 16 58 39q23 27 20 43q-7 -7 -31 -7q-25 0 -44.5 24t-19.5 57z" />
    <glyph glyph-name="hyphen" unicode="-" horiz-adv-x="364" 
d="M314 205h-264v140h264v-140z" />
    <glyph glyph-name="period" unicode="." horiz-adv-x="276" 
d="M40 96q0 37 29 65.5t73 28.5q39 0 66.5 -28.5t27.5 -65.5q0 -42 -26.5 -72t-67.5 -30q-45 0 -73.5 29.5t-28.5 72.5z" />
    <glyph glyph-name="slash" unicode="/" horiz-adv-x="382" 
d="M86 -208l-116 43l327 877l115 -43z" />
    <glyph glyph-name="zero" unicode="0" horiz-adv-x="544" 
d="M30 350q0 169 61 263q62 95 181 95q118 0 180 -95t62 -263q0 -170 -61 -264t-179 -94q-119 0 -181.5 94.5t-62.5 263.5zM190 350q0 -218 84 -218q43 0 61.5 49t18.5 169t-18.5 169t-63.5 49q-43 0 -62.5 -50.5t-19.5 -167.5z" />
    <glyph glyph-name="one" unicode="1" horiz-adv-x="398" 
d="M88 438l-78 124l190 138h108v-700h-150v487z" />
    <glyph glyph-name="two" unicode="2" horiz-adv-x="522" 
d="M482 0h-452v120q1 1 49 47l55 55q18 20 48 50q34 36 48 57l33 51q35 53 35 109q0 69 -64 69q-29 0 -46 -18.5t-31 -56.5l-125 57q18 79 74.5 123.5t145.5 44.5q97 0 151 -55q55 -55 55 -134q0 -199 -234 -379h258v-140z" />
    <glyph glyph-name="three" unicode="3" horiz-adv-x="529" 
d="M241 -12q-80 0 -140 31.5t-91 84.5l83 111q68 -77 138 -77q42 0 65 19t23 49q0 77 -119 77h-44v150h40q43 0 69.5 18.5t26.5 51.5q0 26 -16 42.5t-48 16.5q-70 0 -121 -63l-82 108q64 105 217 105q93 0 151 -49q59 -48 59 -130q0 -117 -104 -164v-3q62 -12 96.5 -56.5
t34.5 -109.5q0 -96 -68 -155q-67 -57 -170 -57z" />
    <glyph glyph-name="four" unicode="4" horiz-adv-x="580" 
d="M478 0h-150v150h-318v112l250 438h172l-229 -400h125v150h150v-150h82v-150h-82v-150z" />
    <glyph glyph-name="five" unicode="5" horiz-adv-x="512" 
d="M63 308l48 392h346v-150h-214l-14 -89h24q94 0 156 -62q63 -61 63 -166q0 -114 -72 -180q-73 -65 -183 -65q-59 0 -118 25q-59 26 -89 69l84 115q21 -25 57.5 -42t69.5 -17q40 0 65.5 24.5t25.5 63.5q0 45 -34.5 72.5t-94.5 27.5q-83 0 -120 -18z" />
    <glyph glyph-name="six" unicode="6" horiz-adv-x="564" 
d="M40 248q0 90 32 172.5t85 141.5q110 118 231 150l61 -113q-80 -27 -140.5 -79.5t-90.5 -121.5q41 38 123 38q78 0 135 -60q58 -59 58 -153q0 -110 -71 -173q-71 -62 -165 -62q-115 0 -187 75q-71 76 -71 185zM200 247q0 -51 26 -80t73 -29q35 0 55 21t20 53
q0 38 -22.5 61t-62.5 23q-55 0 -89 -49z" />
    <glyph glyph-name="seven" unicode="7" horiz-adv-x="510" 
d="M301 550h-281v150h460v-102l-237 -598h-164z" />
    <glyph glyph-name="eight" unicode="8" horiz-adv-x="605" 
d="M297 435h13q32 0 50 18.5t18 46.5q0 62 -77 62q-36 0 -55 -17t-19 -45t18.5 -46.5t51.5 -18.5zM310 285h-12q-37 0 -62.5 -20t-25.5 -54t23 -53.5t69 -19.5q47 0 70.5 18t22.5 55q-1 35 -23.5 54.5t-61.5 19.5zM303 -12q-112 0 -182 52q-71 53 -71 141q0 64 29 110t78 67
v3q-41 22 -65.5 65t-24.5 101q0 81 67 133t168 52t168 -52q68 -53 68 -133q0 -52 -27 -97t-73 -68v-3q51 -13 84 -57.5t33 -107.5q0 -97 -70 -152q-71 -54 -182 -54z" />
    <glyph glyph-name="nine" unicode="9" horiz-adv-x="559" 
d="M519 442q0 -196 -104 -317t-264 -137l-49 119q189 41 239 185q-41 -38 -109 -38q-86 0 -150 62q-62 62 -62 156q0 111 73 175q74 65 168 65q116 0 187 -74t71 -196zM359 443q0 52 -27 85.5t-72 33.5q-35 0 -57.5 -23.5t-22.5 -55.5q0 -38 25 -63.5t65 -25.5q55 0 89 49z
" />
    <glyph glyph-name="colon" unicode=":" horiz-adv-x="316" 
d="M60 368q0 37 29 65.5t73 28.5q39 0 66.5 -28.5t27.5 -65.5q0 -42 -26.5 -72t-67.5 -30q-45 0 -73.5 29.5t-28.5 72.5zM60 96q0 37 29 65.5t73 28.5q39 0 66.5 -28.5t27.5 -65.5q0 -42 -26.5 -72t-67.5 -30q-45 0 -73.5 29.5t-28.5 72.5z" />
    <glyph glyph-name="semicolon" unicode=";" horiz-adv-x="323" 
d="M62 81q0 43 25.5 68t71.5 25q47 0 75.5 -35t28.5 -91q0 -71 -37 -121t-106 -71l-41 69q40 16 58 39q23 27 20 43q-7 -7 -31 -7q-25 0 -44.5 24t-19.5 57zM60 368q0 37 29 65.5t73 28.5q39 0 66.5 -28.5t27.5 -65.5q0 -42 -26.5 -72t-67.5 -30q-45 0 -73.5 29.5
t-28.5 72.5z" />
    <glyph glyph-name="less" unicode="&#x3c;" 
d="M530 216v-162l-490 276v64l490 274v-162l-284 -144z" />
    <glyph glyph-name="equal" unicode="=" 
d="M537 395h-474v130h474v-130zM537 195h-474v130h474v-130z" />
    <glyph glyph-name="greater" unicode="&#x3e;" 
d="M560 394v-64l-490 -276v162l284 146l-284 144v162z" />
    <glyph glyph-name="question" unicode="?" horiz-adv-x="481" 
d="M300 500q0 24 -19.5 43t-46.5 19q-36 0 -59 -12t-47 -42l-88 101q28 47 81.5 75t120.5 28q101 0 159 -52q60 -51 60 -127q0 -102 -65 -162q-10 -9 -37.5 -32.5t-39.5 -35t-22.5 -31.5t-7.5 -40h-136q-11 87 42 134q9 8 33.5 28t36.5 31.5t23.5 32t11.5 42.5zM127 96
q0 37 29 65.5t73 28.5q39 0 66.5 -28.5t27.5 -65.5q0 -42 -26.5 -72t-67.5 -30q-45 0 -73.5 29.5t-28.5 72.5z" />
    <glyph glyph-name="at" unicode="@" horiz-adv-x="986" 
d="M719 0h-150v23q-46 -35 -107 -35q-101 0 -161 65q-59 65 -59 172q0 101 73 168q73 69 190 69q58 0 116.5 -15.5t97.5 -40.5v-266h19q24 0 41 36.5t17 99.5q0 105 -79 178q-79 74 -214 74q-131 0 -223 -80q-90 -80 -90 -223q0 -132 92 -218q91 -85 221 -85q57 0 108 12
l5 -139q-56 -13 -113 -13q-195 0 -325 125q-128 125 -128 318q0 188 130 315q131 128 323 128q187 0 310 -108t123 -284q0 -109 -58 -188q-59 -81 -159 -88zM489 128q45 0 80 33v145q-33 16 -65 16q-51 0 -76.5 -28.5t-25.5 -75.5q0 -42 24 -66t63 -24z" />
    <glyph glyph-name="A" unicode="A" horiz-adv-x="725" 
d="M161 0h-161l291 700h143l291 -700h-171l-58 147h-277zM436 297l-78 198l-79 -198h157z" />
    <glyph glyph-name="B" unicode="B" horiz-adv-x="617" 
d="M90 2v696q117 6 212 6q116 0 175.5 -46.5t59.5 -127.5q0 -103 -80 -156v-2q45 -17 72.5 -58t27.5 -102q0 -105 -74 -161q-73 -55 -192 -55q-139 0 -201 6zM312 283h-62v-131q22 -6 54 -6q93 0 93 74q0 63 -85 63zM300 554q-18 0 -50 -4v-127h53q74 0 74 68q0 29 -22 46
t-55 17z" />
    <glyph glyph-name="C" unicode="C" horiz-adv-x="655" 
d="M574 189l61 -120q-32 -36 -95 -59q-62 -22 -133 -22q-163 0 -265 99q-102 101 -102 263q0 158 96 260t270 102q66 0 123 -20t91 -53l-71 -120q-70 43 -143 43q-85 0 -141 -56q-55 -55 -55 -156q0 -92 59 -153q59 -59 153 -59q84 0 152 51z" />
    <glyph glyph-name="D" unicode="D" horiz-adv-x="744" 
d="M107 0h-17v700h14q45 0 100 1q21 0 46.5 0.5t39.5 1t21 0.5q197 0 295 -98t98 -249q0 -155 -105 -257q-104 -101 -296 -101q-39 0 -87 1t-109 1zM309 553q-39 0 -59 -3v-400q28 -2 58 -2q106 0 166 55t60 153q0 93 -61 145t-164 52z" />
    <glyph glyph-name="E" unicode="E" horiz-adv-x="575" 
d="M515 0h-425v700h415v-150h-255v-123h225v-150h-225v-127h265v-150z" />
    <glyph glyph-name="F" unicode="F" horiz-adv-x="535" 
d="M250 0h-160v700h405v-150h-245v-148h215v-150h-215v-252z" />
    <glyph glyph-name="G" unicode="G" horiz-adv-x="727" 
d="M527 249h-149v150h299v-312q-45 -45 -120 -72q-73 -27 -142 -27q-176 0 -276 98q-99 98 -99 264q0 155 97 258q98 104 258 104q138 0 229 -73l-67 -129q-21 22 -61.5 37t-81.5 15q-93 0 -148.5 -55t-55.5 -157q0 -97 56.5 -154.5t150.5 -57.5q28 0 63 11q33 11 47 24v76z
" />
    <glyph glyph-name="H" unicode="H" horiz-adv-x="755" 
d="M665 0h-160v282h-255v-282h-160v700h160v-268h255v268h160v-700z" />
    <glyph glyph-name="I" unicode="I" horiz-adv-x="360" 
d="M260 0h-160v700h160v-700z" />
    <glyph glyph-name="J" unicode="J" horiz-adv-x="407" 
d="M157 700h160v-529q0 -89 -48 -136t-137 -47q-41 0 -78.5 14.5t-53.5 34.5l52 122q29 -21 58 -21q47 0 47 62v500z" />
    <glyph glyph-name="K" unicode="K" horiz-adv-x="692" 
d="M250 0h-160v700h160v-305l229 305h192l-263 -323l284 -377h-203l-239 333v-333z" />
    <glyph glyph-name="L" unicode="L" horiz-adv-x="545" 
d="M535 0h-445v700h160v-550h285v-150z" />
    <glyph glyph-name="M" unicode="M" horiz-adv-x="912" 
d="M250 0h-160v700h161l216 -295l204 295h151v-700h-160v446l-195 -273h-23l-194 270v-443z" />
    <glyph glyph-name="N" unicode="N" horiz-adv-x="790" 
d="M700 700v-700h-128l-332 420v-420h-150v700h128l332 -422v422h150z" />
    <glyph glyph-name="O" unicode="O" horiz-adv-x="824" 
d="M40 350q0 155 103 258q104 104 269 104q164 0 267 -99q105 -99 105 -263q0 -158 -106 -260q-105 -102 -266 -102q-163 0 -268 99q-104 99 -104 263zM210 350q0 -89 59 -151q58 -61 143 -61q96 0 149 59q53 61 53 153q0 95 -58 153q-59 59 -144 59q-88 0 -145 -59
t-57 -153z" />
    <glyph glyph-name="P" unicode="P" horiz-adv-x="627" 
d="M250 238v-238h-160v700q46 0 101 1q56 1 113 1q148 0 216 -66q67 -64 67 -166q0 -98 -71 -167q-71 -68 -188 -68q-52 0 -78 3zM320 552q-1 0 -9 -0.5t-25 -1t-36 -0.5v-160q42 -5 73 -5q41 0 67.5 21.5t26.5 64.5q0 81 -97 81z" />
    <glyph glyph-name="Q" unicode="Q" horiz-adv-x="824" 
d="M40 350q0 155 103 258q104 104 269 104q164 0 267 -99q105 -99 105 -263q0 -142 -87 -240l95 -110h-185l-22 25q-78 -37 -173 -37q-163 0 -268 99q-104 99 -104 263zM210 350q0 -89 59 -151q58 -61 143 -61q36 0 68 9l-55 64l105 94l58 -68q26 50 26 113q0 95 -58 153
q-59 59 -144 59q-88 0 -145 -59t-57 -153z" />
    <glyph glyph-name="R" unicode="R" horiz-adv-x="673" 
d="M250 245v-245h-160v700q57 0 126 1t112 1q259 0 259 -224q0 -144 -118 -202l204 -276h-194l-170 245h-59zM320 552q-1 0 -9 -0.5t-25 -1t-36 -0.5v-155h58q109 0 109 81q0 76 -97 76z" />
    <glyph glyph-name="S" unicode="S" horiz-adv-x="557" 
d="M347 192q0 44 -103 93q-30 13 -52.5 24.5t-50 32t-45 42.5t-30 55t-11.5 71q0 84 62 143t164 59q134 0 206 -77l-86 -120q-29 27 -50.5 37t-55.5 10q-33 0 -51.5 -14t-18.5 -38q0 -27 21.5 -48t54 -34.5t70.5 -33.5t70.5 -42.5t54 -63t21.5 -94.5q0 -90 -69 -148
q-67 -58 -171 -58q-76 0 -144 31q-69 31 -93 84l91 109q27 -35 68 -54.5t82 -19.5q31 0 48.5 14.5t17.5 39.5z" />
    <glyph glyph-name="T" unicode="T" 
d="M220 550h-210v150h580v-150h-210v-550h-160v550z" />
    <glyph glyph-name="U" unicode="U" horiz-adv-x="751" 
d="M511 700h160v-411q0 -151 -82 -226q-81 -75 -204 -75q-140 0 -222 79q-83 80 -83 229v404h160v-370q0 -192 145 -192q67 0 96.5 45t29.5 138v379z" />
    <glyph glyph-name="V" unicode="V" horiz-adv-x="656" 
d="M505 700h161l-273 -700h-123l-280 700h171l176 -462z" />
    <glyph glyph-name="W" unicode="W" horiz-adv-x="1000" 
d="M846 700h154l-197 -700h-153l-146 450l-144 -450h-153l-207 700h181l118 -442l131 442h161l135 -442z" />
    <glyph glyph-name="X" unicode="X" horiz-adv-x="674" 
d="M477 700h188l-224 -343l233 -357h-188l-150 235l-148 -235h-188l233 357l-222 343h188l142 -225z" />
    <glyph glyph-name="Y" unicode="Y" horiz-adv-x="654" 
d="M481 700h173l-248 -415v-285h-160v285l-246 415h183l150 -265z" />
    <glyph glyph-name="Z" unicode="Z" horiz-adv-x="650" 
d="M386 550h-326v150h540v-112l-347 -438h357v-150h-570v112z" />
    <glyph glyph-name="bracketleft" unicode="[" horiz-adv-x="380" 
d="M360 -200h-300v850h300v-140h-150v-570h150v-140z" />
    <glyph glyph-name="backslash" unicode="\" horiz-adv-x="382" 
d="M-30 669l115 43l327 -877l-116 -43z" />
    <glyph glyph-name="bracketright" unicode="]" horiz-adv-x="380" 
d="M20 650h300v-850h-300v140h150v570h-150v140z" />
    <glyph glyph-name="asciicircum" unicode="^" horiz-adv-x="522" 
d="M182 450h-162l190 258h104l188 -258h-162l-79 110z" />
    <glyph glyph-name="underscore" unicode="_" horiz-adv-x="375" 
d="M375 -200h-375v150h375v-150z" />
    <glyph glyph-name="grave" unicode="`" horiz-adv-x="342" 
d="M282 566l-89 -63l-133 144l119 89z" />
    <glyph glyph-name="a" unicode="a" horiz-adv-x="465" 
d="M103 309l-37 109q72 44 167 44q98 0 142.5 -47t44.5 -144v-271h-130v41q-33 -47 -118 -47q-64 0 -103 38t-39 104q0 71 44.5 110t117.5 39q57 0 88 -25q5 77 -62 77q-46 0 -115 -28zM223 119q40 0 57 23v28q-21 15 -57 15q-19 0 -31 -9t-12 -25q0 -15 12 -23.5t31 -8.5z
" />
    <glyph glyph-name="b" unicode="b" horiz-adv-x="547" 
d="M55 36v664h150v-262q47 24 99 24q98 0 155 -64q58 -64 58 -166q0 -112 -70.5 -178t-192.5 -66q-51 0 -109 14q-57 15 -90 34zM268 322q-34 0 -63 -29v-152q23 -13 56 -13q43 0 69.5 25.5t26.5 69.5q0 47 -25.5 73t-63.5 26z" />
    <glyph glyph-name="c" unicode="c" horiz-adv-x="485" 
d="M391 178l70 -110q-59 -80 -184 -80q-112 0 -180 65q-67 64 -67 172q0 101 66 168q68 69 172 69q123 0 184 -64l-69 -118q-42 42 -96 42q-40 0 -68.5 -27t-28.5 -70t30 -70q32 -27 69 -27q55 0 102 50z" />
    <glyph glyph-name="d" unicode="d" horiz-adv-x="557" 
d="M502 0h-150v37q-46 -45 -114 -45q-95 0 -152 62q-56 62 -56 165q0 107 69 175q70 68 179 68q43 0 74 -14v252h150v-700zM269 132q47 0 83 33v138q-32 19 -67 19q-41 0 -68 -26t-27 -72q0 -41 23.5 -66.5t55.5 -25.5z" />
    <glyph glyph-name="e" unicode="e" horiz-adv-x="512" 
d="M408 145l41 -106q-68 -51 -175 -51q-110 0 -178 65q-66 65 -66 172q0 102 67 169q68 68 177 68q89 0 154 -60q64 -58 64 -152q0 -45 -9 -75h-298q20 -62 105 -62q66 0 118 32zM269 337q-66 0 -89 -62h162q0 26 -20 44t-53 18z" />
    <glyph glyph-name="f" unicode="f" horiz-adv-x="320" 
d="M205 0h-150v523q0 91 43 140t121 49q40 0 76.5 -12t54.5 -32l-50 -114q-16 18 -54 18q-18 0 -29.5 -15.5t-11.5 -42.5v-64h95v-140h-95v-310z" />
    <glyph glyph-name="g" unicode="g" horiz-adv-x="504" 
d="M0 -58q0 55 39 91t110 51q-6 12 -6 25q0 16 7 26q-52 21 -81.5 62.5t-29.5 91.5q0 71 54 122q56 51 145 51q66 0 115 -30l141 28l5 -120l-67 -13q5 -25 5 -38q0 -67 -51 -116q-50 -49 -132 -53q-1 -3 -1 -11t3 -17q98 -3 160 -41t62 -109q0 -75 -67 -112
q-68 -38 -172 -38q-106 0 -173 37q-66 37 -66 113zM140 -58q0 -30 99 -30t99 30q0 31 -99 31t-99 -31zM238 240q27 0 43 13t16 36q0 24 -15.5 38.5t-43.5 14.5q-36 1 -51.5 -26t-0.5 -53t52 -23z" />
    <glyph glyph-name="h" unicode="h" horiz-adv-x="544" 
d="M205 0h-150v700h150v-281q43 39 111 39q87 0 135 -48.5t48 -145.5v-264h-150v245q0 33 -20 53t-52 20q-43 0 -72 -29v-289z" />
    <glyph glyph-name="i" unicode="i" horiz-adv-x="286" 
d="M218 0h-150v450h150v-450zM55 605q0 38 26 61.5t65 23.5q35 0 60 -24t25 -61q0 -41 -25 -66t-60 -25q-40 0 -65.5 24.5t-25.5 66.5z" />
    <glyph glyph-name="j" unicode="j" horiz-adv-x="281" 
d="M76 450h150v-483q0 -175 -141 -175q-38 0 -71.5 9.5t-48.5 24.5l39 119q22 -13 44 -13q28 0 28 49v469zM64 605q0 38 26 61.5t65 23.5q35 0 60 -24t25 -61q0 -41 -25 -66t-60 -25q-40 0 -65.5 24.5t-25.5 66.5z" />
    <glyph glyph-name="k" unicode="k" horiz-adv-x="537" 
d="M205 0h-150v700h150v-445l123 195h188l-146 -203l167 -247h-192l-140 215v-215z" />
    <glyph glyph-name="l" unicode="l" horiz-adv-x="309" 
d="M55 129v571h150v-514q0 -58 25 -58q14 0 39 16l30 -114q-51 -42 -132 -42q-112 0 -112 141z" />
    <glyph glyph-name="m" unicode="m" horiz-adv-x="798" 
d="M753 294v-294h-150v254q0 64 -56 64q-49 0 -68 -39v-279h-150v255q0 63 -53 63q-46 0 -71 -36v-282h-150v450h150v-42q50 50 133 50q48 0 81.5 -18t46.5 -48q54 66 145 66q142 0 142 -164z" />
    <glyph glyph-name="n" unicode="n" horiz-adv-x="544" 
d="M205 0h-150v450h150v-35q44 43 111 43q183 0 183 -190v-268h-150v242q0 37 -19.5 56.5t-54.5 19.5q-39 0 -70 -31v-287z" />
    <glyph glyph-name="o" unicode="o" horiz-adv-x="560" 
d="M98 55q-68 68 -68 170t68 170q68 67 182 67t181 -67q69 -67 69 -170t-69 -170q-67 -67 -181 -67t-182 67zM190 225q0 -42 25.5 -69.5t64.5 -27.5q40 0 65 26.5t25 70.5q0 42 -25.5 69.5t-64.5 27.5t-64.5 -26.5t-25.5 -70.5z" />
    <glyph glyph-name="p" unicode="p" horiz-adv-x="561" 
d="M205 -200h-150v650h150v-34q46 46 125 46q89 0 145 -65t56 -165q0 -105 -67 -175q-68 -69 -175 -69q-50 0 -84 14v-202zM283 322q-42 0 -78 -40v-137q29 -17 70 -17q46 0 71 27.5t25 73.5q0 42 -23.5 67.5t-64.5 25.5z" />
    <glyph glyph-name="q" unicode="q" horiz-adv-x="562" 
d="M507 -200h-150v209q-47 -21 -90 -21q-108 0 -173 65q-64 64 -64 172q0 101 73 168q73 69 190 69q58 0 116.5 -15.5t97.5 -40.5v-606zM357 154v152q-33 16 -65 16q-51 0 -76.5 -28.5t-25.5 -75.5q0 -37 27 -64q28 -26 70 -26t70 26z" />
    <glyph glyph-name="r" unicode="r" horiz-adv-x="368" 
d="M205 0h-150v450h150v-36q30 44 93 44q47 0 70 -17l-53 -140q-29 17 -55 17q-37 0 -55 -32v-286z" />
    <glyph glyph-name="s" unicode="s" horiz-adv-x="459" 
d="M279 133q0 18 -84 38q-30 7 -53.5 16t-48.5 25t-38.5 42.5t-13.5 60.5q0 68 49 107.5t127 39.5q119 0 189 -61l-56 -106q-62 42 -124 42q-15 0 -25 -6t-10 -14q0 -12 24.5 -20t59.5 -16.5t70 -22t59.5 -43.5t24.5 -75q0 -69 -52.5 -110.5t-141.5 -41.5q-66 0 -127 27
q-61 29 -78 56l71 98q21 -21 66 -39q46 -17 78 -17q34 0 34 20z" />
    <glyph glyph-name="t" unicode="t" horiz-adv-x="366" 
d="M45 171v404h150v-125h125v-140h-125v-132q0 -50 29 -50q32 0 67 26l45 -115q-58 -51 -151 -51q-73 0 -106.5 45.5t-33.5 137.5z" />
    <glyph glyph-name="u" unicode="u" horiz-adv-x="530" 
d="M325 450h150v-450h-150v45q-45 -57 -129 -57q-62 0 -107 46q-44 47 -44 133v283h150v-251q0 -32 14.5 -51.5t43.5 -19.5q39 0 72 41v281z" />
    <glyph glyph-name="v" unicode="v" horiz-adv-x="486" 
d="M338 450h158l-189 -450h-113l-204 450h178l58 -142q19 -48 30 -104q11 62 29 105z" />
    <glyph glyph-name="w" unicode="w" horiz-adv-x="736" 
d="M585 450h151l-139 -450h-137l-80 208q-5 14 -13 51q-5 -34 -14 -53l-80 -206h-129l-144 450h161l55 -206q2 -6 10 -57q6 40 13 57l68 206h134l70 -205q6 -18 14 -59q5 38 11 61z" />
    <glyph glyph-name="x" unicode="x" horiz-adv-x="537" 
d="M344 450h173l-140 -214l150 -236h-183l-78 142l-83 -142h-173l149 228l-139 222h183l69 -128z" />
    <glyph glyph-name="y" unicode="y" horiz-adv-x="516" 
d="M345 450h171l-175 -450q-48 -118 -86 -159t-91 -41q-57 0 -107 42l48 113q23 -16 43 -16q28 0 43 37l10 24l-201 450h181l77 -206q8 -22 17 -62q5 45 11 63z" />
    <glyph glyph-name="z" unicode="z" horiz-adv-x="495" 
d="M246 310h-191v140h400v-110l-207 -200h202v-140h-410v110z" />
    <glyph glyph-name="braceleft" unicode="{" horiz-adv-x="390" 
d="M110 -43v105q0 51 -25.5 75t-64.5 23v130q39 0 64.5 27t25.5 83v85q0 87 40.5 126t136.5 39h83v-140h-45q-39 0 -52 -15.5t-13 -62.5v-92q0 -48 -20.5 -78.5t-54.5 -35.5q75 -9 75 -114v-92q0 -44 15.5 -62t55.5 -18h39v-140h-95q-83 0 -124 37.5t-41 119.5z" />
    <glyph glyph-name="bar" unicode="|" horiz-adv-x="350" 
d="M250 0h-150v700h150v-700z" />
    <glyph glyph-name="braceright" unicode="}" horiz-adv-x="390" 
d="M280 62v-105q0 -82 -41 -119.5t-124 -37.5h-95v140h39q40 0 55.5 18t15.5 62v92q0 105 75 114q-34 5 -54.5 35.5t-20.5 78.5v92q0 47 -13 62.5t-52 15.5h-45v140h83q96 0 136.5 -39t40.5 -126v-85q0 -56 25.5 -83t64.5 -27v-130q-39 1 -64.5 -23t-25.5 -75z" />
    <glyph glyph-name="asciitilde" unicode="~" 
d="M97 269l-64 96q34 41 76 65.5t81 24.5q42 0 118 -33q78 -33 116 -33q21 0 45 13t40 32l58 -103q-77 -72 -144 -72q-42 0 -117 33q-73 33 -106 33q-47 0 -103 -56z" />
    <glyph glyph-name="uni00A0" unicode="&#xa0;" horiz-adv-x="200" 
 />
    <glyph glyph-name="exclamdown" unicode="&#xa1;" horiz-adv-x="310" 
d="M75 186h160v-430h-160v430zM253 360q0 -37 -29 -65.5t-73 -28.5q-39 0 -66.5 28.5t-27.5 65.5q0 42 26.5 72t67.5 30q45 0 73.5 -29.5t28.5 -72.5z" />
    <glyph glyph-name="cent" unicode="&#xa2;" 
d="M446 178l70 -110q-42 -58 -121 -73v-115h-150v120q-75 23 -117.5 82t-42.5 143q0 79 43.5 140.5t116.5 84.5v113h150v-108q72 -14 112 -57l-69 -118q-42 42 -96 42q-40 0 -68.5 -27t-28.5 -70t30 -70q31 -27 69 -27q55 0 102 50z" />
    <glyph glyph-name="sterling" unicode="&#xa3;" 
d="M166 255h-105v120h80l-10 17l-19 37q-6 12 -15 40q-6 24 -6 46q0 87 66 139q68 54 170 54q125 0 201 -82l-82 -118q-58 50 -112 50q-33 0 -53 -14.5t-20 -40.5q0 -27 25 -70q27 -45 32 -58h137v-120h-138q-17 -39 -50 -72q30 -9 74 -25q48 -12 73 -12q62 0 106 43
l65 -117q-70 -76 -173 -76q-37 0 -115 26q-76 26 -113 26q-49 0 -101 -55l-59 120q47 57 104 75q30 39 38 67z" />
    <glyph glyph-name="currency" unicode="&#xa4;" 
d="M66 340q0 61 29 114l-71 72l92 92l73 -74q49 23 111 23q58 0 110 -23l74 73l92 -92l-71 -71q29 -53 29 -114t-28 -113l70 -69l-92 -92l-72 71q-51 -24 -112 -24q-62 0 -112 24l-72 -72l-92 92l70 70q-28 49 -28 113zM206 340q0 -43 26 -70t68 -27q45 0 69.5 26.5
t24.5 70.5q0 46 -25 71.5t-69 25.5q-43 0 -68.5 -26t-25.5 -71z" />
    <glyph glyph-name="yen" unicode="&#xa5;" 
d="M219 285h-156v120h93l-153 295h183l120 -265l118 265h173l-155 -295h95v-120h-158v-60h158v-120h-158v-105h-160v105h-156v120h156v60z" />
    <glyph glyph-name="brokenbar" unicode="&#xa6;" horiz-adv-x="350" 
d="M250 700v-260h-150v260h150zM100 0v260h150v-260h-150z" />
    <glyph glyph-name="section" unicode="&#xa7;" horiz-adv-x="524" 
d="M50 249q0 59 28.5 104t81.5 66q-60 45 -60 136q0 63 48.5 104t132.5 41q94 0 151 -75l-89 -100q-32 35 -56 35q-14 0 -25.5 -11t-11.5 -25q0 -51 57 -90q80 -12 123.5 -62t43.5 -123q0 -59 -29 -104t-82 -66q59 -47 59 -134q0 -63 -48.5 -104t-132.5 -41q-94 0 -151 75
l89 100q32 -35 56 -35q14 0 25.5 11t11.5 25q0 52 -58 88q-78 12 -121 62t-43 123zM200 249q0 -24 15.5 -41t46.5 -17q62 0 62 58q0 24 -15.5 41.5t-46.5 17.5q-30 0 -46 -17.5t-16 -41.5z" />
    <glyph glyph-name="dieresis" unicode="&#xa8;" horiz-adv-x="471" 
d="M60 589q0 36 23 58.5t59 22.5q31 0 53.5 -22.5t22.5 -58.5q0 -39 -22 -62.5t-54 -23.5q-36 0 -59 23.5t-23 62.5zM253 589q0 36 23.5 58.5t58.5 22.5q32 0 54 -22.5t22 -58.5q0 -39 -22 -62.5t-54 -23.5q-36 0 -59 23.5t-23 62.5z" />
    <glyph glyph-name="copyright" unicode="&#xa9;" horiz-adv-x="1018" 
d="M197 -91q-127 127 -127 312t127 312t312 127t312 -127t127 -312t-127 -312t-312 -127t-312 127zM200 220q0 -129 88 -218q88 -90 222 -90q130 0 219 90q89 91 89 218q0 131 -88 220q-88 90 -220 90q-134 0 -222 -90q-88 -89 -88 -220zM630 178l70 -110q-59 -80 -184 -80
q-112 0 -180 65q-67 64 -67 172q0 101 66 168q67 69 172 69q123 0 184 -64l-69 -118q-42 42 -96 42q-40 0 -68.5 -27t-28.5 -70t30 -70q31 -27 69 -27q55 0 102 50z" />
    <glyph glyph-name="ordfeminine" unicode="&#xaa;" horiz-adv-x="465" 
d="M128 532l-51 88q71 38 163 38q66 0 115 -37q50 -36 50 -106v-225h-130v38q-39 -44 -124 -44q-50 0 -80.5 32.5t-30.5 82.5q0 60 34 91.5t98 31.5q56 0 101 -17q-9 43 -59 43q-57 0 -86 -16zM220 394q25 0 55 14v15q-32 9 -56 9q-39 0 -39 -19t40 -19z" />
    <glyph glyph-name="guillemotleft" unicode="&#xab;" horiz-adv-x="592" 
d="M562 98l-102 -85l-200 235v4l205 235l97 -87l-129 -150zM332 98l-102 -85l-200 235v4l205 235l97 -87l-129 -150z" />
    <glyph glyph-name="logicalnot" unicode="&#xac;" 
d="M427 295h-384v130h514v-261h-130v131z" />
    <glyph glyph-name="uni00AD" unicode="&#xad;" horiz-adv-x="364" 
d="M314 205h-264v140h264v-140z" />
    <glyph glyph-name="registered" unicode="&#xae;" horiz-adv-x="708" 
d="M40 498q0 128 92 220t224 92q128 0 220 -92t92 -220q0 -131 -92 -225q-92 -92 -220 -92q-133 0 -225 92q-91 91 -91 225zM217 633q-57 -57 -57 -137t57 -137t137 -57t137 57t57 137t-57 137t-137 57t-137 -57zM331 436v-76h-100v280h136q58 0 89 -26t31 -72
q0 -28 -13.5 -50.5t-32.5 -32.5l43 -99h-114l-23 76h-16zM352 570h-21v-64h19q37 0 37 34q0 30 -35 30z" />
    <glyph glyph-name="overscore" unicode="&#xaf;" horiz-adv-x="414" 
d="M354 520h-294v120h294v-120z" />
    <glyph glyph-name="degree" unicode="&#xb0;" horiz-adv-x="440" 
d="M40 568q0 78 52 130t126 52q77 0 129 -49q53 -50 53 -126q0 -75 -54 -131q-52 -54 -128 -54q-74 0 -126 51t-52 127zM185 605q-15 -15 -15 -35t15 -35t35 -15t35 15t15 35t-15 35t-35 15t-35 -15z" />
    <glyph glyph-name="plusminus" unicode="&#xb1;" 
d="M229 395h-166v130h166v171h140v-171h168v-130h-168v-83h-140v83zM537 145h-474v130h474v-130z" />
    <glyph glyph-name="twosuperior" unicode="&#xb2;" horiz-adv-x="376" 
d="M351 350h-326v94q116 65 148 91q24 21 24 36q0 23 -26 23q-14 0 -24.5 -13t-13.5 -30l-107 39q9 54 50.5 84t109.5 30q72 0 111 -30t39 -84q0 -58 -54 -90q-43 -25 -89 -40h158v-110z" />
    <glyph glyph-name="threesuperior" unicode="&#xb3;" horiz-adv-x="372" 
d="M181 343q-57 0 -103 21t-68 57l74 70q11 -17 31.5 -30t42.5 -13q44 0 44 18q0 15 -45 15h-27v90h25q36 0 36 18q0 13 -29 13q-42 0 -80 -36l-61 71q52 70 168 70q63 0 102.5 -24.5t39.5 -65.5q0 -66 -80 -81v-1q43 -2 67 -24t24 -57q0 -50 -48 -81q-47 -30 -113 -30z" />
    <glyph glyph-name="acute" unicode="&#xb4;" horiz-adv-x="340" 
d="M163 738l117 -89l-131 -146l-89 63z" />
    <glyph glyph-name="mu" unicode="&#xb5;" horiz-adv-x="540" 
d="M335 450h150v-450h-150v45q-45 -57 -129 -57h-1v-188h-150v650h150v-251q0 -32 14.5 -51.5t43.5 -19.5q39 0 72 41v281z" />
    <glyph glyph-name="mu" unicode="&#x3bc;" horiz-adv-x="540" 
d="M335 450h150v-450h-150v45q-45 -57 -129 -57h-1v-188h-150v650h150v-251q0 -32 14.5 -51.5t43.5 -19.5q39 0 72 41v281z" />
    <glyph glyph-name="paragraph" unicode="&#xb6;" horiz-adv-x="521" 
d="M30 481q0 99 65 159q66 60 164 60h242v-140h-94v-532q0 -117 -53.5 -176.5t-155.5 -59.5q-42 0 -83.5 16.5t-63.5 40.5l59 108q32 -25 77 -25q70 0 70 102v229q-91 1 -159 60q-68 60 -68 158z" />
    <glyph glyph-name="middot" unicode="&#xb7;" horiz-adv-x="200" 
d="M2 306q0 37 29 65.5t73 28.5q39 0 66.5 -28.5t27.5 -65.5q0 -42 -26.5 -72t-67.5 -30q-45 0 -73.5 29.5t-28.5 72.5z" />
    <glyph glyph-name="cedilla" unicode="&#xb8;" horiz-adv-x="404" 
d="M60 -161l44 69q28 -28 68 -28q22 0 22 13q0 17 -25 17h-6v90h75v-26q106 -9 106 -90q0 -44 -39 -69t-112 -25q-80 0 -133 49z" />
    <glyph glyph-name="onesuperior" unicode="&#xb9;" horiz-adv-x="285" 
d="M57 530l-47 88l121 80h94v-348h-130v200z" />
    <glyph glyph-name="ordmasculine" unicode="&#xba;" horiz-adv-x="522" 
d="M109 335q-59 53 -59 137q0 85 59 135q58 51 152 51q93 0 152 -51q59 -50 59 -135q0 -84 -59 -137q-59 -51 -152 -51t-152 51zM190 472q0 -32 20 -50t51 -18q33 0 52 18t19 50q0 30 -19.5 48t-51.5 18t-51.5 -18t-19.5 -48z" />
    <glyph glyph-name="guillemotright" unicode="&#xbb;" horiz-adv-x="592" 
d="M562 252v-4l-200 -235l-102 85l129 152l-129 150l97 87zM332 252v-4l-200 -235l-102 85l129 152l-129 150l97 87z" />
    <glyph glyph-name="onequarter" unicode="&#xbc;" horiz-adv-x="713" 
d="M641 0h-120v61h-191v87l141 202h123l-134 -189h61v64h120v-64h52v-100h-52v-61zM126 -12l-86 59l497 665l84 -63zM57 530l-47 88l121 80h94v-348h-130v200z" />
    <glyph glyph-name="onehalf" unicode="&#xbd;" horiz-adv-x="731" 
d="M57 530l-47 88l121 80h94v-348h-130v200zM126 -12l-86 59l497 665l84 -63zM691 0h-326v94q116 65 148 91q23 21 24 36q0 23 -26 23q-14 0 -24.5 -13t-13.5 -30l-107 39q9 54 50.5 84t109.5 30q72 0 111 -30t39 -84q0 -58 -54 -90q-43 -25 -89 -40h158v-110z" />
    <glyph glyph-name="threequarters" unicode="&#xbe;" horiz-adv-x="783" 
d="M191 343q-57 0 -103 21t-68 57l74 70q11 -17 31.5 -30t42.5 -13q44 0 44 18q0 15 -45 15h-27v90h25q36 0 36 18q0 13 -29 13q-42 0 -80 -36l-61 71q52 70 168 70q63 0 102.5 -24.5t39.5 -65.5q0 -66 -80 -81v-1q43 -2 67 -24t24 -57q0 -50 -48 -81q-46 -30 -113 -30z
M711 0h-120v61h-191v87l141 202h123l-134 -189h61v64h120v-64h52v-100h-52v-61zM206 -12l-86 59l497 665l84 -63z" />
    <glyph glyph-name="questiondown" unicode="&#xbf;" horiz-adv-x="481" 
d="M181 -44q0 -24 19.5 -43t46.5 -19q36 0 59 12t47 42l88 -101q-28 -47 -81.5 -75t-120.5 -28q-101 0 -160 52q-59 51 -59 127q0 102 64 161q12 11 39 33.5t39 34.5t22.5 32t7.5 40h136q11 -87 -42 -135q-7 -6 -33.5 -27t-37 -31.5t-22.5 -31.5t-12 -43zM354 360
q0 -37 -29 -65.5t-73 -28.5q-39 0 -66.5 28.5t-27.5 65.5q0 42 26.5 72t67.5 30q45 0 73.5 -29.5t28.5 -72.5z" />
    <glyph glyph-name="Agrave" unicode="&#xc0;" horiz-adv-x="725" 
d="M161 0h-161l291 700h143l291 -700h-171l-58 147h-277zM436 297l-78 198l-79 -198h157zM467 817l-41 -89l-249 78l56 129z" />
    <glyph glyph-name="Aacute" unicode="&#xc1;" horiz-adv-x="725" 
d="M161 0h-161l291 700h143l291 -700h-171l-58 147h-277zM436 297l-78 198l-79 -198h157zM491 935l56 -129l-249 -78l-41 89z" />
    <glyph glyph-name="Acircumflex" unicode="&#xc2;" horiz-adv-x="725" 
d="M161 0h-161l291 700h143l291 -700h-171l-58 147h-277zM436 297l-78 198l-79 -198h157zM231 723l-52 83l178 119h4l184 -117l-58 -85l-128 66z" />
    <glyph glyph-name="Atilde" unicode="&#xc3;" horiz-adv-x="725" 
d="M161 0h-161l291 700h143l291 -700h-171l-58 147h-277zM436 297l-78 198l-79 -198h157zM220 746l-46 94q23 28 57.5 45.5t67.5 17.5q31 0 70 -15t65 -15q50 0 78 30l38 -94q-40 -66 -126 -66q-23 0 -67 15q-42 15 -71 15q-33 0 -66 -27z" />
    <glyph glyph-name="Adieresis" unicode="&#xc4;" horiz-adv-x="725" 
d="M161 0h-161l291 700h143l291 -700h-171l-58 147h-277zM436 297l-78 198l-79 -198h157zM152 837q0 35 27.5 56.5t70.5 21.5q38 0 64.5 -22t26.5 -56q0 -38 -26.5 -61t-64.5 -23q-43 0 -70.5 22.5t-27.5 61.5zM383 837q0 35 28 56.5t70 21.5q38 0 64.5 -22t26.5 -56
q0 -38 -26 -61t-65 -23q-43 0 -70.5 22.5t-27.5 61.5z" />
    <glyph glyph-name="Aring" unicode="&#xc5;" horiz-adv-x="725" 
d="M205 809q0 58 42 88t113 30q74 0 117 -30t43 -88q0 -81 -86 -110l291 -699h-171l-58 147h-277l-58 -147h-161l290 698q-85 28 -85 111zM436 297l-78 198l-79 -198h157zM315 809q0 -41 47 -41q48 0 48 41q0 38 -48 38q-47 0 -47 -38z" />
    <glyph glyph-name="AE" unicode="&#xc6;" horiz-adv-x="946" 
d="M463 700h413v-150h-255v-123h225v-150h-225v-127h265v-150h-425v147h-215l-101 -147h-185zM461 297v160l-111 -160h111z" />
    <glyph glyph-name="Ccedilla" unicode="&#xc7;" horiz-adv-x="655" 
d="M233 -157l48 74q14 -14 35.5 -25.5t38.5 -11.5q22 0 22 13q0 17 -25 17h-6v82q-139 18 -223 114q-83 98 -83 244q0 158 96 260t270 102q66 0 123 -20t91 -53l-71 -120q-70 43 -143 43q-85 0 -141 -56q-55 -55 -55 -156q0 -92 59 -153q59 -59 153 -59q84 0 152 51l61 -120
q-30 -34 -89 -56.5t-125 -24.5v-14q116 -9 116 -90q0 -43 -39 -68.5t-106 -25.5q-100 0 -159 53z" />
    <glyph glyph-name="Egrave" unicode="&#xc8;" horiz-adv-x="575" 
d="M515 0h-425v700h415v-150h-255v-123h225v-150h-225v-127h265v-150zM407 817l-41 -89l-249 78l56 129z" />
    <glyph glyph-name="Eacute" unicode="&#xc9;" horiz-adv-x="575" 
d="M515 0h-425v700h415v-150h-255v-123h225v-150h-225v-127h265v-150zM441 935l56 -129l-249 -78l-41 89z" />
    <glyph glyph-name="Ecircumflex" unicode="&#xca;" horiz-adv-x="575" 
d="M515 0h-425v700h415v-150h-255v-123h225v-150h-225v-127h265v-150zM167 723l-52 83l178 119h4l184 -117l-58 -85l-128 66z" />
    <glyph glyph-name="Edieresis" unicode="&#xcb;" horiz-adv-x="575" 
d="M92 837q0 35 27.5 56.5t70.5 21.5q38 0 64.5 -22t26.5 -56q0 -38 -26.5 -61t-64.5 -23q-43 0 -70.5 22.5t-27.5 61.5zM323 837q0 35 28 56.5t70 21.5q38 0 64.5 -22t26.5 -56q0 -38 -26 -61t-65 -23q-43 0 -70.5 22.5t-27.5 61.5zM515 0h-425v700h415v-150h-255v-123h225
v-150h-225v-127h265v-150z" />
    <glyph glyph-name="Igrave" unicode="&#xcc;" horiz-adv-x="360" 
d="M260 0h-160v700h160v-700zM277 817l-41 -89l-249 78l56 129z" />
    <glyph glyph-name="Iacute" unicode="&#xcd;" horiz-adv-x="360" 
d="M260 0h-160v700h160v-700zM321 935l56 -129l-249 -78l-41 89z" />
    <glyph glyph-name="Icircumflex" unicode="&#xce;" horiz-adv-x="360" 
d="M49 723l-52 83l178 119h4l184 -117l-58 -85l-128 66zM260 0h-160v700h160v-700z" />
    <glyph glyph-name="Idieresis" unicode="&#xcf;" horiz-adv-x="360" 
d="M-30 837q0 35 27.5 56.5t70.5 21.5q38 0 64.5 -22t26.5 -56q0 -38 -26.5 -61t-64.5 -23q-43 0 -70.5 22.5t-27.5 61.5zM201 837q0 35 28 56.5t70 21.5q38 0 64.5 -22t26.5 -56q0 -38 -26 -61t-65 -23q-43 0 -70.5 22.5t-27.5 61.5zM260 0h-160v700h160v-700z" />
    <glyph glyph-name="Eth" unicode="&#xd0;" horiz-adv-x="744" 
d="M90 278h-80v140h80v282h14q45 0 100 1q21 0 46.5 0.5t39.5 1t21 0.5q197 0 295 -98t98 -249q0 -155 -105 -257q-104 -101 -296 -101q-39 0 -87 1t-109 1h-17v278zM309 553q-39 0 -59 -3v-132h164v-140h-164v-128q28 -2 58 -2q106 0 166 55t60 153q0 93 -61 145t-164 52z
" />
    <glyph glyph-name="Ntilde" unicode="&#xd1;" horiz-adv-x="790" 
d="M700 700v-700h-128l-332 420v-420h-150v700h128l332 -422v422h150zM261 746l-46 94q23 28 57.5 45.5t67.5 17.5q31 0 70 -15t65 -15q49 0 78 30l38 -94q-41 -66 -126 -66q-24 0 -67 15q-42 15 -71 15q-33 0 -66 -27z" />
    <glyph glyph-name="Ograve" unicode="&#xd2;" horiz-adv-x="824" 
d="M40 350q0 155 103 258q104 104 269 104q164 0 267 -99q105 -99 105 -263q0 -158 -106 -260q-105 -102 -266 -102q-163 0 -268 99q-104 99 -104 263zM210 350q0 -89 59 -151q58 -61 143 -61q96 0 149 59q53 61 53 153q0 95 -58 153q-59 59 -144 59q-88 0 -145 -59
t-57 -153zM527 817l-41 -89l-249 78l56 129z" />
    <glyph glyph-name="Oacute" unicode="&#xd3;" horiz-adv-x="824" 
d="M40 350q0 155 103 258q104 104 269 104q164 0 267 -99q105 -99 105 -263q0 -158 -106 -260q-105 -102 -266 -102q-163 0 -268 99q-104 99 -104 263zM210 350q0 -89 59 -151q58 -61 143 -61q96 0 149 59q53 61 53 153q0 95 -58 153q-59 59 -144 59q-88 0 -145 -59
t-57 -153zM561 935l56 -129l-249 -78l-41 89z" />
    <glyph glyph-name="Ocircumflex" unicode="&#xd4;" horiz-adv-x="824" 
d="M40 350q0 155 103 258q104 104 269 104q164 0 267 -99q105 -99 105 -263q0 -158 -106 -260q-105 -102 -266 -102q-163 0 -268 99q-104 99 -104 263zM210 350q0 -89 59 -151q58 -61 143 -61q96 0 149 59q53 61 53 153q0 95 -58 153q-59 59 -144 59q-88 0 -145 -59
t-57 -153zM284 723l-52 83l178 119h4l184 -117l-58 -85l-128 66z" />
    <glyph glyph-name="Otilde" unicode="&#xd5;" horiz-adv-x="824" 
d="M40 350q0 155 103 258q104 104 269 104q164 0 267 -99q105 -99 105 -263q0 -158 -106 -260q-105 -102 -266 -102q-163 0 -268 99q-104 99 -104 263zM210 350q0 -89 59 -151q58 -61 143 -61q96 0 149 59q53 61 53 153q0 95 -58 153q-59 59 -144 59q-88 0 -145 -59
t-57 -153zM263 746l-46 94q23 28 57.5 45.5t67.5 17.5q31 0 70 -15t65 -15q49 0 78 30l38 -94q-41 -66 -126 -66q-23 0 -67 15q-42 15 -71 15q-33 0 -66 -27z" />
    <glyph glyph-name="Odieresis" unicode="&#xd6;" horiz-adv-x="824" 
d="M40 350q0 155 103 258q104 104 269 104q164 0 267 -99q105 -99 105 -263q0 -158 -106 -260q-105 -102 -266 -102q-163 0 -268 99q-104 99 -104 263zM210 350q0 -89 59 -151q58 -61 143 -61q96 0 149 59q53 61 53 153q0 95 -58 153q-59 59 -144 59q-88 0 -145 -59
t-57 -153zM197 837q0 35 27.5 56.5t70.5 21.5q38 0 64.5 -22t26.5 -56q0 -38 -26.5 -61t-64.5 -23q-43 0 -70.5 22.5t-27.5 61.5zM428 837q0 35 28 56.5t70 21.5q38 0 64.5 -22t26.5 -56q0 -38 -26 -61t-65 -23q-43 0 -70.5 22.5t-27.5 61.5z" />
    <glyph glyph-name="multiply" unicode="&#xd7;" 
d="M208 360l-121 121l92 92l121 -121l121 121l92 -92l-121 -121l122 -122l-92 -92l-122 122l-122 -122l-92 92z" />
    <glyph glyph-name="Oslash" unicode="&#xd8;" horiz-adv-x="824" 
d="M40 350q0 155 103 258q104 104 269 104q119 0 211 -56l37 36l86 -88l-31 -31q69 -91 69 -223q0 -158 -106 -260q-105 -102 -266 -102q-134 0 -228 66l-40 -39l-86 88l40 39q-58 88 -58 208zM614 350q0 55 -23 103l-288 -282q49 -33 109 -33q96 0 149 59q53 61 53 153z
M210 350q0 -46 15 -83l280 273q-43 22 -93 22q-88 0 -145 -59t-57 -153z" />
    <glyph glyph-name="Ugrave" unicode="&#xd9;" horiz-adv-x="751" 
d="M511 700h160v-411q0 -151 -82 -226q-81 -75 -204 -75q-140 0 -222 79q-83 80 -83 229v404h160v-370q0 -192 145 -192q67 0 96.5 45t29.5 138v379zM477 817l-41 -89l-249 78l56 129z" />
    <glyph glyph-name="Uacute" unicode="&#xda;" horiz-adv-x="751" 
d="M511 700h160v-411q0 -151 -82 -226q-81 -75 -204 -75q-140 0 -222 79q-83 80 -83 229v404h160v-370q0 -192 145 -192q67 0 96.5 45t29.5 138v379zM521 935l56 -129l-249 -78l-41 89z" />
    <glyph glyph-name="Ucircumflex" unicode="&#xdb;" horiz-adv-x="751" 
d="M511 700h160v-411q0 -151 -82 -226q-81 -75 -204 -75q-140 0 -222 79q-83 80 -83 229v404h160v-370q0 -192 145 -192q67 0 96.5 45t29.5 138v379zM243 723l-52 83l178 119h4l184 -117l-58 -85l-128 66z" />
    <glyph glyph-name="Udieresis" unicode="&#xdc;" horiz-adv-x="751" 
d="M157 837q0 35 27.5 56.5t70.5 21.5q38 0 64.5 -22t26.5 -56q0 -38 -26.5 -61t-64.5 -23q-43 0 -70.5 22.5t-27.5 61.5zM388 837q0 35 28 56.5t70 21.5q38 0 64.5 -22t26.5 -56q0 -38 -26 -61t-65 -23q-43 0 -70.5 22.5t-27.5 61.5zM511 700h160v-411q0 -151 -82 -226
q-81 -75 -204 -75q-140 0 -222 79q-83 80 -83 229v404h160v-370q0 -192 145 -192q67 0 96.5 45t29.5 138v379z" />
    <glyph glyph-name="Yacute" unicode="&#xdd;" horiz-adv-x="654" 
d="M481 700h173l-248 -415v-285h-160v285l-246 415h183l150 -265zM471 935l56 -129l-249 -78l-41 89z" />
    <glyph glyph-name="Thorn" unicode="&#xde;" horiz-adv-x="627" 
d="M250 138v-138h-160v700h160v-100q11 0 26 1t28 1q148 0 216 -66q67 -64 67 -166q0 -98 -71 -167q-71 -68 -188 -68q-52 0 -78 3zM306 452q-31 0 -56 -4v-158q42 -5 73 -5q41 0 67.5 21.5t26.5 64.5q0 81 -111 81z" />
    <glyph glyph-name="germandbls" unicode="&#xdf;" horiz-adv-x="556" 
d="M376 167q0 41 -72 83q-27 17 -49 47q-20 28 -22 67t11 65q7 18 14.5 30t18 24.5t14.5 17.5q18 25 7.5 48t-45.5 23q-29 0 -41 -21t-12 -69v-482h-150v493q0 219 225 219q80 0 133 -44q54 -44 54 -105q0 -64 -35 -97q-34 -34 -34 -72q0 -39 50 -75q27 -18 43.5 -33t33 -48
t16.5 -76q0 -71 -46 -123q-45 -51 -118 -51q-96 0 -149 53l46 115q34 -28 66 -28q41 0 41 39z" />
    <glyph glyph-name="agrave" unicode="&#xe0;" horiz-adv-x="465" 
d="M103 309l-37 109q72 44 167 44q98 0 142.5 -47t44.5 -144v-271h-130v41q-33 -47 -118 -47q-64 0 -103 38t-39 104q0 71 44.5 110t117.5 39q57 0 88 -25q5 77 -62 77q-46 0 -115 -28zM223 119q40 0 57 23v28q-21 15 -57 15q-19 0 -31 -9t-12 -25q0 -15 12 -23.5t31 -8.5z
M333 566l-89 -63l-133 144l119 89z" />
    <glyph glyph-name="aacute" unicode="&#xe1;" horiz-adv-x="465" 
d="M103 309l-37 109q72 44 167 44q98 0 142.5 -47t44.5 -144v-271h-130v41q-33 -47 -118 -47q-64 0 -103 38t-39 104q0 71 44.5 110t117.5 39q57 0 88 -25q5 77 -62 77q-46 0 -115 -28zM223 119q40 0 57 23v28q-21 15 -57 15q-19 0 -31 -9t-12 -25q0 -15 12 -23.5t31 -8.5z
M247 738l117 -89l-131 -146l-89 63z" />
    <glyph glyph-name="acircumflex" unicode="&#xe2;" horiz-adv-x="465" 
d="M103 309l-37 109q72 44 167 44q98 0 142.5 -47t44.5 -144v-271h-130v41q-33 -47 -118 -47q-64 0 -103 38t-39 104q0 71 44.5 110t117.5 39q57 0 88 -25q5 77 -62 77q-46 0 -115 -28zM223 119q40 0 57 23v28q-21 15 -57 15q-19 0 -31 -9t-12 -25q0 -15 12 -23.5t31 -8.5z
M230 706h4l165 -136l-70 -88l-98 81l-100 -79l-67 87z" />
    <glyph glyph-name="atilde" unicode="&#xe3;" horiz-adv-x="465" 
d="M103 309l-37 109q72 44 167 44q98 0 142.5 -47t44.5 -144v-271h-130v41q-33 -47 -118 -47q-64 0 -103 38t-39 104q0 71 44.5 110t117.5 39q57 0 88 -25q5 77 -62 77q-46 0 -115 -28zM223 119q40 0 57 23v28q-21 15 -57 15q-19 0 -31 -9t-12 -25q0 -15 12 -23.5t31 -8.5z
M104 519l-60 67q56 78 132 78q23 0 61 -20q37 -19 57 -19t31 5q4 1 10 5l13.5 9t11.5 8l49 -75q-60 -72 -127 -72q-22 0 -59 19q-38 20 -60 20q-16 0 -59 -25z" />
    <glyph glyph-name="adieresis" unicode="&#xe4;" horiz-adv-x="465" 
d="M103 309l-37 109q72 44 167 44q98 0 142.5 -47t44.5 -144v-271h-130v41q-33 -47 -118 -47q-64 0 -103 38t-39 104q0 71 44.5 110t117.5 39q57 0 88 -25q5 77 -62 77q-46 0 -115 -28zM223 119q40 0 57 23v28q-21 15 -57 15q-19 0 -31 -9t-12 -25q0 -15 12 -23.5t31 -8.5z
M67 589q0 36 23 58.5t59 22.5q31 0 53.5 -22.5t22.5 -58.5q0 -39 -22 -62.5t-54 -23.5q-36 0 -59 23.5t-23 62.5zM260 589q0 36 23.5 58.5t58.5 22.5q32 0 54 -22.5t22 -58.5q0 -39 -22 -62.5t-54 -23.5q-36 0 -59 23.5t-23 62.5z" />
    <glyph glyph-name="aring" unicode="&#xe5;" horiz-adv-x="465" 
d="M103 309l-37 109q72 44 167 44q98 0 142.5 -47t44.5 -144v-271h-130v41q-33 -47 -118 -47q-64 0 -103 38t-39 104q0 71 44.5 110t117.5 39q57 0 88 -25q5 77 -62 77q-46 0 -115 -28zM223 119q40 0 57 23v28q-21 15 -57 15q-19 0 -31 -9t-12 -25q0 -15 12 -23.5t31 -8.5z
M107 611q0 53 39 91q40 38 98 38q59 0 99 -38q40 -37 40 -91q0 -53 -40 -90q-38 -37 -99 -37q-60 0 -98 37q-39 37 -39 90zM202 613q0 -21 12 -35t32 -14q19 0 30.5 14t11.5 35q0 20 -11.5 33.5t-30.5 13.5q-20 0 -32 -13t-12 -34z" />
    <glyph glyph-name="ae" unicode="&#xe6;" horiz-adv-x="742" 
d="M233 462q88 0 132 -38q61 38 139 38q90 0 154 -60q64 -58 64 -152q0 -45 -9 -75h-293v-14q10 -21 37 -34.5t63 -13.5q66 0 118 32l41 -106q-77 -51 -171 -51q-101 0 -166 50q-68 -48 -144 -48q-83 0 -125.5 39.5t-42.5 114.5q0 64 44.5 102.5t117.5 38.5q23 0 49.5 -8
t38.5 -17q4 34 -13 56t-43 22q-34 0 -62 -7l-21 -7q-5 -2 -21 -8.5t-17 -6.5l-37 109q31 19 77.5 31.5t89.5 12.5zM419 295q0 -2 0.5 -9.5t0.5 -10.5h152q-3 28 -23 45.5t-55 16.5q-51 0 -75 -42zM223 119q27 0 55 20l2 31q-21 15 -57 15q-20 0 -31.5 -9.5t-11.5 -24.5
q0 -13 11 -22.5t32 -9.5z" />
    <glyph glyph-name="ccedilla" unicode="&#xe7;" horiz-adv-x="485" 
d="M119 -161l44 69q28 -28 68 -28q22 0 22 13q0 17 -25 17h-6v83q-89 15 -140.5 77t-51.5 155q0 101 66 168q68 69 172 69q123 0 184 -64l-69 -118q-42 42 -96 42q-40 0 -68.5 -27t-28.5 -70t30 -70q32 -27 69 -27q55 0 102 50l70 -110q-52 -73 -164 -79v-15q106 -9 106 -90
q0 -44 -39 -69t-112 -25q-80 0 -133 49z" />
    <glyph glyph-name="egrave" unicode="&#xe8;" horiz-adv-x="512" 
d="M408 145l41 -106q-68 -51 -175 -51q-110 0 -178 65q-66 65 -66 172q0 102 67 169q68 68 177 68q89 0 154 -60q64 -58 64 -152q0 -45 -9 -75h-298q20 -62 105 -62q66 0 118 32zM269 337q-66 0 -89 -62h162q0 26 -20 44t-53 18zM378 566l-89 -63l-133 144l119 89z" />
    <glyph glyph-name="eacute" unicode="&#xe9;" horiz-adv-x="512" 
d="M408 145l41 -106q-68 -51 -175 -51q-110 0 -178 65q-66 65 -66 172q0 102 67 169q68 68 177 68q89 0 154 -60q64 -58 64 -152q0 -45 -9 -75h-298q20 -62 105 -62q66 0 118 32zM269 337q-66 0 -89 -62h162q0 26 -20 44t-53 18zM292 738l117 -89l-131 -146l-89 63z" />
    <glyph glyph-name="ecircumflex" unicode="&#xea;" horiz-adv-x="512" 
d="M408 145l41 -106q-68 -51 -175 -51q-110 0 -178 65q-66 65 -66 172q0 102 67 169q68 68 177 68q89 0 154 -60q64 -58 64 -152q0 -45 -9 -75h-298q20 -62 105 -62q66 0 118 32zM269 337q-66 0 -89 -62h162q0 26 -20 44t-53 18zM265 706h4l165 -136l-70 -88l-98 81
l-100 -79l-67 87z" />
    <glyph glyph-name="edieresis" unicode="&#xeb;" horiz-adv-x="512" 
d="M408 145l41 -106q-68 -51 -175 -51q-110 0 -178 65q-66 65 -66 172q0 102 67 169q68 68 177 68q89 0 154 -60q64 -58 64 -152q0 -45 -9 -75h-298q20 -62 105 -62q66 0 118 32zM269 337q-66 0 -89 -62h162q0 26 -20 44t-53 18zM95 589q0 36 23 58.5t59 22.5
q31 0 53.5 -22.5t22.5 -58.5q0 -39 -22 -62.5t-54 -23.5q-36 0 -59 23.5t-23 62.5zM288 589q0 36 23.5 58.5t58.5 22.5q32 0 54 -22.5t22 -58.5q0 -39 -22 -62.5t-54 -23.5q-36 0 -59 23.5t-23 62.5z" />
    <glyph glyph-name="igrave" unicode="&#xec;" horiz-adv-x="286" 
d="M218 0h-150v450h150v-450zM208 566l-89 -63l-133 144l119 89z" />
    <glyph glyph-name="iacute" unicode="&#xed;" horiz-adv-x="286" 
d="M218 0h-150v450h150v-450zM152 738l117 -89l-131 -146l-89 63z" />
    <glyph glyph-name="icircumflex" unicode="&#xee;" horiz-adv-x="286" 
d="M142 706h4l165 -136l-70 -88l-98 81l-100 -79l-67 87zM218 0h-150v450h150v-450z" />
    <glyph glyph-name="idieresis" unicode="&#xef;" horiz-adv-x="286" 
d="M-32 589q0 36 23 58.5t59 22.5q31 0 53.5 -22.5t22.5 -58.5q0 -39 -22 -62.5t-54 -23.5q-36 0 -59 23.5t-23 62.5zM161 589q0 36 23.5 58.5t58.5 22.5q32 0 54 -22.5t22 -58.5q0 -39 -22 -62.5t-54 -23.5q-36 0 -59 23.5t-23 62.5zM218 0h-150v450h150v-450z" />
    <glyph glyph-name="eth" unicode="&#xf0;" horiz-adv-x="560" 
d="M302 510l-121 -37l-42 134l66 20q-37 36 -71 63l169 22q31 -21 51 -40l100 31l41 -134l-47 -15q82 -140 82 -287q0 -131 -66.5 -205t-183.5 -74q-114 0 -182 67q-68 68 -68 170t68 170q68 67 182 67q28 0 54 -12q-11 26 -32 60zM190 225q0 -42 25.5 -69.5t64.5 -27.5
q46 0 71.5 39.5t18.5 105.5q-22 49 -90 49q-39 0 -64.5 -26.5t-25.5 -70.5z" />
    <glyph glyph-name="ntilde" unicode="&#xf1;" horiz-adv-x="544" 
d="M205 0h-150v450h150v-35q44 43 111 43q183 0 183 -190v-268h-150v242q0 37 -19.5 56.5t-54.5 19.5q-39 0 -70 -31v-287zM147 519l-60 67q56 78 132 78q23 0 61 -20q37 -19 57 -19t31 5q4 1 10 5l13.5 9t11.5 8l49 -75q-60 -72 -127 -72q-22 0 -59 19q-38 20 -60 20
q-16 0 -59 -25z" />
    <glyph glyph-name="ograve" unicode="&#xf2;" horiz-adv-x="560" 
d="M98 55q-68 68 -68 170t68 170q68 67 182 67t181 -67q69 -67 69 -170t-69 -170q-67 -67 -181 -67t-182 67zM190 225q0 -42 25.5 -69.5t64.5 -27.5q40 0 65 26.5t25 70.5q0 42 -25.5 69.5t-64.5 27.5t-64.5 -26.5t-25.5 -70.5zM365 566l-89 -63l-133 144l119 89z" />
    <glyph glyph-name="oacute" unicode="&#xf3;" horiz-adv-x="560" 
d="M98 55q-68 68 -68 170t68 170q68 67 182 67t181 -67q69 -67 69 -170t-69 -170q-67 -67 -181 -67t-182 67zM190 225q0 -42 25.5 -69.5t64.5 -27.5q40 0 65 26.5t25 70.5q0 42 -25.5 69.5t-64.5 27.5t-64.5 -26.5t-25.5 -70.5zM299 738l117 -89l-131 -146l-89 63z" />
    <glyph glyph-name="ocircumflex" unicode="&#xf4;" horiz-adv-x="560" 
d="M98 55q-68 68 -68 170t68 170q68 67 182 67t181 -67q69 -67 69 -170t-69 -170q-67 -67 -181 -67t-182 67zM190 225q0 -42 25.5 -69.5t64.5 -27.5q40 0 65 26.5t25 70.5q0 42 -25.5 69.5t-64.5 27.5t-64.5 -26.5t-25.5 -70.5zM281 706h4l165 -136l-70 -88l-98 81l-100 -79
l-67 87z" />
    <glyph glyph-name="otilde" unicode="&#xf5;" horiz-adv-x="560" 
d="M98 55q-68 68 -68 170t68 170q68 67 182 67t181 -67q69 -67 69 -170t-69 -170q-67 -67 -181 -67t-182 67zM190 225q0 -42 25.5 -69.5t64.5 -27.5q40 0 65 26.5t25 70.5q0 42 -25.5 69.5t-64.5 27.5t-64.5 -26.5t-25.5 -70.5zM155 519l-60 67q55 78 132 78q23 0 61 -20
q37 -19 57 -19t31 5q4 1 10 5l13.5 9t11.5 8l49 -75q-60 -72 -127 -72q-22 0 -59 19q-38 20 -60 20q-16 0 -59 -25z" />
    <glyph glyph-name="odieresis" unicode="&#xf6;" horiz-adv-x="560" 
d="M98 55q-68 68 -68 170t68 170q68 67 182 67t181 -67q69 -67 69 -170t-69 -170q-67 -67 -181 -67t-182 67zM190 225q0 -42 25.5 -69.5t64.5 -27.5q40 0 65 26.5t25 70.5q0 42 -25.5 69.5t-64.5 27.5t-64.5 -26.5t-25.5 -70.5zM113 589q0 36 23 58.5t59 22.5
q31 0 53.5 -22.5t22.5 -58.5q0 -39 -22 -62.5t-54 -23.5q-36 0 -59 23.5t-23 62.5zM306 589q0 36 23.5 58.5t58.5 22.5q32 0 54 -22.5t22 -58.5q0 -39 -22 -62.5t-54 -23.5q-36 0 -59 23.5t-23 62.5z" />
    <glyph glyph-name="divide" unicode="&#xf7;" 
d="M213 550q0 34 24 58.5t63 24.5q37 0 61 -25t24 -58q0 -37 -23.5 -63t-61.5 -26q-40 0 -63.5 25.5t-23.5 63.5zM213 172q0 34 24.5 58.5t62.5 24.5q36 0 60.5 -25.5t24.5 -57.5q0 -37 -23.5 -63t-61.5 -26q-40 0 -63.5 25.5t-23.5 63.5zM537 295h-474v130h474v-130z" />
    <glyph glyph-name="oslash" unicode="&#xf8;" horiz-adv-x="580" 
d="M98 4l-54 63l27 24q-41 56 -41 134q0 102 73 169q74 68 187 68q87 0 154 -43l34 30l53 -62l-26 -23q45 -62 45 -139q0 -103 -73 -170t-187 -67q-94 0 -159 45zM390 225q0 15 -5 33l-138 -123q15 -7 43 -7q46 0 73 26t27 71zM190 225q0 -13 3 -27l134 118q-17 6 -37 6
q-45 0 -72.5 -26t-27.5 -71z" />
    <glyph glyph-name="ugrave" unicode="&#xf9;" horiz-adv-x="530" 
d="M325 450h150v-450h-150v45q-45 -57 -129 -57q-62 0 -107 46q-44 47 -44 133v283h150v-251q0 -32 14.5 -51.5t43.5 -19.5q39 0 72 41v281zM345 566l-89 -63l-133 144l119 89z" />
    <glyph glyph-name="uacute" unicode="&#xfa;" horiz-adv-x="530" 
d="M325 450h150v-450h-150v45q-45 -57 -129 -57q-62 0 -107 46q-44 47 -44 133v283h150v-251q0 -32 14.5 -51.5t43.5 -19.5q39 0 72 41v281zM289 738l117 -89l-131 -146l-89 63z" />
    <glyph glyph-name="ucircumflex" unicode="&#xfb;" horiz-adv-x="530" 
d="M325 450h150v-450h-150v45q-45 -57 -129 -57q-62 0 -107 46q-44 47 -44 133v283h150v-251q0 -32 14.5 -51.5t43.5 -19.5q39 0 72 41v281zM264 706h4l165 -136l-70 -88l-98 81l-100 -79l-67 87z" />
    <glyph glyph-name="udieresis" unicode="&#xfc;" horiz-adv-x="530" 
d="M325 450h150v-450h-150v45q-45 -57 -129 -57q-62 0 -107 46q-44 47 -44 133v283h150v-251q0 -32 14.5 -51.5t43.5 -19.5q39 0 72 41v281zM86 589q0 36 23 58.5t59 22.5q31 0 53.5 -22.5t22.5 -58.5q0 -39 -22 -62.5t-54 -23.5q-36 0 -59 23.5t-23 62.5zM279 589
q0 36 23.5 58.5t58.5 22.5q32 0 54 -22.5t22 -58.5q0 -39 -22 -62.5t-54 -23.5q-36 0 -59 23.5t-23 62.5z" />
    <glyph glyph-name="yacute" unicode="&#xfd;" horiz-adv-x="516" 
d="M345 450h171l-175 -450q-48 -118 -86 -159t-91 -41q-57 0 -107 42l48 113q23 -16 43 -16q28 0 43 37l10 24l-201 450h181l77 -206q8 -22 17 -62q5 45 11 63zM272 738l117 -89l-131 -146l-89 63z" />
    <glyph glyph-name="thorn" unicode="&#xfe;" horiz-adv-x="561" 
d="M205 -200h-150v900h150v-276q52 38 125 38q89 0 145 -65t56 -165q0 -105 -67 -175q-68 -69 -175 -69q-50 0 -84 14v-202zM283 322q-42 0 -78 -40v-137q29 -17 70 -17q46 0 71 27.5t25 73.5q0 42 -23.5 67.5t-64.5 25.5z" />
    <glyph glyph-name="ydieresis" unicode="&#xff;" horiz-adv-x="516" 
d="M345 450h171l-175 -450q-48 -118 -86 -159t-91 -41q-57 0 -107 42l48 113q23 -16 43 -16q28 0 43 37l10 24l-201 450h181l77 -206q8 -22 17 -62q5 45 11 63zM92 589q0 36 23 58.5t59 22.5q31 0 53.5 -22.5t22.5 -58.5q0 -39 -22 -62.5t-54 -23.5q-36 0 -59 23.5t-23 62.5
zM285 589q0 36 23.5 58.5t58.5 22.5q32 0 54 -22.5t22 -58.5q0 -39 -22 -62.5t-54 -23.5q-36 0 -59 23.5t-23 62.5z" />
    <glyph glyph-name="Amacron" unicode="&#x100;" horiz-adv-x="725" 
d="M161 0h-161l291 700h143l291 -700h-171l-58 147h-277zM436 297l-78 198l-79 -198h157zM519 750h-314v120h314v-120z" />
    <glyph glyph-name="amacron" unicode="&#x101;" horiz-adv-x="465" 
d="M103 309l-37 109q72 44 167 44q98 0 142.5 -47t44.5 -144v-271h-130v41q-33 -47 -118 -47q-64 0 -103 38t-39 104q0 71 44.5 110t117.5 39q57 0 88 -25q5 77 -62 77q-46 0 -115 -28zM223 119q40 0 57 23v28q-21 15 -57 15q-19 0 -31 -9t-12 -25q0 -15 12 -23.5t31 -8.5z
M385 520h-294v120h294v-120z" />
    <glyph glyph-name="Abreve" unicode="&#x102;" horiz-adv-x="725" 
d="M161 0h-161l291 700h143l291 -700h-171l-58 147h-277zM436 297l-78 198l-79 -198h157zM161 843l64 77q59 -60 143 -60q86 0 140 60l55 -78q-28 -48 -82 -80t-113 -32q-67 0 -123 34q-56 35 -84 79z" />
    <glyph glyph-name="abreve" unicode="&#x103;" horiz-adv-x="465" 
d="M103 309l-37 109q72 44 167 44q98 0 142.5 -47t44.5 -144v-271h-130v41q-33 -47 -118 -47q-64 0 -103 38t-39 104q0 71 44.5 110t117.5 39q57 0 88 -25q5 77 -62 77q-46 0 -115 -28zM223 119q40 0 57 23v28q-21 15 -57 15q-19 0 -31 -9t-12 -25q0 -15 12 -23.5t31 -8.5z
M59 607l66 75q46 -52 105 -52q68 0 110 50l51 -72q-65 -98 -167 -98q-62 0 -103 31q-43 32 -62 66z" />
    <glyph glyph-name="Aogonek" unicode="&#x104;" horiz-adv-x="725" 
d="M677 -70l45 -90q-13 -16 -47.5 -28t-72.5 -12q-65 0 -105 24.5t-40 70.5q0 71 97 105l-58 147h-277l-58 -147h-161l291 700h143l291 -700h-19q-40 0 -69.5 -17t-29.5 -37q0 -26 30 -26q20 0 40 10zM436 297l-78 198l-79 -198h157z" />
    <glyph glyph-name="aogonek" unicode="&#x105;" horiz-adv-x="465" 
d="M391 -70l45 -90q-13 -16 -47.5 -28t-72.5 -12q-65 0 -105 24.5t-40 70.5q0 80 119 112v34q-33 -47 -118 -47q-64 0 -103 38t-39 104q0 71 44.5 110t117.5 39q57 0 88 -25q5 77 -62 77q-46 0 -115 -28l-37 109q72 44 167 44q98 0 142.5 -47t44.5 -144v-271h-9
q-37 -2 -63.5 -18.5t-26.5 -35.5q0 -26 30 -26q20 0 40 10zM223 119q40 0 57 23v28q-21 15 -57 15q-19 0 -31 -9t-12 -25q0 -15 12 -23.5t31 -8.5z" />
    <glyph glyph-name="Cacute" unicode="&#x106;" horiz-adv-x="655" 
d="M574 189l61 -120q-32 -36 -95 -59q-62 -22 -133 -22q-163 0 -265 99q-102 101 -102 263q0 158 96 260t270 102q66 0 123 -20t91 -53l-71 -120q-70 43 -143 43q-85 0 -141 -56q-55 -55 -55 -156q0 -92 59 -153q59 -59 153 -59q84 0 152 51zM521 935l56 -129l-249 -78
l-41 89z" />
    <glyph glyph-name="cacute" unicode="&#x107;" horiz-adv-x="485" 
d="M391 178l70 -110q-59 -80 -184 -80q-112 0 -180 65q-67 64 -67 172q0 101 66 168q68 69 172 69q123 0 184 -64l-69 -118q-42 42 -96 42q-40 0 -68.5 -27t-28.5 -70t30 -70q32 -27 69 -27q55 0 102 50zM282 738l117 -89l-131 -146l-89 63z" />
    <glyph glyph-name="Ccircumflex" unicode="&#x108;" horiz-adv-x="655" 
d="M574 189l61 -120q-32 -36 -95 -59q-62 -22 -133 -22q-163 0 -265 99q-102 101 -102 263q0 158 96 260t270 102q66 0 123 -20t91 -53l-71 -120q-70 43 -143 43q-85 0 -141 -56q-55 -55 -55 -156q0 -92 59 -153q59 -59 153 -59q84 0 152 51zM254 723l-52 83l178 119h4
l184 -117l-58 -85l-128 66z" />
    <glyph glyph-name="ccircumflex" unicode="&#x109;" horiz-adv-x="485" 
d="M391 178l70 -110q-59 -80 -184 -80q-112 0 -180 65q-67 64 -67 172q0 101 66 168q68 69 172 69q123 0 184 -64l-69 -118q-42 42 -96 42q-40 0 -68.5 -27t-28.5 -70t30 -70q32 -27 69 -27q55 0 102 50zM275 706h4l165 -136l-70 -88l-98 81l-100 -79l-67 87z" />
    <glyph glyph-name="Cdotaccent" unicode="&#x10a;" horiz-adv-x="655" 
d="M574 189l61 -120q-32 -36 -95 -59q-62 -22 -133 -22q-163 0 -265 99q-102 101 -102 263q0 158 96 260t270 102q66 0 123 -20t91 -53l-71 -120q-70 43 -143 43q-85 0 -141 -56q-55 -55 -55 -156q0 -92 59 -153q59 -59 153 -59q84 0 152 51zM284 845q0 40 29 65t72 25
q40 0 68 -25.5t28 -64.5q0 -43 -28 -69.5t-68 -26.5q-44 0 -72.5 26t-28.5 70z" />
    <glyph glyph-name="cdotaccent" unicode="&#x10b;" horiz-adv-x="485" 
d="M391 178l70 -110q-59 -80 -184 -80q-112 0 -180 65q-67 64 -67 172q0 101 66 168q68 69 172 69q123 0 184 -64l-69 -118q-42 42 -96 42q-40 0 -68.5 -27t-28.5 -70t30 -70q32 -27 69 -27q55 0 102 50zM180 605q0 38 26 61.5t65 23.5q35 0 60 -24t25 -61q0 -41 -25 -66
t-60 -25q-40 0 -65.5 24.5t-25.5 66.5z" />
    <glyph glyph-name="Ccaron" unicode="&#x10c;" horiz-adv-x="655" 
d="M574 189l61 -120q-32 -36 -95 -59q-62 -22 -133 -22q-163 0 -265 99q-102 101 -102 263q0 158 96 260t270 102q66 0 123 -20t91 -53l-71 -120q-70 43 -143 43q-85 0 -141 -56q-55 -55 -55 -156q0 -92 59 -153q59 -59 153 -59q84 0 152 51zM389 733h-4l-184 117l58 85
l128 -76l128 76l52 -83z" />
    <glyph glyph-name="ccaron" unicode="&#x10d;" horiz-adv-x="485" 
d="M391 178l70 -110q-59 -80 -184 -80q-112 0 -180 65q-67 64 -67 172q0 101 66 168q68 69 172 69q123 0 184 -64l-69 -118q-42 42 -96 42q-40 0 -68.5 -27t-28.5 -70t30 -70q32 -27 69 -27q55 0 102 50zM265 488h-4l-165 136l70 88l98 -81l100 79l67 -87z" />
    <glyph glyph-name="Dcaron" unicode="&#x10e;" horiz-adv-x="744" 
d="M107 0h-17v700h14q45 0 100 1q21 0 46.5 0.5t39.5 1t21 0.5q197 0 295 -98t98 -249q0 -155 -105 -257q-104 -101 -296 -101q-39 0 -87 1t-109 1zM309 553q-39 0 -59 -3v-400q28 -2 58 -2q106 0 166 55t60 153q0 93 -61 145t-164 52zM339 733h-4l-184 117l58 85l128 -76
l128 76l52 -83z" />
    <glyph glyph-name="dcaron" unicode="&#x10f;" horiz-adv-x="557" 
d="M502 0h-150v37q-46 -45 -114 -45q-95 0 -152 62q-56 62 -56 165q0 107 69 175q70 68 179 68q43 0 74 -14v252h150v-700zM269 132q47 0 83 33v138q-32 19 -67 19q-41 0 -68 -26t-27 -72q0 -41 23.5 -66.5t55.5 -25.5zM556 700h146q5 -13 5 -32q0 -131 -113 -194l-70 63
q43 49 43 113q0 23 -11 50z" />
    <glyph glyph-name="Dcroat" unicode="&#x110;" horiz-adv-x="744" 
d="M90 278h-80v140h80v282h14q45 0 100 1q21 0 46.5 0.5t39.5 1t21 0.5q197 0 295 -98t98 -249q0 -155 -105 -257q-104 -101 -296 -101q-39 0 -87 1t-109 1h-17v278zM309 553q-39 0 -59 -3v-132h164v-140h-164v-128q28 -2 58 -2q106 0 166 55t60 153q0 93 -61 145t-164 52z
" />
    <glyph glyph-name="dslash" unicode="&#x111;" horiz-adv-x="557" 
d="M352 507h-104v120h104v73h150v-73h65v-120h-65v-507h-150v37q-46 -45 -114 -45q-95 0 -152 62q-56 62 -56 165q0 107 69 175q70 68 179 68q43 0 74 -14v59zM269 132q47 0 83 33v138q-32 19 -67 19q-41 0 -68 -26t-27 -72q0 -41 23.5 -66.5t55.5 -25.5z" />
    <glyph glyph-name="Emacron" unicode="&#x112;" horiz-adv-x="575" 
d="M515 0h-425v700h415v-150h-255v-123h225v-150h-225v-127h265v-150zM454 750h-314v120h314v-120z" />
    <glyph glyph-name="emacron" unicode="&#x113;" horiz-adv-x="512" 
d="M408 145l41 -106q-68 -51 -175 -51q-110 0 -178 65q-66 65 -66 172q0 102 67 169q68 68 177 68q89 0 154 -60q64 -58 64 -152q0 -45 -9 -75h-298q20 -62 105 -62q66 0 118 32zM269 337q-66 0 -89 -62h162q0 26 -20 44t-53 18zM411 520h-294v120h294v-120z" />
    <glyph glyph-name="Edotaccent" unicode="&#x116;" horiz-adv-x="575" 
d="M515 0h-425v700h415v-150h-255v-123h225v-150h-225v-127h265v-150zM204 845q0 40 29 65t72 25q40 0 68 -25.5t28 -64.5q0 -43 -28 -69.5t-68 -26.5q-44 0 -72.5 26t-28.5 70z" />
    <glyph glyph-name="edotaccent" unicode="&#x117;" horiz-adv-x="512" 
d="M408 145l41 -106q-68 -51 -175 -51q-110 0 -178 65q-66 65 -66 172q0 102 67 169q68 68 177 68q89 0 154 -60q64 -58 64 -152q0 -45 -9 -75h-298q20 -62 105 -62q66 0 118 32zM269 337q-66 0 -89 -62h162q0 26 -20 44t-53 18zM180 605q0 38 26 61.5t65 23.5q35 0 60 -24
t25 -61q0 -41 -25 -66t-60 -25q-40 0 -65.5 24.5t-25.5 66.5z" />
    <glyph glyph-name="Eogonek" unicode="&#x118;" horiz-adv-x="575" 
d="M363 0h-273v700h415v-150h-255v-123h225v-150h-225v-127h265v-150q-40 0 -69.5 -17t-29.5 -37q0 -26 30 -26q20 0 40 10l45 -90q-13 -16 -47.5 -28t-72.5 -12q-65 0 -105 24.5t-40 70.5q0 71 97 105z" />
    <glyph glyph-name="eogonek" unicode="&#x119;" horiz-adv-x="512" 
d="M408 145l41 -106q-23 -17 -48 -27q-60 -38 -60 -66q0 -26 30 -26q20 0 40 10l45 -90q-13 -16 -47.5 -28t-72.5 -12q-65 0 -105 24.5t-40 70.5q0 54 81 93q-111 2 -176 65q-66 65 -66 172q0 102 67 169q68 68 177 68q89 0 154 -60q64 -58 64 -152q0 -45 -9 -75h-298
q20 -62 105 -62q66 0 118 32zM269 337q-66 0 -89 -62h162q0 26 -20 44t-53 18z" />
    <glyph glyph-name="Ecaron" unicode="&#x11a;" horiz-adv-x="575" 
d="M309 733h-4l-184 117l58 85l128 -76l128 76l52 -83zM515 0h-425v700h415v-150h-255v-123h225v-150h-225v-127h265v-150z" />
    <glyph glyph-name="ecaron" unicode="&#x11b;" horiz-adv-x="512" 
d="M408 145l41 -106q-68 -51 -175 -51q-110 0 -178 65q-66 65 -66 172q0 102 67 169q68 68 177 68q89 0 154 -60q64 -58 64 -152q0 -45 -9 -75h-298q20 -62 105 -62q66 0 118 32zM269 337q-66 0 -89 -62h162q0 26 -20 44t-53 18zM275 488h-4l-165 136l70 88l98 -81l100 79
l67 -87z" />
    <glyph glyph-name="Gcircumflex" unicode="&#x11c;" horiz-adv-x="727" 
d="M527 249h-149v150h299v-312q-45 -45 -120 -72q-73 -27 -142 -27q-176 0 -276 98q-99 98 -99 264q0 155 97 258q98 104 258 104q138 0 229 -73l-67 -129q-21 22 -61.5 37t-81.5 15q-93 0 -148.5 -55t-55.5 -157q0 -97 56.5 -154.5t150.5 -57.5q28 0 63 11q33 11 47 24v76z
M254 723l-52 83l178 119h4l184 -117l-58 -85l-128 66z" />
    <glyph glyph-name="gcircumflex" unicode="&#x11d;" horiz-adv-x="504" 
d="M0 -58q0 55 39 91t110 51q-6 12 -6 25q0 16 7 26q-52 21 -81.5 62.5t-29.5 91.5q0 71 54 122q56 51 145 51q66 0 115 -30l141 28l5 -120l-67 -13q5 -25 5 -38q0 -67 -51 -116q-50 -49 -132 -53q-1 -3 -1 -11t3 -17q98 -3 160 -41t62 -109q0 -75 -67 -112
q-68 -38 -172 -38q-106 0 -173 37q-66 37 -66 113zM140 -58q0 -30 99 -30t99 30q0 31 -99 31t-99 -31zM238 240q27 0 43 13t16 36q0 24 -15.5 38.5t-43.5 14.5q-36 1 -51.5 -26t-0.5 -53t52 -23zM243 706h4l165 -136l-70 -88l-98 81l-100 -79l-67 87z" />
    <glyph glyph-name="Gbreve" unicode="&#x11e;" horiz-adv-x="727" 
d="M527 249h-149v150h299v-312q-45 -45 -120 -72q-73 -27 -142 -27q-176 0 -276 98q-99 98 -99 264q0 155 97 258q98 104 258 104q138 0 229 -73l-67 -129q-21 22 -61.5 37t-81.5 15q-93 0 -148.5 -55t-55.5 -157q0 -97 56.5 -154.5t150.5 -57.5q28 0 63 11q33 11 47 24v76z
M203 843l64 77q59 -60 143 -60q86 0 140 60l55 -78q-28 -48 -82 -80t-113 -32q-67 0 -123 34q-56 35 -84 79z" />
    <glyph glyph-name="gbreve" unicode="&#x11f;" horiz-adv-x="504" 
d="M0 -58q0 55 39 91t110 51q-6 12 -6 25q0 16 7 26q-52 21 -81.5 62.5t-29.5 91.5q0 71 54 122q56 51 145 51q66 0 115 -30l141 28l5 -120l-67 -13q5 -25 5 -38q0 -67 -51 -116q-50 -49 -132 -53q-1 -3 -1 -11t3 -17q98 -3 160 -41t62 -109q0 -75 -67 -112
q-68 -38 -172 -38q-106 0 -173 37q-66 37 -66 113zM140 -58q0 -30 99 -30t99 30q0 31 -99 31t-99 -31zM238 240q27 0 43 13t16 36q0 24 -15.5 38.5t-43.5 14.5q-36 1 -51.5 -26t-0.5 -53t52 -23zM72 607l66 75q46 -52 105 -52q68 0 110 50l51 -72q-65 -98 -167 -98
q-62 0 -103 31q-43 32 -62 66z" />
    <glyph glyph-name="Gdotaccent" unicode="&#x120;" horiz-adv-x="727" 
d="M527 249h-149v150h299v-312q-45 -45 -120 -72q-73 -27 -142 -27q-176 0 -276 98q-99 98 -99 264q0 155 97 258q98 104 258 104q138 0 229 -73l-67 -129q-21 22 -61.5 37t-81.5 15q-93 0 -148.5 -55t-55.5 -157q0 -97 56.5 -154.5t150.5 -57.5q28 0 63 11q33 11 47 24v76z
M274 845q0 40 29 65t72 25q40 0 68 -25.5t28 -64.5q0 -43 -28 -69.5t-68 -26.5q-44 0 -72.5 26t-28.5 70z" />
    <glyph glyph-name="gdotaccent" unicode="&#x121;" horiz-adv-x="504" 
d="M0 -58q0 55 39 91t110 51q-6 12 -6 25q0 16 7 26q-52 21 -81.5 62.5t-29.5 91.5q0 71 54 122q56 51 145 51q66 0 115 -30l141 28l5 -120l-67 -13q5 -25 5 -38q0 -67 -51 -116q-50 -49 -132 -53q-1 -3 -1 -11t3 -17q98 -3 160 -41t62 -109q0 -75 -67 -112
q-68 -38 -172 -38q-106 0 -173 37q-66 37 -66 113zM140 -58q0 -30 99 -30t99 30q0 31 -99 31t-99 -31zM238 240q27 0 43 13t16 36q0 24 -15.5 38.5t-43.5 14.5q-36 1 -51.5 -26t-0.5 -53t52 -23zM150 605q0 38 26 61.5t65 23.5q35 0 60 -24t25 -61q0 -41 -25 -66t-60 -25
q-40 0 -65.5 24.5t-25.5 66.5z" />
    <glyph glyph-name="Gcommaaccent" unicode="&#x122;" horiz-adv-x="727" 
d="M527 249h-149v150h299v-312q-45 -45 -120 -72q-73 -27 -142 -27q-176 0 -276 98q-99 98 -99 264q0 155 97 258q98 104 258 104q138 0 229 -73l-67 -129q-21 22 -61.5 37t-81.5 15q-93 0 -148.5 -55t-55.5 -157q0 -97 56.5 -154.5t150.5 -57.5q28 0 63 11q33 11 47 24v76z
M326 -50l149 29q13 -17 13 -48q0 -55 -47 -93q-46 -38 -100 -46l-44 64q41 18 41 58q0 21 -12 36z" />
    <glyph glyph-name="gcommaaccent" unicode="&#x123;" horiz-adv-x="504" 
d="M0 -58q0 55 39 91t110 51q-6 12 -6 25q0 16 7 26q-52 21 -81.5 62.5t-29.5 91.5q0 71 54 122q56 51 145 51q66 0 115 -30l141 28l5 -120l-67 -13q5 -25 5 -38q0 -67 -51 -116q-50 -49 -132 -53q-1 -3 -1 -11t3 -17q98 -3 160 -41t62 -109q0 -75 -67 -112
q-68 -38 -172 -38q-106 0 -173 37q-66 37 -66 113zM140 -58q0 -30 99 -30t99 30q0 31 -99 31t-99 -31zM238 240q27 0 43 13t16 36q0 24 -15.5 38.5t-43.5 14.5q-36 1 -51.5 -26t-0.5 -53t52 -23zM316 547l-149 -29q-13 17 -13 48q0 56 46 93q46 38 101 46l44 -64
q-41 -18 -41 -58q0 -21 12 -36z" />
    <glyph glyph-name="Hcircumflex" unicode="&#x124;" horiz-adv-x="755" 
d="M665 0h-160v282h-255v-282h-160v700h160v-268h255v268h160v-700zM249 723l-52 83l178 119h4l184 -117l-58 -85l-128 66z" />
    <glyph glyph-name="hcircumflex" unicode="&#x125;" horiz-adv-x="544" 
d="M205 0h-150v700h150v-281q43 39 111 39q87 0 135 -48.5t48 -145.5v-264h-150v245q0 33 -20 53t-52 20q-43 0 -72 -29v-289zM19 723l-52 83l178 119h4l184 -117l-58 -85l-128 66z" />
    <glyph glyph-name="Hbar" unicode="&#x126;" horiz-adv-x="765" 
d="M95 497h-75v140h75v63h160v-63h255v63h160v-63h75v-140h-75v-497h-160v282h-255v-282h-160v497zM255 497v-65h255v65h-255z" />
    <glyph glyph-name="hbar" unicode="&#x127;" horiz-adv-x="594" 
d="M105 490h-95v140h95v70h150v-70h134v-140h-134v-71q43 39 111 39q87 0 135 -48.5t48 -145.5v-264h-150v245q0 33 -20 53t-52 20q-43 0 -72 -29v-289h-150v490z" />
    <glyph glyph-name="Imacron" unicode="&#x12a;" horiz-adv-x="360" 
d="M260 0h-160v700h160v-700zM342 750h-314v120h314v-120z" />
    <glyph glyph-name="imacron" unicode="&#x12b;" horiz-adv-x="286" 
d="M218 0h-150v450h150v-450zM290 520h-294v120h294v-120z" />
    <glyph glyph-name="Iogonek" unicode="&#x12e;" horiz-adv-x="360" 
d="M108 0h-8v700h160v-700q-40 0 -69.5 -17t-29.5 -37q0 -26 30 -26q20 0 40 10l45 -90q-13 -16 -47.5 -28t-72.5 -12q-65 0 -105 24.5t-40 70.5q0 71 97 105z" />
    <glyph glyph-name="iogonek" unicode="&#x12f;" horiz-adv-x="286" 
d="M189 -70l45 -90q-13 -16 -47.5 -28t-72.5 -12q-65 0 -105 24.5t-40 70.5q0 72 99 105v450h150v-450h-9q-37 -2 -63.5 -18.5t-26.5 -35.5q0 -26 30 -26q20 0 40 10zM51 605q0 38 26 61.5t65 23.5q35 0 60 -24t25 -61q0 -41 -25 -66t-60 -25q-40 0 -65.5 24.5t-25.5 66.5z
" />
    <glyph glyph-name="Idot" unicode="&#x130;" horiz-adv-x="360" 
d="M82 845q0 40 29 65t72 25q40 0 68 -25.5t28 -64.5q0 -43 -28 -69.5t-68 -26.5q-44 0 -72.5 26t-28.5 70zM260 0h-160v700h160v-700z" />
    <glyph glyph-name="dotlessi" unicode="&#x131;" horiz-adv-x="286" 
d="M218 0h-150v450h150v-450z" />
    <glyph glyph-name="Jcircumflex" unicode="&#x134;" horiz-adv-x="407" 
d="M157 700h160v-529q0 -89 -48 -136t-137 -47q-41 0 -78.5 14.5t-53.5 34.5l52 122q29 -21 58 -21q47 0 47 62v500zM107 723l-52 83l178 119h4l184 -117l-58 -85l-128 66z" />
    <glyph glyph-name="jcircumflex" unicode="&#x135;" horiz-adv-x="281" 
d="M76 450h150v-483q0 -175 -141 -175q-38 0 -71.5 9.5t-48.5 24.5l39 119q22 -13 44 -13q28 0 28 49v469zM150 706h4l165 -136l-70 -88l-98 81l-100 -79l-67 87z" />
    <glyph glyph-name="Kcommaaccent" unicode="&#x136;" horiz-adv-x="692" 
d="M250 0h-160v700h160v-305l229 305h192l-263 -323l284 -377h-203l-239 333v-333zM266 -50l149 29q13 -17 13 -48q0 -55 -47 -93q-46 -38 -100 -46l-44 64q41 18 41 58q0 21 -12 36z" />
    <glyph glyph-name="kcommaaccent" unicode="&#x137;" horiz-adv-x="537" 
d="M205 0h-150v700h150v-445l123 195h188l-146 -203l167 -247h-192l-140 215v-215zM173 -50l149 29q13 -17 13 -48q0 -55 -47 -93q-46 -38 -100 -46l-44 64q41 18 41 58q0 21 -12 36z" />
    <glyph glyph-name="Lacute" unicode="&#x139;" horiz-adv-x="545" 
d="M535 0h-445v700h160v-550h285v-150zM411 935l56 -129l-249 -78l-41 89z" />
    <glyph glyph-name="lacute" unicode="&#x13a;" horiz-adv-x="309" 
d="M55 129v571h150v-514q0 -58 25 -58q14 0 39 16l30 -114q-51 -42 -132 -42q-112 0 -112 141zM306 935l56 -129l-249 -78l-41 89z" />
    <glyph glyph-name="Lcommaaccent" unicode="&#x13b;" horiz-adv-x="545" 
d="M226 -50l149 29q13 -17 13 -48q0 -55 -47 -93q-46 -38 -100 -46l-44 64q41 18 41 58q0 21 -12 36zM535 0h-445v700h160v-550h285v-150z" />
    <glyph glyph-name="lcommaaccent" unicode="&#x13c;" horiz-adv-x="309" 
d="M55 129v571h150v-514q0 -58 25 -58q14 0 39 16l30 -114q-51 -42 -132 -42q-112 0 -112 141zM101 -50l149 29q13 -17 13 -48q0 -55 -47 -93q-46 -38 -100 -46l-44 64q41 18 41 58q0 21 -12 36z" />
    <glyph glyph-name="Lcaron" unicode="&#x13d;" horiz-adv-x="545" 
d="M356 700h146q5 -13 5 -32q0 -131 -113 -194l-70 63q43 49 43 113q0 23 -11 50zM535 0h-445v700h160v-550h285v-150z" />
    <glyph glyph-name="lcaron" unicode="&#x13e;" horiz-adv-x="309" 
d="M55 129v571h150v-514q0 -58 25 -58q14 0 39 16l30 -114q-51 -42 -132 -42q-112 0 -112 141zM266 700h146q5 -13 5 -32q0 -131 -113 -194l-70 63q43 49 43 113q0 23 -11 50z" />
    <glyph glyph-name="Ldot" unicode="&#x13f;" horiz-adv-x="545" 
d="M344 376q0 37 29 65.5t73 28.5q39 0 66.5 -28.5t27.5 -65.5q0 -42 -26.5 -72t-67.5 -30q-45 0 -73.5 29.5t-28.5 72.5zM535 0h-445v700h160v-550h285v-150z" />
    <glyph glyph-name="ldot" unicode="&#x140;" horiz-adv-x="377" 
d="M55 129v571h150v-514q0 -58 25 -58q14 0 39 16l30 -114q-51 -42 -132 -42q-112 0 -112 141zM231 350q0 38 26 61.5t65 23.5q35 0 60 -24t25 -61q0 -41 -25 -66t-60 -25q-40 0 -65.5 24.5t-25.5 66.5z" />
    <glyph glyph-name="Lslash" unicode="&#x141;" horiz-adv-x="555" 
d="M100 224l-80 -35v154l80 35v322h160v-251l149 66v-153l-149 -67v-145h285v-150h-445v224z" />
    <glyph glyph-name="lslash" unicode="&#x142;" horiz-adv-x="339" 
d="M75 210l-65 -28v154l65 28v336h150v-270l84 37v-153l-84 -37v-91q0 -58 25 -58q14 0 39 16l30 -114q-51 -42 -132 -42q-112 0 -112 141v81z" />
    <glyph glyph-name="Nacute" unicode="&#x143;" horiz-adv-x="790" 
d="M700 700v-700h-128l-332 420v-420h-150v700h128l332 -422v422h150zM541 935l56 -129l-249 -78l-41 89z" />
    <glyph glyph-name="nacute" unicode="&#x144;" horiz-adv-x="544" 
d="M205 0h-150v450h150v-35q44 43 111 43q183 0 183 -190v-268h-150v242q0 37 -19.5 56.5t-54.5 19.5q-39 0 -70 -31v-287zM301 738l117 -89l-131 -146l-89 63z" />
    <glyph glyph-name="Ncommaaccent" unicode="&#x145;" horiz-adv-x="790" 
d="M700 700v-700h-128l-332 420v-420h-150v700h128l332 -422v422h150zM316 -50l149 29q13 -17 13 -48q0 -55 -47 -93q-46 -38 -100 -46l-44 64q41 18 41 58q0 21 -12 36z" />
    <glyph glyph-name="ncommaaccent" unicode="&#x146;" horiz-adv-x="544" 
d="M205 0h-150v450h150v-35q44 43 111 43q183 0 183 -190v-268h-150v242q0 37 -19.5 56.5t-54.5 19.5q-39 0 -70 -31v-287zM187 -50l149 29q13 -17 13 -48q0 -55 -47 -93q-46 -38 -100 -46l-44 64q41 18 41 58q0 21 -12 36z" />
    <glyph glyph-name="Ncaron" unicode="&#x147;" horiz-adv-x="790" 
d="M700 700v-700h-128l-332 420v-420h-150v700h128l332 -422v422h150zM401 733h-4l-184 117l58 85l128 -76l128 76l52 -83z" />
    <glyph glyph-name="ncaron" unicode="&#x148;" horiz-adv-x="544" 
d="M205 0h-150v450h150v-35q44 43 111 43q183 0 183 -190v-268h-150v242q0 37 -19.5 56.5t-54.5 19.5q-39 0 -70 -31v-287zM273 488h-4l-165 136l70 88l98 -81l100 79l67 -87z" />
    <glyph glyph-name="Omacron" unicode="&#x14c;" horiz-adv-x="824" 
d="M40 350q0 155 103 258q104 104 269 104q164 0 267 -99q105 -99 105 -263q0 -158 -106 -260q-105 -102 -266 -102q-163 0 -268 99q-104 99 -104 263zM210 350q0 -89 59 -151q58 -61 143 -61q96 0 149 59q53 61 53 153q0 95 -58 153q-59 59 -144 59q-88 0 -145 -59
t-57 -153zM579 750h-314v120h314v-120z" />
    <glyph glyph-name="omacron" unicode="&#x14d;" horiz-adv-x="560" 
d="M98 55q-68 68 -68 170t68 170q68 67 182 67t181 -67q69 -67 69 -170t-69 -170q-67 -67 -181 -67t-182 67zM190 225q0 -42 25.5 -69.5t64.5 -27.5q40 0 65 26.5t25 70.5q0 42 -25.5 69.5t-64.5 27.5t-64.5 -26.5t-25.5 -70.5zM437 520h-294v120h294v-120z" />
    <glyph glyph-name="Ohungarumlaut" unicode="&#x150;" horiz-adv-x="824" 
d="M40 350q0 155 103 258q104 104 269 104q164 0 267 -99q105 -99 105 -263q0 -158 -106 -260q-105 -102 -266 -102q-163 0 -268 99q-104 99 -104 263zM210 350q0 -89 59 -151q58 -61 143 -61q96 0 149 59q53 61 53 153q0 95 -58 153q-59 59 -144 59q-88 0 -145 -59
t-57 -153zM589 935l106 -94l-204 -113l-61 63zM345 935l130 -65l-167 -142l-64 58z" />
    <glyph glyph-name="ohungarumlaut" unicode="&#x151;" horiz-adv-x="560" 
d="M98 55q-68 68 -68 170t68 170q68 67 182 67t181 -67q69 -67 69 -170t-69 -170q-67 -67 -181 -67t-182 67zM190 225q0 -42 25.5 -69.5t64.5 -27.5q40 0 65 26.5t25 70.5q0 42 -25.5 69.5t-64.5 27.5t-64.5 -26.5t-25.5 -70.5zM402 726l111 -84l-140 -139l-89 63zM211 740
l108 -80l-116 -157l-89 63z" />
    <glyph glyph-name="OE" unicode="&#x152;" horiz-adv-x="1034" 
d="M974 0h-425v14q-69 -26 -142 -26q-163 0 -265 99q-102 101 -102 263q0 158 96 260t270 102q78 0 143 -28v16h415v-150h-255v-123h225v-150h-225v-127h265v-150zM422 138q66 0 127 34v347q-70 43 -143 43q-85 0 -141 -56q-55 -55 -55 -156q0 -92 59 -153q59 -59 153 -59z
" />
    <glyph glyph-name="oe" unicode="&#x153;" horiz-adv-x="828" 
d="M724 145l41 -106q-67 -51 -175 -51q-92 0 -154 45q-64 -45 -156 -45q-114 0 -182 67q-68 68 -68 170t68 170q68 67 182 67q93 0 158 -47q65 47 152 47q90 0 154 -60q64 -58 64 -152q0 -45 -9 -75h-298q20 -62 105 -62q66 0 118 32zM280 128q46 0 74 28q-8 30 -8 69
q0 37 9 70q-31 27 -75 27q-39 0 -64.5 -26.5t-25.5 -70.5q0 -42 25.5 -69.5t64.5 -27.5zM585 337q-66 0 -89 -62h162q0 26 -20 44t-53 18z" />
    <glyph glyph-name="Racute" unicode="&#x154;" horiz-adv-x="673" 
d="M250 245v-245h-160v700q57 0 126 1t112 1q259 0 259 -224q0 -144 -118 -202l204 -276h-194l-170 245h-59zM320 552q-1 0 -9 -0.5t-25 -1t-36 -0.5v-155h58q109 0 109 81q0 76 -97 76zM441 935l56 -129l-249 -78l-41 89z" />
    <glyph glyph-name="racute" unicode="&#x155;" horiz-adv-x="368" 
d="M205 0h-150v450h150v-36q30 44 93 44q47 0 70 -17l-53 -140q-29 17 -55 17q-37 0 -55 -32v-286zM210 738l117 -89l-131 -146l-89 63z" />
    <glyph glyph-name="Rcommaaccent" unicode="&#x156;" horiz-adv-x="673" 
d="M250 245v-245h-160v700q57 0 126 1t112 1q259 0 259 -224q0 -144 -118 -202l204 -276h-194l-170 245h-59zM320 552q-1 0 -9 -0.5t-25 -1t-36 -0.5v-155h58q109 0 109 81q0 76 -97 76zM256 -50l149 29q13 -17 13 -48q0 -55 -47 -93q-46 -38 -100 -46l-44 64q41 18 41 58
q0 21 -12 36z" />
    <glyph glyph-name="rcommaaccent" unicode="&#x157;" horiz-adv-x="368" 
d="M205 0h-150v450h150v-36q30 44 93 44q47 0 70 -17l-53 -140q-29 17 -55 17q-37 0 -55 -32v-286zM97 -50l149 29q13 -17 13 -48q0 -55 -47 -93q-46 -38 -100 -46l-44 64q41 18 41 58q0 21 -12 36z" />
    <glyph glyph-name="Rcaron" unicode="&#x158;" horiz-adv-x="673" 
d="M250 245v-245h-160v700q57 0 126 1t112 1q259 0 259 -224q0 -144 -118 -202l204 -276h-194l-170 245h-59zM320 552q-1 0 -9 -0.5t-25 -1t-36 -0.5v-155h58q109 0 109 81q0 76 -97 76zM319 733h-4l-184 117l58 85l128 -76l128 76l52 -83z" />
    <glyph glyph-name="rcaron" unicode="&#x159;" horiz-adv-x="368" 
d="M205 0h-150v450h150v-36q30 44 93 44q47 0 70 -17l-53 -140q-29 17 -55 17q-37 0 -55 -32v-286zM203 488h-4l-165 136l70 88l98 -81l100 79l67 -87z" />
    <glyph glyph-name="Sacute" unicode="&#x15a;" horiz-adv-x="557" 
d="M347 192q0 44 -103 93q-30 13 -52.5 24.5t-50 32t-45 42.5t-30 55t-11.5 71q0 84 62 143t164 59q134 0 206 -77l-86 -120q-29 27 -50.5 37t-55.5 10q-33 0 -51.5 -14t-18.5 -38q0 -27 21.5 -48t54 -34.5t70.5 -33.5t70.5 -42.5t54 -63t21.5 -94.5q0 -90 -69 -148
q-67 -58 -171 -58q-76 0 -144 31q-69 31 -93 84l91 109q27 -35 68 -54.5t82 -19.5q31 0 48.5 14.5t17.5 39.5zM437 935l56 -129l-249 -78l-41 89z" />
    <glyph glyph-name="sacute" unicode="&#x15b;" horiz-adv-x="459" 
d="M279 133q0 18 -84 38q-30 7 -53.5 16t-48.5 25t-38.5 42.5t-13.5 60.5q0 68 49 107.5t127 39.5q119 0 189 -61l-56 -106q-62 42 -124 42q-15 0 -25 -6t-10 -14q0 -12 24.5 -20t59.5 -16.5t70 -22t59.5 -43.5t24.5 -75q0 -69 -52.5 -110.5t-141.5 -41.5q-66 0 -127 27
q-61 29 -78 56l71 98q21 -21 66 -39q46 -17 78 -17q34 0 34 20zM237 738l117 -89l-131 -146l-89 63z" />
    <glyph glyph-name="Scircumflex" unicode="&#x15c;" horiz-adv-x="557" 
d="M347 192q0 44 -103 93q-30 13 -52.5 24.5t-50 32t-45 42.5t-30 55t-11.5 71q0 84 62 143t164 59q134 0 206 -77l-86 -120q-29 27 -50.5 37t-55.5 10q-33 0 -51.5 -14t-18.5 -38q0 -27 21.5 -48t54 -34.5t70.5 -33.5t70.5 -42.5t54 -63t21.5 -94.5q0 -90 -69 -148
q-67 -58 -171 -58q-76 0 -144 31q-69 31 -93 84l91 109q27 -35 68 -54.5t82 -19.5q31 0 48.5 14.5t17.5 39.5zM147 723l-52 83l178 119h4l184 -117l-58 -85l-128 66z" />
    <glyph glyph-name="scircumflex" unicode="&#x15d;" horiz-adv-x="459" 
d="M279 133q0 18 -84 38q-30 7 -53.5 16t-48.5 25t-38.5 42.5t-13.5 60.5q0 68 49 107.5t127 39.5q119 0 189 -61l-56 -106q-62 42 -124 42q-15 0 -25 -6t-10 -14q0 -12 24.5 -20t59.5 -16.5t70 -22t59.5 -43.5t24.5 -75q0 -69 -52.5 -110.5t-141.5 -41.5q-66 0 -127 27
q-61 29 -78 56l71 98q21 -21 66 -39q46 -17 78 -17q34 0 34 20zM228 706h4l165 -136l-70 -88l-98 81l-100 -79l-67 87z" />
    <glyph glyph-name="Scedilla" unicode="&#x15e;" horiz-adv-x="557" 
d="M120 -157l48 74q14 -14 35.5 -25.5t38.5 -11.5q22 0 22 13q0 17 -25 17h-6v81q-67 9 -120 38.5t-73 73.5l91 109q27 -35 68 -54.5t82 -19.5q31 0 48.5 14.5t17.5 39.5q0 44 -103 93q-30 13 -52.5 24.5t-50 32t-45 42.5t-30 55t-11.5 71q0 84 62 143t164 59q134 0 206 -77
l-86 -120q-29 27 -50.5 37t-55.5 10q-33 0 -51.5 -14t-18.5 -38q0 -27 21.5 -48t54 -34.5t70.5 -33.5t70.5 -42.5t54 -63t21.5 -94.5q0 -84 -59 -140q-60 -57 -150 -64v-16q116 -9 116 -90q0 -43 -39 -68.5t-106 -25.5q-100 0 -159 53z" />
    <glyph glyph-name="scedilla" unicode="&#x15f;" horiz-adv-x="459" 
d="M74 -161l44 69q28 -28 68 -28q22 0 22 13q0 17 -25 17h-6v84q-50 11 -92 33q-41 22 -55 44l71 98q21 -21 66 -39q46 -17 78 -17q34 0 34 20q0 18 -84 38q-30 7 -53.5 16t-48.5 25t-38.5 42.5t-13.5 60.5q0 68 49 107.5t127 39.5q119 0 189 -61l-56 -106q-62 42 -124 42
q-15 0 -25 -6t-10 -14q0 -12 24.5 -20t59.5 -16.5t70 -22t59.5 -43.5t24.5 -75q0 -66 -47.5 -106.5t-129.5 -44.5v-15q106 -9 106 -90q0 -44 -39 -69t-112 -25q-80 0 -133 49z" />
    <glyph glyph-name="Scaron" unicode="&#x160;" horiz-adv-x="557" 
d="M347 192q0 44 -103 93q-30 13 -52.5 24.5t-50 32t-45 42.5t-30 55t-11.5 71q0 84 62 143t164 59q134 0 206 -77l-86 -120q-29 27 -50.5 37t-55.5 10q-33 0 -51.5 -14t-18.5 -38q0 -27 21.5 -48t54 -34.5t70.5 -33.5t70.5 -42.5t54 -63t21.5 -94.5q0 -90 -69 -148
q-67 -58 -171 -58q-76 0 -144 31q-69 31 -93 84l91 109q27 -35 68 -54.5t82 -19.5q31 0 48.5 14.5t17.5 39.5zM285 733h-4l-184 117l58 85l128 -76l128 76l52 -83z" />
    <glyph glyph-name="scaron" unicode="&#x161;" horiz-adv-x="459" 
d="M279 133q0 18 -84 38q-30 7 -53.5 16t-48.5 25t-38.5 42.5t-13.5 60.5q0 68 49 107.5t127 39.5q119 0 189 -61l-56 -106q-62 42 -124 42q-15 0 -25 -6t-10 -14q0 -12 24.5 -20t59.5 -16.5t70 -22t59.5 -43.5t24.5 -75q0 -69 -52.5 -110.5t-141.5 -41.5q-66 0 -127 27
q-61 29 -78 56l71 98q21 -21 66 -39q46 -17 78 -17q34 0 34 20zM230 488h-4l-165 136l70 88l98 -81l100 79l67 -87z" />
    <glyph glyph-name="Tcedilla" unicode="&#x162;" 
d="M151 -157l48 74q14 -14 35.5 -25.5t38.5 -11.5q22 0 22 13q0 17 -25 17h-6v90h-44v550h-210v150h580v-150h-210v-550h-41v-26q116 -9 116 -90q0 -43 -39 -68.5t-106 -25.5q-100 0 -159 53z" />
    <glyph glyph-name="tcedilla" unicode="&#x163;" horiz-adv-x="366" 
d="M30 -161l44 69q28 -28 68 -28q22 0 22 13q0 17 -25 17h-6v86q-88 28 -88 175v404h150v-125h125v-140h-125v-132q0 -50 29 -50q32 0 67 26l45 -115q-50 -42 -128 -50v-15q106 -9 106 -90q0 -44 -39 -69t-112 -25q-80 0 -133 49z" />
    <glyph glyph-name="Tcaron" unicode="&#x164;" 
d="M298 733h-4l-184 117l58 85l128 -76l128 76l52 -83zM220 550h-210v150h580v-150h-210v-550h-160v550z" />
    <glyph glyph-name="tcaron" unicode="&#x165;" horiz-adv-x="366" 
d="M45 171v404h150v-125h125v-140h-125v-132q0 -50 29 -50q32 0 67 26l45 -115q-58 -51 -151 -51q-73 0 -106.5 45.5t-33.5 137.5zM256 700h146q5 -13 5 -32q0 -131 -113 -194l-70 63q43 49 43 113q0 23 -11 50z" />
    <glyph glyph-name="Umacron" unicode="&#x16a;" horiz-adv-x="751" 
d="M511 700h160v-411q0 -151 -82 -226q-81 -75 -204 -75q-140 0 -222 79q-83 80 -83 229v404h160v-370q0 -192 145 -192q67 0 96.5 45t29.5 138v379zM542 750h-314v120h314v-120z" />
    <glyph glyph-name="umacron" unicode="&#x16b;" horiz-adv-x="530" 
d="M325 450h150v-450h-150v45q-45 -57 -129 -57q-62 0 -107 46q-44 47 -44 133v283h150v-251q0 -32 14.5 -51.5t43.5 -19.5q39 0 72 41v281zM407 520h-294v120h294v-120z" />
    <glyph glyph-name="Ubreve" unicode="&#x16c;" horiz-adv-x="751" 
d="M511 700h160v-411q0 -151 -82 -226q-81 -75 -204 -75q-140 0 -222 79q-83 80 -83 229v404h160v-370q0 -192 145 -192q67 0 96.5 45t29.5 138v379zM170 843l64 77q58 -60 143 -60q86 0 140 60l55 -78q-28 -48 -82 -80t-113 -32q-67 0 -123 34q-56 35 -84 79z" />
    <glyph glyph-name="ubreve" unicode="&#x16d;" horiz-adv-x="530" 
d="M325 450h150v-450h-150v45q-45 -57 -129 -57q-62 0 -107 46q-44 47 -44 133v283h150v-251q0 -32 14.5 -51.5t43.5 -19.5q39 0 72 41v281zM93 607l66 75q46 -52 105 -52q68 0 110 50l51 -72q-65 -98 -167 -98q-62 0 -103 31q-43 32 -62 66z" />
    <glyph glyph-name="Uring" unicode="&#x16e;" horiz-adv-x="751" 
d="M220 809q0 58 42 88t113 30q74 0 117 -30t43 -88q0 -57 -44.5 -89t-115.5 -32q-69 0 -112 32.5t-43 88.5zM330 809q0 -41 47 -41q48 0 48 41q0 38 -48 38q-47 0 -47 -38zM511 700h160v-411q0 -151 -82 -226q-81 -75 -204 -75q-140 0 -222 79q-83 80 -83 229v404h160v-370
q0 -192 145 -192q67 0 96.5 45t29.5 138v379z" />
    <glyph glyph-name="uring" unicode="&#x16f;" horiz-adv-x="530" 
d="M123 611q0 53 39 91q40 38 98 38q59 0 99 -38q40 -37 40 -91q0 -53 -40 -90q-38 -37 -99 -37q-60 0 -98 37q-39 37 -39 90zM218 613q0 -21 12 -35t32 -14q19 0 30.5 14t11.5 35q0 20 -11.5 33.5t-30.5 13.5q-20 0 -32 -13t-12 -34zM325 450h150v-450h-150v45
q-45 -57 -129 -57q-62 0 -107 46q-44 47 -44 133v283h150v-251q0 -32 14.5 -51.5t43.5 -19.5q39 0 72 41v281z" />
    <glyph glyph-name="Uhungarumlaut" unicode="&#x170;" horiz-adv-x="751" 
d="M511 700h160v-411q0 -151 -82 -226q-81 -75 -204 -75q-140 0 -222 79q-83 80 -83 229v404h160v-370q0 -192 145 -192q67 0 96.5 45t29.5 138v379zM539 935l106 -94l-204 -113l-61 63zM295 935l130 -65l-167 -142l-64 58z" />
    <glyph glyph-name="uhungarumlaut" unicode="&#x171;" horiz-adv-x="530" 
d="M325 450h150v-450h-150v45q-45 -57 -129 -57q-62 0 -107 46q-44 47 -44 133v283h150v-251q0 -32 14.5 -51.5t43.5 -19.5q39 0 72 41v281zM382 726l111 -84l-140 -139l-89 63zM191 740l108 -80l-116 -157l-89 63z" />
    <glyph glyph-name="Uogonek" unicode="&#x172;" horiz-adv-x="751" 
d="M511 700h160v-411q0 -113 -48.5 -185.5t-134.5 -100.5q-64 -31 -64 -57t30 -26q20 0 40 10l45 -90q-13 -16 -47.5 -28t-72.5 -12q-65 0 -105 24.5t-40 70.5q0 58 78 94q-127 9 -199.5 88.5t-72.5 218.5v404h160v-370q0 -192 145 -192q67 0 96.5 45t29.5 138v379z" />
    <glyph glyph-name="uogonek" unicode="&#x173;" horiz-adv-x="530" 
d="M446 -70l45 -90q-13 -16 -47.5 -28t-72.5 -12q-65 0 -105 24.5t-40 70.5q0 72 99 105v45q-45 -57 -129 -57q-62 0 -107 46q-44 47 -44 133v283h150v-251q0 -32 14.5 -51.5t43.5 -19.5q39 0 72 41v281h150v-450q-40 0 -69.5 -17t-29.5 -37q0 -26 30 -26q20 0 40 10z" />
    <glyph glyph-name="Ydieresis" unicode="&#x178;" horiz-adv-x="654" 
d="M481 700h173l-248 -415v-285h-160v285l-246 415h183l150 -265zM117 837q0 35 27.5 56.5t70.5 21.5q38 0 64.5 -22t26.5 -56q0 -38 -26.5 -61t-64.5 -23q-43 0 -70.5 22.5t-27.5 61.5zM348 837q0 35 28 56.5t70 21.5q38 0 64.5 -22t26.5 -56q0 -38 -26 -61t-65 -23
q-43 0 -70.5 22.5t-27.5 61.5z" />
    <glyph glyph-name="Zacute" unicode="&#x179;" horiz-adv-x="650" 
d="M386 550h-326v150h540v-112l-347 -438h357v-150h-570v112zM471 935l56 -129l-249 -78l-41 89z" />
    <glyph glyph-name="zacute" unicode="&#x17a;" horiz-adv-x="495" 
d="M246 310h-191v140h400v-110l-207 -200h202v-140h-410v110zM266 738l117 -89l-131 -146l-89 63z" />
    <glyph glyph-name="Zdotaccent" unicode="&#x17b;" horiz-adv-x="650" 
d="M386 550h-326v150h540v-112l-347 -438h357v-150h-570v112zM234 845q0 40 29 65t72 25q40 0 68 -25.5t28 -64.5q0 -43 -28 -69.5t-68 -26.5q-44 0 -72.5 26t-28.5 70z" />
    <glyph glyph-name="zdotaccent" unicode="&#x17c;" horiz-adv-x="495" 
d="M246 310h-191v140h400v-110l-207 -200h202v-140h-410v110zM156 605q0 38 26 61.5t65 23.5q35 0 60 -24t25 -61q0 -41 -25 -66t-60 -25q-40 0 -65.5 24.5t-25.5 66.5z" />
    <glyph glyph-name="Zcaron" unicode="&#x17d;" horiz-adv-x="650" 
d="M339 733h-4l-184 117l58 85l128 -76l128 76l52 -83zM386 550h-326v150h540v-112l-347 -438h357v-150h-570v112z" />
    <glyph glyph-name="zcaron" unicode="&#x17e;" horiz-adv-x="495" 
d="M246 310h-191v140h400v-110l-207 -200h202v-140h-410v110zM259 488h-4l-165 136l70 88l98 -81l100 79l67 -87z" />
    <glyph glyph-name="longs" unicode="&#x17f;" horiz-adv-x="260" 
d="M205 0h-150v523q0 91 43 140t121 49q40 0 76.5 -12t54.5 -32l-50 -114q-16 18 -54 18q-18 0 -29.5 -15.5t-11.5 -42.5v-514z" />
    <glyph glyph-name="uni018F" unicode="&#x18f;" horiz-adv-x="783" 
d="M73 432h523q-23 63 -80 96.5t-138 33.5q-84 0 -152 -51l-61 120q93 81 252 81q154 0 253 -100q100 -100 100 -262q0 -167 -99 -265q-97 -97 -262 -97q-168 0 -266 119q-97 119 -70 325zM407 138q157 0 195 144h-363q9 -62 53.5 -103t114.5 -41z" />
    <glyph glyph-name="florin" unicode="&#x192;" 
d="M428 514l-11 -64h89v-140h-113l-59 -343q-18 -94 -51.5 -134.5t-102.5 -40.5q-38 0 -71.5 9.5t-48.5 24.5l39 119q22 -13 44 -13q15 0 26 14t15 35l57 329h-95v140h119l13 73q19 101 57 145t110 44q40 0 76.5 -12t54.5 -32l-50 -114q-16 18 -54 18q-34 0 -44 -58z" />
    <glyph glyph-name="uni01DD" unicode="&#x1dd;" horiz-adv-x="512" 
d="M110 305l-41 106q67 51 175 51q109 0 174 -65q64 -64 64 -172q0 -103 -61 -170t-172 -67q-96 0 -163 59q-66 59 -66 153q0 45 9 75h304q-20 62 -105 62q-66 0 -118 -32zM249 113q66 0 89 62h-162q0 -26 20 -44t53 -18z" />
    <glyph glyph-name="Scommaaccent" unicode="&#x218;" horiz-adv-x="557" 
d="M347 192q0 44 -103 93q-30 13 -52.5 24.5t-50 32t-45 42.5t-30 55t-11.5 71q0 84 62 143t164 59q134 0 206 -77l-86 -120q-29 27 -50.5 37t-55.5 10q-33 0 -51.5 -14t-18.5 -38q0 -27 21.5 -48t54 -34.5t70.5 -33.5t70.5 -42.5t54 -63t21.5 -94.5q0 -90 -69 -148
q-67 -58 -171 -58q-76 0 -144 31q-69 31 -93 84l91 109q27 -35 68 -54.5t82 -19.5q31 0 48.5 14.5t17.5 39.5zM212 -50l149 29q13 -17 13 -48q0 -55 -47 -93q-46 -38 -100 -46l-44 64q41 18 41 58q0 21 -12 36z" />
    <glyph glyph-name="scommaaccent" unicode="&#x219;" horiz-adv-x="459" 
d="M279 133q0 18 -84 38q-30 7 -53.5 16t-48.5 25t-38.5 42.5t-13.5 60.5q0 68 49 107.5t127 39.5q119 0 189 -61l-56 -106q-62 42 -124 42q-15 0 -25 -6t-10 -14q0 -12 24.5 -20t59.5 -16.5t70 -22t59.5 -43.5t24.5 -75q0 -69 -52.5 -110.5t-141.5 -41.5q-66 0 -127 27
q-61 29 -78 56l71 98q21 -21 66 -39q46 -17 78 -17q34 0 34 20zM154 -50l149 29q13 -17 13 -48q0 -55 -47 -93q-46 -38 -100 -46l-44 64q41 18 41 58q0 21 -12 36z" />
    <glyph glyph-name="Tcommaaccent" unicode="&#x21a;" 
d="M220 550h-210v150h580v-150h-210v-550h-160v550zM211 -50l149 29q13 -17 13 -48q0 -55 -47 -93q-46 -38 -100 -46l-44 64q41 18 41 58q0 21 -12 36z" />
    <glyph glyph-name="tcommaaccent" unicode="&#x21b;" horiz-adv-x="366" 
d="M45 171v404h150v-125h125v-140h-125v-132q0 -50 29 -50q32 0 67 26l45 -115q-58 -51 -151 -51q-73 0 -106.5 45.5t-33.5 137.5zM86 -50l149 29q13 -17 13 -48q0 -55 -47 -93q-46 -38 -100 -46l-44 64q41 18 41 58q0 21 -12 36z" />
    <glyph glyph-name="uni0237" unicode="&#x237;" horiz-adv-x="281" 
d="M76 450h150v-483q0 -175 -141 -175q-38 0 -71.5 9.5t-48.5 24.5l39 119q22 -13 44 -13q28 0 28 49v469z" />
    <glyph glyph-name="uni0259" unicode="&#x259;" horiz-adv-x="512" 
d="M110 305l-41 106q67 51 175 51q109 0 174 -65q64 -64 64 -172q0 -103 -61 -170t-172 -67q-96 0 -163 59q-66 59 -66 153q0 45 9 75h304q-20 62 -105 62q-66 0 -118 -32zM249 113q66 0 89 62h-162q0 -26 20 -44t53 -18z" />
    <glyph glyph-name="afii57929" unicode="&#x2bc;" horiz-adv-x="303" 
d="M79 627l126 73q38 -41 38 -105q0 -66 -32 -115.5t-81 -78.5l-70 63q43 40 43 98q0 41 -24 65z" />
    <glyph glyph-name="circumflex" unicode="&#x2c6;" horiz-adv-x="455" 
d="M226 706h4l165 -136l-70 -88l-98 81l-100 -79l-67 87z" />
    <glyph glyph-name="caron" unicode="&#x2c7;" horiz-adv-x="455" 
d="M229 488h-4l-165 136l70 88l98 -81l100 79l67 -87z" />
    <glyph glyph-name="breve" unicode="&#x2d8;" horiz-adv-x="452" 
d="M60 607l66 75q46 -52 105 -52q68 0 110 50l51 -72q-65 -98 -167 -98q-62 0 -103 31q-43 32 -62 66z" />
    <glyph glyph-name="dotaccent" unicode="&#x2d9;" horiz-adv-x="296" 
d="M60 605q0 38 26 61.5t65 23.5q35 0 60 -24t25 -61q0 -41 -25 -66t-60 -25q-40 0 -65.5 24.5t-25.5 66.5z" />
    <glyph glyph-name="ring" unicode="&#x2da;" horiz-adv-x="396" 
d="M60 611q0 53 39 91q40 38 98 38q59 0 99 -38q40 -37 40 -91q0 -53 -40 -90q-38 -37 -99 -37q-60 0 -98 37q-39 37 -39 90zM155 613q0 -21 12 -35t32 -14q19 0 30.5 14t11.5 35q0 20 -11.5 33.5t-30.5 13.5q-20 0 -32 -13t-12 -34z" />
    <glyph glyph-name="ogonek" unicode="&#x2db;" horiz-adv-x="385" 
d="M280 -70l45 -90q-13 -16 -47.5 -28t-72.5 -12q-65 0 -105 24.5t-40 70.5q0 44 40 75q72 55 209 53v-23q-40 0 -69.5 -17t-29.5 -37q0 -26 30 -26q20 0 40 10z" />
    <glyph glyph-name="tilde" unicode="&#x2dc;" horiz-adv-x="485" 
d="M120 519l-60 67q56 78 132 78q23 0 61 -20q37 -19 57 -19t31 5q4 1 10 5l13.5 9t11.5 8l49 -75q-60 -72 -127 -72q-22 0 -59 19q-38 20 -60 20q-16 0 -59 -25z" />
    <glyph glyph-name="hungarumlaut" unicode="&#x2dd;" horiz-adv-x="519" 
d="M348 726l111 -84l-140 -139l-89 63zM157 740l108 -80l-116 -157l-89 63z" />
    <glyph glyph-name="gravecomb" unicode="&#x300;" horiz-adv-x="0" 
d="M-207 566l-89 -63l-133 144l119 89z" />
    <glyph glyph-name="acutecomb" unicode="&#x301;" horiz-adv-x="0" 
d="M-240 738l117 -89l-131 -146l-89 63z" />
    <glyph glyph-name="uni0394" unicode="&#x394;" horiz-adv-x="756" 
d="M736 0h-716l303 708h103zM498 150l-127 290l-119 -290h246z" />
    <glyph glyph-name="uni0394" unicode="&#x2206;" horiz-adv-x="756" 
d="M736 0h-716l303 708h103zM498 150l-127 290l-119 -290h246z" />
    <glyph glyph-name="uni03A9" unicode="&#x3a9;" horiz-adv-x="829" 
d="M381 0h-341v150h144q-44 14 -88 82q-43 68 -43 158q0 148 103 235q104 87 259 87q159 0 260 -87q102 -85 102 -235q0 -95 -44 -160q-43 -63 -88 -80h144v-150h-341v150q73 22 116 83t43 130q0 81 -51 139q-51 60 -141 60q-94 0 -144 -59q-48 -58 -48 -143q0 -61 43 -126
q44 -65 115 -84v-150z" />
    <glyph glyph-name="uni03A9" unicode="&#x2126;" horiz-adv-x="829" 
d="M381 0h-341v150h144q-44 14 -88 82q-43 68 -43 158q0 148 103 235q104 87 259 87q159 0 260 -87q102 -85 102 -235q0 -95 -44 -160q-43 -63 -88 -80h144v-150h-341v150q73 22 116 83t43 130q0 81 -51 139q-51 60 -141 60q-94 0 -144 -59q-48 -58 -48 -143q0 -61 43 -126
q44 -65 115 -84v-150z" />
    <glyph glyph-name="pi" unicode="&#x3c0;" horiz-adv-x="619" 
d="M110 310h-73v140h533v-140h-65v-124q0 -58 25 -58q14 0 39 16l30 -114q-51 -42 -132 -42q-112 0 -112 141v181h-96v-30q0 -169 -53 -230.5t-173 -61.5l-13 146q83 -9 88 126z" />
    <glyph glyph-name="afii10023" unicode="&#x401;" horiz-adv-x="575" 
d="M515 0h-425v700h415v-150h-255v-123h225v-150h-225v-127h265v-150zM100 837q0 35 27.5 56.5t70.5 21.5q38 0 64.5 -22t26.5 -56q0 -38 -26.5 -61t-64.5 -23q-43 0 -70.5 22.5t-27.5 61.5zM331 837q0 35 28 56.5t70 21.5q38 0 64.5 -22t26.5 -56q0 -38 -26 -61t-65 -23
q-43 0 -70.5 22.5t-27.5 61.5z" />
    <glyph glyph-name="afii10051" unicode="&#x402;" horiz-adv-x="767" 
d="M727 203q0 -104 -48.5 -159.5t-136.5 -55.5q-41 0 -78.5 14.5t-53.5 34.5l52 122q28 -21 58 -21q47 0 47 62q0 73 -82 73q-61 0 -105 -26v-247h-160v550h-210v150h580v-150h-210v-157q52 30 135 30q212 0 212 -220z" />
    <glyph glyph-name="afii10052" unicode="&#x403;" horiz-adv-x="510" 
d="M250 0h-160v700h400v-150h-240v-550zM481 935l56 -129l-249 -78l-41 89z" />
    <glyph glyph-name="afii10053" unicode="&#x404;" horiz-adv-x="670" 
d="M212 432h277v-150h-280q20 -70 79 -107t139 -37q95 0 165 58l58 -135q-34 -31 -99.5 -52t-136.5 -21q-173 0 -273 97q-101 98 -101 265q0 161 99 262q100 100 254 100q159 0 252 -81l-71 -120q-68 51 -152 51q-80 0 -134.5 -33.5t-75.5 -96.5z" />
    <glyph glyph-name="afii10054" unicode="&#x405;" horiz-adv-x="557" 
d="M347 192q0 44 -103 93q-30 13 -52.5 24.5t-50 32t-45 42.5t-30 55t-11.5 71q0 84 62 143t164 59q134 0 206 -77l-86 -120q-29 27 -50.5 37t-55.5 10q-33 0 -51.5 -14t-18.5 -38q0 -27 21.5 -48t54 -34.5t70.5 -33.5t70.5 -42.5t54 -63t21.5 -94.5q0 -90 -69 -148
q-67 -58 -171 -58q-76 0 -144 31q-69 31 -93 84l91 109q27 -35 68 -54.5t82 -19.5q31 0 48.5 14.5t17.5 39.5z" />
    <glyph glyph-name="afii10055" unicode="&#x406;" horiz-adv-x="360" 
d="M260 0h-160v700h160v-700z" />
    <glyph glyph-name="afii10056" unicode="&#x407;" horiz-adv-x="360" 
d="M10 837q0 35 23.5 56.5t59.5 21.5q34 0 57 -21.5t23 -56.5q0 -38 -23 -61t-57 -23q-36 0 -59.5 22.5t-23.5 61.5zM188 837q0 35 23.5 56.5t60.5 21.5q33 0 56 -22t23 -56q0 -38 -22.5 -61t-56.5 -23q-37 0 -60.5 22.5t-23.5 61.5zM260 0h-160v700h160v-700z" />
    <glyph glyph-name="afii10057" unicode="&#x408;" horiz-adv-x="407" 
d="M157 700h160v-529q0 -89 -48 -136t-137 -47q-41 0 -78.5 14.5t-53.5 34.5l52 122q29 -21 58 -21q47 0 47 62v500z" />
    <glyph glyph-name="afii10058" unicode="&#x409;" horiz-adv-x="999" 
d="M483 0v550h-154l-15 -132q-21 -182 -59.5 -278.5t-93 -125.5t-141.5 -14l3 160q22 -4 36.5 0.5t31.5 24.5q17 21 31 63q31 90 47 312l10 140h464v-219q28 4 61 4q124 0 189.5 -62t65.5 -174q0 -117 -76.5 -184t-212.5 -67q-62 0 -106 1q-43 1 -81 1zM690 335
q-12 0 -47 -5v-178q31 -4 46 -4q100 0 100 97q0 44 -26 67t-73 23z" />
    <glyph glyph-name="afii10059" unicode="&#x40a;" horiz-adv-x="1012" 
d="M250 0h-160v700h160v-246h245v246h160v-239q29 4 62 4q123 0 189 -60.5t66 -165.5q0 -107 -77 -175q-76 -66 -212 -66q-49 0 -86 1q-36 1 -73 1h-29v304h-245v-304zM655 310v-158q32 -4 47 -4q49 0 74.5 22.5t25.5 64.5q0 38 -26.5 59t-72.5 21q-11 0 -48 -5z" />
    <glyph glyph-name="afii10060" unicode="&#x40b;" horiz-adv-x="768" 
d="M220 550h-210v150h580v-150h-210v-157q52 30 133 30q88 0 151.5 -53.5t63.5 -169.5v-200h-160v152q0 66 -25 93.5t-73 27.5q-46 0 -90 -27v-246h-160v550z" />
    <glyph glyph-name="afii10061" unicode="&#x40c;" horiz-adv-x="692" 
d="M250 0h-160v700h160v-305l229 305h192l-263 -323l284 -377h-203l-239 333v-333zM541 935l56 -129l-249 -78l-41 89z" />
    <glyph glyph-name="afii10062" unicode="&#x40e;" horiz-adv-x="701" 
d="M530 700h161l-235 -534q-37 -85 -86.5 -125.5t-118.5 -40.5q-29 0 -60 9.5t-46 21.5l56 136q26 -17 49 -17q39 0 52 28l9 21l-301 501h181l197 -342zM154 880h150q0 -28 14 -39t48 -11q32 0 45 10.5t13 39.5h150q2 -72 -57 -116q-58 -44 -151 -44q-99 0 -155.5 43.5
t-56.5 116.5z" />
    <glyph glyph-name="afii10145" unicode="&#x40f;" horiz-adv-x="735" 
d="M292 0h-202v700h160v-550h235v550h160v-700h-203v-150h-150v150z" />
    <glyph glyph-name="afii10017" unicode="&#x410;" horiz-adv-x="725" 
d="M161 0h-161l291 700h143l291 -700h-171l-58 147h-277zM436 297l-78 198l-79 -198h157z" />
    <glyph glyph-name="afii10018" unicode="&#x411;" horiz-adv-x="617" 
d="M90 0v700h422v-150h-262v-111q29 6 80 6q102 0 164 -59q63 -59 63 -157q0 -111 -71.5 -172.5t-200.5 -61.5q-53 0 -117 3q-18 0 -36.5 0.5t-28 1t-13.5 0.5zM317 295q-31 0 -67 -6v-139q48 -5 60 -5q87 0 87 72q0 35 -20 56.5t-60 21.5z" />
    <glyph glyph-name="afii10019" unicode="&#x412;" horiz-adv-x="617" 
d="M90 2v696q117 6 212 6q116 0 175.5 -46.5t59.5 -127.5q0 -103 -80 -156v-2q45 -17 72.5 -58t27.5 -102q0 -105 -74 -161q-73 -55 -192 -55q-139 0 -201 6zM312 283h-62v-131q22 -6 54 -6q93 0 93 74q0 63 -85 63zM300 554q-18 0 -50 -4v-127h53q74 0 74 68q0 29 -22 46
t-55 17z" />
    <glyph glyph-name="afii10020" unicode="&#x413;" horiz-adv-x="510" 
d="M250 0h-160v700h400v-150h-240v-550z" />
    <glyph glyph-name="afii10021" unicode="&#x414;" horiz-adv-x="764" 
d="M160 -120h-150v270h75q30 40 61 147q32 109 40 263l6 140h457v-550h95v-270h-150v120h-434v-120zM347 550l-11 -118q-7 -84 -32 -172q-24 -85 -43 -110h228v400h-142z" />
    <glyph glyph-name="afii10022" unicode="&#x415;" horiz-adv-x="575" 
d="M515 0h-425v700h415v-150h-255v-123h225v-150h-225v-127h265v-150z" />
    <glyph glyph-name="afii10024" unicode="&#x416;" horiz-adv-x="974" 
d="M0 0l254 365l-243 335h184l212 -306v306h160v-306l212 306h184l-243 -334l254 -366h-184l-223 335v-335h-160v335l-223 -335h-184z" />
    <glyph glyph-name="afii10025" unicode="&#x417;" horiz-adv-x="592" 
d="M281 -12q-169 0 -251 126l87 109q76 -85 157 -85q42 0 70 18.5t28 55.5q0 33 -28 52t-81 19h-64v150h60q38 0 62 17t24 47q0 32 -20.5 48.5t-56.5 16.5q-72 0 -124 -73l-92 108q36 52 99.5 83.5t137.5 31.5q98 0 157 -52.5t59 -144.5q0 -91 -88 -149v-3q115 -36 115 -167
q0 -93 -76 -151q-76 -57 -175 -57z" />
    <glyph glyph-name="afii10026" unicode="&#x418;" horiz-adv-x="790" 
d="M540 435l-310 -435h-140v700h160v-435l310 435h140v-700h-160v435z" />
    <glyph glyph-name="afii10027" unicode="&#x419;" horiz-adv-x="790" 
d="M540 435l-310 -435h-140v700h160v-435l310 435h140v-700h-160v435zM200 880h150q0 -28 14 -39t48 -11q32 0 45 10.5t13 39.5h150q2 -72 -57 -116q-58 -44 -151 -44q-99 0 -155.5 43.5t-56.5 116.5z" />
    <glyph glyph-name="afii10028" unicode="&#x41a;" horiz-adv-x="692" 
d="M250 0h-160v700h160v-305l229 305h192l-263 -323l284 -377h-203l-239 333v-333z" />
    <glyph glyph-name="afii10029" unicode="&#x41b;" horiz-adv-x="733" 
d="M643 0h-160v550h-154l-15 -132q-21 -182 -59.5 -278.5t-93 -125.5t-141.5 -14l3 160q22 -4 36.5 0.5t31.5 24.5q17 21 31 63q31 90 47 312l10 140h464v-700z" />
    <glyph glyph-name="afii10030" unicode="&#x41c;" horiz-adv-x="912" 
d="M250 0h-160v700h161l216 -295l204 295h151v-700h-160v446l-195 -273h-23l-194 270v-443z" />
    <glyph glyph-name="afii10031" unicode="&#x41d;" horiz-adv-x="755" 
d="M665 0h-160v282h-255v-282h-160v700h160v-268h255v268h160v-700z" />
    <glyph glyph-name="afii10032" unicode="&#x41e;" horiz-adv-x="824" 
d="M40 350q0 155 103 258q104 104 269 104q164 0 267 -99q105 -99 105 -263q0 -158 -106 -260q-105 -102 -266 -102q-163 0 -268 99q-104 99 -104 263zM210 350q0 -89 59 -151q58 -61 143 -61q96 0 149 59q53 61 53 153q0 95 -58 153q-59 59 -144 59q-88 0 -145 -59
t-57 -153z" />
    <glyph glyph-name="afii10033" unicode="&#x41f;" horiz-adv-x="745" 
d="M655 0h-160v550h-245v-550h-160v700h565v-700z" />
    <glyph glyph-name="afii10034" unicode="&#x420;" horiz-adv-x="627" 
d="M250 238v-238h-160v700q46 0 101 1q56 1 113 1q148 0 216 -66q67 -64 67 -166q0 -98 -71 -167q-71 -68 -188 -68q-52 0 -78 3zM320 552q-1 0 -9 -0.5t-25 -1t-36 -0.5v-160q42 -5 73 -5q41 0 67.5 21.5t26.5 64.5q0 81 -97 81z" />
    <glyph glyph-name="afii10035" unicode="&#x421;" horiz-adv-x="655" 
d="M574 189l61 -120q-32 -36 -95 -59q-62 -22 -133 -22q-163 0 -265 99q-102 101 -102 263q0 158 96 260t270 102q66 0 123 -20t91 -53l-71 -120q-70 43 -143 43q-85 0 -141 -56q-55 -55 -55 -156q0 -92 59 -153q59 -59 153 -59q84 0 152 51z" />
    <glyph glyph-name="afii10036" unicode="&#x422;" 
d="M220 550h-210v150h580v-150h-210v-550h-160v550z" />
    <glyph glyph-name="afii10037" unicode="&#x423;" horiz-adv-x="701" 
d="M530 700h161l-235 -534q-37 -85 -86.5 -125.5t-118.5 -40.5q-29 0 -60 9.5t-46 21.5l56 136q26 -17 49 -17q39 0 52 28l9 21l-301 501h181l197 -342z" />
    <glyph glyph-name="afii10038" unicode="&#x424;" horiz-adv-x="844" 
d="M501 -8h-160v94q-142 1 -227 73q-84 72 -84 201q0 128 85 198q85 71 226 76v74h160v-74q141 -3 226 -76q87 -74 87 -198q0 -128 -86 -200q-86 -73 -227 -74v-94zM644 360q0 57 -35.5 91t-107.5 36v-254q76 1 109.5 32t33.5 95zM200 360q0 -124 141 -127v254
q-70 -2 -105.5 -36t-35.5 -91z" />
    <glyph glyph-name="afii10039" unicode="&#x425;" horiz-adv-x="674" 
d="M477 700h188l-224 -343l233 -357h-188l-150 235l-148 -235h-188l233 357l-222 343h188l142 -225z" />
    <glyph glyph-name="afii10040" unicode="&#x426;" horiz-adv-x="765" 
d="M595 0h-505v700h160v-550h240v550h160v-550h95v-270h-150v120z" />
    <glyph glyph-name="afii10041" unicode="&#x427;" horiz-adv-x="685" 
d="M435 700h160v-700h-160v268q-53 -41 -150 -41q-88 0 -151.5 53.5t-63.5 169.5v250h160v-202q0 -66 25 -93.5t73 -27.5q57 0 107 37v286z" />
    <glyph glyph-name="afii10042" unicode="&#x428;" horiz-adv-x="1000" 
d="M910 0h-820v700h160v-550h170v550h160v-550h170v550h160v-700z" />
    <glyph glyph-name="afii10043" unicode="&#x429;" horiz-adv-x="1025" 
d="M855 0h-765v700h160v-550h170v550h160v-550h170v550h160v-550h95v-270h-150v120z" />
    <glyph glyph-name="afii10044" unicode="&#x42a;" horiz-adv-x="677" 
d="M150 550h-140v150h300v-219q29 4 62 4q131 0 198 -61.5t67 -174.5q0 -116 -78.5 -183.5t-220.5 -67.5q-62 0 -106 1q-43 1 -82 1v550zM358 335q-11 0 -48 -5v-178q32 -4 47 -4q110 0 110 97q0 90 -109 90z" />
    <glyph glyph-name="afii10045" unicode="&#x42b;" horiz-adv-x="885" 
d="M795 0h-160v700h160v-700zM298 335q-11 0 -48 -5v-178q32 -4 47 -4q100 0 100 97q0 44 -26 67t-73 23zM90 700h160v-219q29 4 62 4q124 0 189.5 -62t65.5 -174q0 -114 -76 -183q-77 -68 -213 -68q-62 0 -106 1q-43 1 -82 1v700z" />
    <glyph glyph-name="afii10046" unicode="&#x42c;" horiz-adv-x="617" 
d="M298 335q-11 0 -48 -5v-178q32 -4 47 -4q110 0 110 97q0 90 -109 90zM90 700h160v-219q29 4 62 4q131 0 198 -61.5t67 -174.5q0 -116 -78.5 -183.5t-220.5 -67.5q-62 0 -106 1q-43 1 -82 1v700z" />
    <glyph glyph-name="afii10047" unicode="&#x42d;" horiz-adv-x="670" 
d="M462 282h-281v150h275q-23 63 -80 96.5t-138 33.5q-84 0 -152 -51l-61 120q93 81 252 81q154 0 253 -100q100 -100 100 -262q0 -167 -101 -265q-100 -97 -273 -97q-71 0 -136.5 21t-99.5 52l68 135q70 -58 165 -58q78 0 134.5 37t74.5 107z" />
    <glyph glyph-name="afii10048" unicode="&#x42e;" horiz-adv-x="1084" 
d="M250 0h-160v700h160v-268h88q26 126 117 202q91 78 227 78q162 0 262 -99q100 -97 100 -263q0 -158 -101 -261q-101 -101 -261 -101q-132 0 -229 79t-118 215h-85v-282zM500 350q0 -90 55 -151t132 -61q93 0 140 57t47 155q0 96 -51 154t-136 58q-81 0 -134 -59t-53 -153
z" />
    <glyph glyph-name="afii10049" unicode="&#x42f;" horiz-adv-x="643" 
d="M553 0h-160v225h-71l-133 -225h-179l164 260q-108 64 -108 191q0 109 74 181q73 72 227 72q7 0 19 -0.5t34.5 -1t40.5 -0.5q19 0 41 -0.5t33.5 -1t17.5 -0.5v-700zM309 375h84v175q-17 4 -58 4q-42 0 -70.5 -25.5t-28.5 -66.5q0 -35 20 -57.5t53 -29.5z" />
    <glyph glyph-name="afii10065" unicode="&#x430;" horiz-adv-x="465" 
d="M103 309l-37 109q72 44 167 44q98 0 142.5 -47t44.5 -144v-271h-130v41q-33 -47 -118 -47q-64 0 -103 38t-39 104q0 71 44.5 110t117.5 39q57 0 88 -25q5 77 -62 77q-46 0 -115 -28zM223 119q40 0 57 23v28q-21 15 -57 15q-19 0 -31 -9t-12 -25q0 -15 12 -23.5t31 -8.5z
" />
    <glyph glyph-name="afii10066" unicode="&#x431;" horiz-adv-x="544" 
d="M383 712l78 -124q-30 -31 -62 -44q-16 -6 -70.5 -21.5t-75.5 -26.5q-67 -36 -78 -119h2q21 27 59 45t79 18q89 0 144 -60q55 -58 55 -159q0 -99 -66 -166t-174 -67q-117 0 -183 78t-66 211q0 285 173 362q34 15 75 24q46 11 68.5 20.5t41.5 28.5zM185 245q1 -50 24 -83.5
t61 -33.5q52 -4 74 41t1.5 90t-69.5 41q-66 0 -91 -55z" />
    <glyph glyph-name="afii10067" unicode="&#x432;" horiz-adv-x="511" 
d="M55 0v450q8 0 82.5 3t110.5 3q213 0 213 -120q0 -38 -23.5 -65.5t-55.5 -32.5v-2q42 -12 65.5 -38.5t23.5 -62.5q0 -141 -222 -141q-30 0 -103 3q-72 3 -91 3zM253 180h-48v-62q39 -4 61 -4q20 0 33 9.5t13 22.5q0 34 -59 34zM262 336q-39 0 -57 -3v-63h50q47 0 47 34
q0 13 -11 22.5t-29 9.5z" />
    <glyph glyph-name="afii10068" unicode="&#x433;" horiz-adv-x="385" 
d="M205 0h-150v450h320v-140h-170v-310z" />
    <glyph glyph-name="afii10069" unicode="&#x434;" horiz-adv-x="574" 
d="M150 -100h-140v240h58q49 64 58 213l6 97h357v-310h75v-240h-140v100h-274v-100zM272 310l-2 -18q-12 -101 -45 -152h114v170h-67z" />
    <glyph glyph-name="afii10070" unicode="&#x435;" horiz-adv-x="512" 
d="M408 145l41 -106q-68 -51 -175 -51q-110 0 -178 65q-66 65 -66 172q0 102 67 169q68 68 177 68q89 0 154 -60q64 -58 64 -152q0 -45 -9 -75h-298q20 -62 105 -62q66 0 118 32zM269 337q-66 0 -89 -62h162q0 26 -20 44t-53 18z" />
    <glyph glyph-name="afii10072" unicode="&#x436;" horiz-adv-x="739" 
d="M0 0l141 231l-132 219h181l103 -200v200h150v-201l107 201h177l-132 -219l144 -231h-177l-119 213v-213h-150v212l-116 -212h-177z" />
    <glyph glyph-name="afii10073" unicode="&#x437;" horiz-adv-x="479" 
d="M226 -12q-63 0 -123 23q-58 24 -83 58l76 92q18 -21 53 -37t65 -16q65 0 65 32q0 34 -48 34h-86v100h81q21 0 32 10t11 26q0 32 -58 32q-54 0 -115 -52l-62 90q67 82 206 82q91 0 140 -34.5t49 -97.5q0 -32 -22.5 -58.5t-59.5 -38.5v-2q92 -21 92 -106q0 -63 -58 -100
t-155 -37z" />
    <glyph glyph-name="afii10074" unicode="&#x438;" horiz-adv-x="570" 
d="M365 235l-160 -235h-150v450h150v-235l160 235h150v-450h-150v235z" />
    <glyph glyph-name="afii10075" unicode="&#x439;" horiz-adv-x="570" 
d="M365 235l-160 -235h-150v450h150v-235l160 235h150v-450h-150v235zM117 670h130q0 -58 42 -58q38 0 38 58h130q0 -76 -44.5 -123t-123.5 -47q-85 0 -128.5 45.5t-43.5 124.5z" />
    <glyph glyph-name="afii10076" unicode="&#x43a;" horiz-adv-x="533" 
d="M205 0h-150v450h150v-208l122 208h188l-146 -214l168 -236h-194l-138 210v-210z" />
    <glyph glyph-name="afii10077" unicode="&#x43b;" horiz-adv-x="545" 
d="M490 0h-150v300h-79l-2 -20q-14 -122 -37.5 -182t-65.5 -84t-123 -26l-13 146q39 -4 64 39.5t30 136.5l7 140h369v-450z" />
    <glyph glyph-name="afii10078" unicode="&#x43c;" horiz-adv-x="636" 
d="M205 0h-150v450h135l135 -153l125 153h131v-450h-150v221l-109 -125h-3l-114 125v-221z" />
    <glyph glyph-name="afii10079" unicode="&#x43d;" horiz-adv-x="555" 
d="M500 0h-150v155h-145v-155h-150v450h150v-155h145v155h150v-450z" />
    <glyph glyph-name="afii10080" unicode="&#x43e;" horiz-adv-x="560" 
d="M98 55q-68 68 -68 170t68 170q68 67 182 67t181 -67q69 -67 69 -170t-69 -170q-67 -67 -181 -67t-182 67zM190 225q0 -42 25.5 -69.5t64.5 -27.5q40 0 65 26.5t25 70.5q0 42 -25.5 69.5t-64.5 27.5t-64.5 -26.5t-25.5 -70.5z" />
    <glyph glyph-name="afii10081" unicode="&#x43f;" horiz-adv-x="550" 
d="M495 0h-150v310h-140v-310h-150v450h440v-450z" />
    <glyph glyph-name="afii10082" unicode="&#x440;" horiz-adv-x="561" 
d="M205 -200h-150v650h150v-34q46 46 125 46q89 0 145 -65t56 -165q0 -105 -67 -175q-68 -69 -175 -69q-50 0 -84 14v-202zM283 322q-42 0 -78 -40v-137q29 -17 70 -17q46 0 71 27.5t25 73.5q0 42 -23.5 67.5t-64.5 25.5z" />
    <glyph glyph-name="afii10083" unicode="&#x441;" horiz-adv-x="485" 
d="M391 178l70 -110q-59 -80 -184 -80q-112 0 -180 65q-67 64 -67 172q0 101 66 168q68 69 172 69q123 0 184 -64l-69 -118q-42 42 -96 42q-40 0 -68.5 -27t-28.5 -70t30 -70q32 -27 69 -27q55 0 102 50z" />
    <glyph glyph-name="afii10084" unicode="&#x442;" horiz-adv-x="450" 
d="M150 300h-130v150h410v-150h-130v-300h-150v300z" />
    <glyph glyph-name="afii10085" unicode="&#x443;" horiz-adv-x="516" 
d="M345 450h171l-175 -450q-48 -118 -86 -159t-91 -41q-57 0 -107 42l48 113q23 -16 43 -16q28 0 43 37l10 24l-201 450h181l77 -206q8 -22 17 -62q5 45 11 63z" />
    <glyph glyph-name="afii10086" unicode="&#x444;" horiz-adv-x="700" 
d="M425 -200h-150v188h-1q-116 0 -180 66q-64 67 -64 171q0 99 64 167q64 70 179 70h2v238h150v-238h3q116 0 179 -67q63 -66 63 -170q0 -109 -62 -173t-180 -64h-3v-188zM190 225q0 -96 85 -97v194h-3q-82 0 -82 -97zM428 322h-3v-194q85 0 85 97q0 44 -21 70.5t-61 26.5z
" />
    <glyph glyph-name="afii10087" unicode="&#x445;" horiz-adv-x="537" 
d="M344 450h173l-140 -214l150 -236h-183l-78 142l-83 -142h-173l149 228l-139 222h183l69 -128z" />
    <glyph glyph-name="afii10088" unicode="&#x446;" horiz-adv-x="570" 
d="M420 0h-365v450h150v-310h130v310h150v-310h75v-240h-140v100z" />
    <glyph glyph-name="afii10089" unicode="&#x447;" horiz-adv-x="500" 
d="M295 450h150v-450h-150v136q-42 -19 -100 -19q-86 0 -125.5 45t-39.5 136v152h160v-132q0 -61 48 -61q38 0 57 10v183z" />
    <glyph glyph-name="afii10090" unicode="&#x448;" horiz-adv-x="740" 
d="M685 0h-630v450h150v-310h90v310h150v-310h90v310h150v-450z" />
    <glyph glyph-name="afii10091" unicode="&#x449;" horiz-adv-x="770" 
d="M620 0h-565v450h150v-310h90v310h150v-310h90v310h150v-310h75v-240h-140v100z" />
    <glyph glyph-name="afii10092" unicode="&#x44a;" horiz-adv-x="552" 
d="M125 310h-105v140h255v-105h52q108 0 157 -47q48 -46 48 -115q0 -75 -53 -130q-53 -53 -163 -53h-191v310zM314 225h-39v-95h38q59 0 59 47q0 48 -58 48z" />
    <glyph glyph-name="afii10093" unicode="&#x44b;" horiz-adv-x="705" 
d="M241 0h-186v450h150v-105h47q108 0 157 -47q48 -46 48 -115q0 -75 -53 -130q-53 -53 -163 -53zM650 0h-150v450h150v-450zM239 225h-34v-95h33q59 0 59 47q0 48 -58 48z" />
    <glyph glyph-name="afii10094" unicode="&#x44c;" horiz-adv-x="482" 
d="M246 0h-191v450h150v-105h52q108 0 157 -47q48 -46 48 -115q0 -75 -53 -130q-53 -53 -163 -53zM244 225h-39v-95h38q59 0 59 47q0 48 -58 48z" />
    <glyph glyph-name="afii10095" unicode="&#x44d;" horiz-adv-x="496" 
d="M309 177h-180v100h177q-22 55 -94 55q-56 0 -120 -40l-61 104q31 31 80.5 48.5t97.5 17.5q120 0 188.5 -64t68.5 -173q0 -103 -66 -170q-64 -67 -182 -67q-124 0 -193 72l70 98q44 -40 114 -40q82 0 100 59z" />
    <glyph glyph-name="afii10096" unicode="&#x44e;" horiz-adv-x="785" 
d="M215 0h-160v450h160v-145h61q22 73 82.5 115t146.5 42q113 0 181 -67q69 -67 69 -170t-70 -170q-68 -67 -180 -67q-89 0 -150 45t-82 122h-58v-155zM435 225q0 -41 20.5 -64t54.5 -23t54.5 23t20.5 64t-19.5 64t-55.5 23q-34 0 -54.5 -23t-20.5 -64z" />
    <glyph glyph-name="afii10097" unicode="&#x44f;" horiz-adv-x="503" 
d="M293 450h155v-450h-150v115h-36l-71 -115h-171l107 148q-75 40 -75 133q0 78 61 123.5t180 45.5zM212 269q0 -18 17 -31t42 -13h27v95h-29q-24 0 -40.5 -15.5t-16.5 -35.5z" />
    <glyph glyph-name="afii10071" unicode="&#x451;" horiz-adv-x="512" 
d="M408 145l41 -106q-68 -51 -175 -51q-110 0 -178 65q-66 65 -66 172q0 102 67 169q68 68 177 68q89 0 154 -60q64 -58 64 -152q0 -45 -9 -75h-298q20 -62 105 -62q66 0 118 32zM269 337q-66 0 -89 -62h162q0 26 -20 44t-53 18zM97 589q0 36 23 58.5t59 22.5
q31 0 53.5 -22.5t22.5 -58.5q0 -39 -22 -62.5t-54 -23.5q-36 0 -59 23.5t-23 62.5zM290 589q0 36 23.5 58.5t58.5 22.5q32 0 54 -22.5t22 -58.5q0 -39 -22 -62.5t-54 -23.5q-36 0 -59 23.5t-23 62.5z" />
    <glyph glyph-name="afii10099" unicode="&#x452;" horiz-adv-x="584" 
d="M115 405h-105v120h105v175h150v-175h136v-120h-136v-86q43 39 111 39q86 0 134.5 -47.5t48.5 -140.5q0 -125 -43.5 -219t-114.5 -151h-158q165 154 165 333q0 41 -18.5 63t-52.5 22q-43 0 -72 -29v-189h-150v405z" />
    <glyph glyph-name="afii10100" unicode="&#x453;" horiz-adv-x="385" 
d="M205 0h-150v450h320v-140h-170v-310zM259 738l117 -89l-131 -146l-89 63z" />
    <glyph glyph-name="afii10101" unicode="&#x454;" horiz-adv-x="496" 
d="M189 277h178v-100h-179q23 -59 109 -59q60 0 104 40l70 -98q-35 -37 -77 -54.5t-106 -17.5q-123 0 -190 67q-68 68 -68 170q0 109 68.5 173t188.5 64q48 0 97.5 -17.5t80.5 -48.5l-61 -104q-52 40 -120 40q-73 0 -95 -55z" />
    <glyph glyph-name="afii10102" unicode="&#x455;" horiz-adv-x="459" 
d="M279 133q0 18 -84 38q-30 7 -53.5 16t-48.5 25t-38.5 42.5t-13.5 60.5q0 68 49 107.5t127 39.5q119 0 189 -61l-56 -106q-62 42 -124 42q-15 0 -25 -6t-10 -14q0 -12 24.5 -20t59.5 -16.5t70 -22t59.5 -43.5t24.5 -75q0 -69 -52.5 -110.5t-141.5 -41.5q-66 0 -127 27
q-61 29 -78 56l71 98q21 -21 66 -39q46 -17 78 -17q34 0 34 20z" />
    <glyph glyph-name="afii10103" unicode="&#x456;" horiz-adv-x="286" 
d="M218 0h-150v450h150v-450zM55 605q0 38 26 61.5t65 23.5q35 0 60 -24t25 -61q0 -41 -25 -66t-60 -25q-40 0 -65.5 24.5t-25.5 66.5z" />
    <glyph glyph-name="afii10104" unicode="&#x457;" horiz-adv-x="337" 
d="M15 586q0 32 20.5 51.5t53.5 19.5q28 0 48 -20t20 -51q0 -33 -20 -54t-48 -21q-33 0 -53.5 20t-20.5 55zM180 586q0 32 21.5 51.5t52.5 19.5q28 0 48 -19.5t20 -51.5q0 -33 -20 -54t-48 -21q-32 0 -53 20.5t-21 54.5zM243 0h-150v450h150v-450z" />
    <glyph glyph-name="afii10105" unicode="&#x458;" horiz-adv-x="281" 
d="M76 450h150v-483q0 -175 -141 -175q-38 0 -71.5 9.5t-48.5 24.5l39 119q22 -13 44 -13q28 0 28 49v469zM64 605q0 38 26 61.5t65 23.5q35 0 60 -24t25 -61q0 -41 -25 -66t-60 -25q-40 0 -65.5 24.5t-25.5 66.5z" />
    <glyph glyph-name="afii10106" unicode="&#x459;" horiz-adv-x="743" 
d="M507 0h-167v300h-79l-2 -20q-14 -122 -37.5 -182t-65.5 -84t-123 -26l-13 146q39 -4 64 39.5t30 136.5l7 140h369v-105h28q108 0 157 -47q48 -46 48 -115q0 -75 -53 -130q-53 -53 -163 -53zM505 225h-15v-95h14q59 0 59 47q0 48 -58 48z" />
    <glyph glyph-name="afii10107" unicode="&#x45a;" horiz-adv-x="753" 
d="M517 0h-167v155h-145v-155h-150v450h150v-155h145v155h150v-105h28q108 0 157 -47q48 -46 48 -115q0 -75 -53 -130q-53 -53 -163 -53zM515 225h-15v-95h14q59 0 59 47q0 48 -58 48z" />
    <glyph glyph-name="afii10108" unicode="&#x45b;" horiz-adv-x="584" 
d="M115 405h-105v120h105v175h150v-175h136v-120h-136v-86q43 39 111 39q87 0 135 -48.5t48 -145.5v-164h-150v145q0 33 -20 53t-52 20q-43 0 -72 -29v-189h-150v405z" />
    <glyph glyph-name="afii10109" unicode="&#x45c;" horiz-adv-x="533" 
d="M205 0h-150v450h150v-208l122 208h188l-146 -214l168 -236h-194l-138 210v-210zM285 738l117 -89l-131 -146l-89 63z" />
    <glyph glyph-name="afii10110" unicode="&#x45e;" horiz-adv-x="516" 
d="M345 450h171l-175 -450q-48 -118 -86 -159t-91 -41q-57 0 -107 42l48 113q23 -16 43 -16q28 0 43 37l10 24l-201 450h181l77 -206q8 -22 17 -62q5 45 11 63zM95 670h130q0 -58 42 -58q38 0 38 58h130q0 -76 -44.5 -123t-123.5 -47q-85 0 -128.5 45.5t-43.5 124.5z" />
    <glyph glyph-name="afii10193" unicode="&#x45f;" horiz-adv-x="540" 
d="M200 0h-145v450h150v-310h130v310h150v-450h-145v-110h-140v110z" />
    <glyph glyph-name="afii10146" unicode="&#x462;" horiz-adv-x="657" 
d="M130 700h160v-60h137v-150h-137v-49q29 4 62 4q265 0 265 -216q0 -113 -76.5 -172t-222.5 -59q-62 0 -106 1q-43 1 -82 1v490h-110v150h110v60zM338 295q-11 0 -48 -5v-138q32 -4 47 -4q61 0 85.5 15.5t24.5 61.5q0 31 -17 48q-15 15 -33.5 18.5t-58.5 3.5z" />
    <glyph glyph-name="afii10194" unicode="&#x463;" horiz-adv-x="527" 
d="M115 330h-105v120h105v250h150v-250h124v-120h-124v-25h37q205 0 205 -142q0 -76 -54 -119.5t-162 -43.5h-176v330zM289 195h-24v-75h23q31 0 45 8t14 29t-13.5 29.5t-44.5 8.5z" />
    <glyph glyph-name="afii10147" unicode="&#x472;" horiz-adv-x="824" 
d="M40 350q0 155 103 258q104 104 269 104q164 0 267 -99q105 -99 105 -263q0 -158 -106 -260q-105 -102 -266 -102q-163 0 -268 99q-104 99 -104 263zM320 320q-46 0 -98 -43q21 -63 73 -101t117 -38q74 0 124 37.5t68 102.5q-52 -24 -91 -24q-42 0 -102 33q-59 33 -91 33z
M524 394q40 0 79 30q-20 63 -72 100.5t-119 37.5t-117 -34.5t-72 -95.5q53 28 97 28q42 0 103 -33t101 -33z" />
    <glyph glyph-name="afii10195" unicode="&#x473;" horiz-adv-x="580" 
d="M100 54q-70 67 -70 171t70 170q70 67 190 67t190 -67q70 -66 70 -170t-70 -171q-71 -66 -190 -66q-120 0 -190 66zM353 254q27 0 40 16q-12 35 -40 53.5t-63 18.5q-76 0 -102 -66q28 19 50 19q31 0 67 -21q37 -20 48 -20zM232 195q-24 0 -44 -20q12 -32 39.5 -49.5
t62.5 -17.5q80 0 102 67q-27 -21 -58 -21q-30 0 -59 20q-28 21 -43 21z" />
    <glyph glyph-name="afii10148" unicode="&#x474;" horiz-adv-x="664" 
d="M578 495l-185 -495h-123l-280 700h171l176 -462l112 330q10 29 19.5 49t23.5 39.5t31 31t40 18t53 5t68 -10.5l-21 -140q-34 11 -50.5 -2.5t-34.5 -62.5z" />
    <glyph glyph-name="afii10196" unicode="&#x475;" horiz-adv-x="499" 
d="M411 248l-104 -248h-113l-204 450h178l58 -142q19 -48 30 -104q7 44 29 105l11 30q22 59 48 86q54 54 175 23l-21 -140q-35 12 -51 -0.5t-36 -59.5z" />
    <glyph glyph-name="afii10050" unicode="&#x490;" horiz-adv-x="510" 
d="M250 0h-160v700h250v110h150v-260h-240v-550z" />
    <glyph glyph-name="afii10098" unicode="&#x491;" horiz-adv-x="385" 
d="M205 0h-150v450h180v90h140v-230h-170v-310z" />
    <glyph glyph-name="uni1E9E" unicode="&#x1e9e;" horiz-adv-x="704" 
d="M484 195q0 13 -6 26t-21 26.5t-27 23.5t-38.5 25t-40 22.5t-45.5 24.5l-22 11l130 171q-8 16 -30.5 26.5t-47.5 10.5q-86 0 -86 -100v-462h-160v449q0 133 65.5 198t187.5 65q71 0 144 -39t120 -111l-133 -159q75 -33 127 -94q53 -62 53 -139q0 -81 -59 -132
q-59 -50 -129 -50q-113 0 -185 66l68 126q49 -42 81 -42q25 0 39.5 15t14.5 42z" />
    <glyph glyph-name="uni2010" unicode="&#x2010;" horiz-adv-x="364" 
d="M314 205h-264v140h264v-140z" />
    <glyph glyph-name="uni2011" unicode="&#x2011;" horiz-adv-x="364" 
d="M314 205h-264v140h264v-140z" />
    <glyph glyph-name="figuredash" unicode="&#x2012;" horiz-adv-x="604" 
d="M524 289h-444v130h444v-130z" />
    <glyph glyph-name="endash" unicode="&#x2013;" horiz-adv-x="604" 
d="M524 205h-444v130h444v-130z" />
    <glyph glyph-name="emdash" unicode="&#x2014;" horiz-adv-x="824" 
d="M744 205h-664v130h664v-130z" />
    <glyph glyph-name="afii00208" unicode="&#x2015;" horiz-adv-x="824" 
d="M744 205h-664v130h664v-130z" />
    <glyph glyph-name="quoteleft" unicode="&#x2018;" horiz-adv-x="243" 
d="M194 549l-126 -73q-38 41 -38 105q0 66 32 115.5t81 78.5l70 -63q-43 -40 -43 -98q0 -41 24 -65z" />
    <glyph glyph-name="quoteright" unicode="&#x2019;" horiz-adv-x="243" 
d="M49 697l126 73q38 -41 38 -105q0 -66 -32 -115.5t-81 -78.5l-70 63q43 40 43 98q0 41 -24 65z" />
    <glyph glyph-name="quotesinglbase" unicode="&#x201a;" horiz-adv-x="243" 
d="M49 32l126 73q38 -41 38 -105q0 -66 -32 -115.5t-81 -78.5l-70 63q43 40 43 98q0 41 -24 65z" />
    <glyph glyph-name="quotedblleft" unicode="&#x201c;" horiz-adv-x="423" 
d="M374 549l-126 -73q-38 41 -38 105q0 66 32 115.5t81 78.5l70 -63q-43 -40 -43 -98q0 -41 24 -65zM194 549l-126 -73q-38 41 -38 105q0 66 32 115.5t81 78.5l70 -63q-43 -40 -43 -98q0 -41 24 -65z" />
    <glyph glyph-name="quotedblright" unicode="&#x201d;" horiz-adv-x="423" 
d="M229 697l126 73q38 -41 38 -105q0 -66 -32 -115.5t-81 -78.5l-70 63q43 40 43 98q0 41 -24 65zM49 697l126 73q38 -41 38 -105q0 -66 -32 -115.5t-81 -78.5l-70 63q43 40 43 98q0 41 -24 65z" />
    <glyph glyph-name="quotedblbase" unicode="&#x201e;" horiz-adv-x="423" 
d="M229 32l126 73q38 -41 38 -105q0 -66 -32 -115.5t-81 -78.5l-70 63q43 40 43 98q0 41 -24 65zM49 32l126 73q38 -41 38 -105q0 -66 -32 -115.5t-81 -78.5l-70 63q43 40 43 98q0 41 -24 65z" />
    <glyph glyph-name="dagger" unicode="&#x2020;" horiz-adv-x="524" 
d="M192 380h-152v130h152v190h140v-190h152v-130h-152v-480h-140v480z" />
    <glyph glyph-name="daggerdbl" unicode="&#x2021;" horiz-adv-x="524" 
d="M192 380h-152v130h152v190h140v-190h152v-130h-152v-130h152v-130h-152v-220h-140v220h-152v130h152v130z" />
    <glyph glyph-name="bullet" unicode="&#x2022;" horiz-adv-x="340" 
d="M169 416q62 0 106 -45q45 -43 45 -105q0 -61 -45 -106q-46 -44 -106 -44q-61 0 -105 44q-44 46 -44 106q0 61 44 105q44 45 105 45z" />
    <glyph glyph-name="ellipsis" unicode="&#x2026;" horiz-adv-x="876" 
d="M640 96q0 37 29 65.5t73 28.5q39 0 66.5 -28.5t27.5 -65.5q0 -42 -26.5 -72t-67.5 -30q-45 0 -73.5 29.5t-28.5 72.5zM340 96q0 37 29 65.5t73 28.5q39 0 66.5 -28.5t27.5 -65.5q0 -42 -26.5 -72t-67.5 -30q-45 0 -73.5 29.5t-28.5 72.5zM40 96q0 37 29 65.5t73 28.5
q39 0 66.5 -28.5t27.5 -65.5q0 -42 -26.5 -72t-67.5 -30q-45 0 -73.5 29.5t-28.5 72.5z" />
    <glyph glyph-name="perthousand" unicode="&#x2030;" horiz-adv-x="1391" 
d="M998 39q-59 53 -59 137q0 85 59 135q58 51 152 51t152 -51q59 -50 59 -135q0 -84 -59 -137q-58 -51 -152 -51t-152 51zM1079 176q0 -32 20 -50t51 -18q33 0 52 18t19 50q0 30 -19.5 48t-51.5 18t-51.5 -18t-19.5 -48zM266 -12l-86 59l497 665l84 -63zM89 389
q-59 53 -59 137q0 85 59 135q59 51 152 51t152 -51q59 -50 59 -135q0 -84 -59 -137q-59 -51 -152 -51t-152 51zM170 526q0 -32 20 -50t51 -18q33 0 52 18t19 50q0 30 -19.5 48t-51.5 18t-51.5 -18t-19.5 -48zM552 39q-59 53 -59 137q0 85 59 135q58 51 152 51t152 -51
q59 -50 59 -135q0 -84 -59 -137q-58 -51 -152 -51t-152 51zM633 176q0 -32 20 -50t51 -18q33 0 52 18t19 50q0 30 -19.5 48t-51.5 18t-51.5 -18t-19.5 -48z" />
    <glyph glyph-name="guilsinglleft" unicode="&#x2039;" horiz-adv-x="362" 
d="M332 98l-102 -85l-200 235v4l205 235l97 -87l-129 -150z" />
    <glyph glyph-name="guilsinglright" unicode="&#x203a;" horiz-adv-x="362" 
d="M332 252v-4l-200 -235l-102 85l129 152l-129 150l97 87z" />
    <glyph glyph-name="fraction" unicode="&#x2044;" horiz-adv-x="221" 
d="M-94 -12l-86 59l497 665l84 -63z" />
    <glyph glyph-name="uni2070" unicode="&#x2070;" horiz-adv-x="412" 
d="M30 525q0 80 47 129.5t129 49.5q83 0 129 -52q47 -52 47 -127q0 -78 -46 -128q-46 -51 -129 -51t-130 48.5t-47 130.5zM170 525q0 -69 37 -69q19 0 27 14.5t8 54.5t-8 54.5t-28 14.5q-19 0 -27.5 -15t-8.5 -54z" />
    <glyph glyph-name="uni2074" unicode="&#x2074;" horiz-adv-x="393" 
d="M321 350h-120v61h-191v87l141 202h123l-134 -189h61v64h120v-64h52v-100h-52v-61z" />
    <glyph glyph-name="uni2075" unicode="&#x2075;" horiz-adv-x="357" 
d="M51 484l19 216h243v-100h-153l-3 -27q18 8 47 8q57 0 90 -28.5t33 -79.5q0 -62 -43.5 -96t-118.5 -34q-116 0 -155 57l65 70q29 -27 67 -27q26 0 36 5.5t10 18.5q0 24 -60 24q-57 0 -77 -7z" />
    <glyph glyph-name="uni2076" unicode="&#x2076;" horiz-adv-x="410" 
d="M25 487q0 89 78 154q80 65 199 66l25 -88q-109 -9 -162 -68q42 20 87 20q60 0 96.5 -29t36.5 -77q0 -54 -48.5 -88t-124.5 -34q-89 0 -138 38.5t-49 105.5zM165 468q4 -25 48 -25q32 0 32 19t-33 19q-25 0 -47 -13z" />
    <glyph glyph-name="uni2077" unicode="&#x2077;" horiz-adv-x="346" 
d="M186 590h-176v110h326v-79l-148 -271h-142z" />
    <glyph glyph-name="uni2078" unicode="&#x2078;" horiz-adv-x="430" 
d="M214 575h4q32 0 32 16t-36 16q-34 0 -34 -17q0 -15 34 -15zM218 485h-4q-44 0 -44 -21t45 -21t45 21t-42 21zM215 343q-81 0 -128 26.5t-47 71.5q0 63 57 88v2q-47 24 -47 83q0 41 46 67t119 26t119 -26t46 -67q0 -60 -56 -83v-1q66 -18 66 -79q0 -52 -46 -80t-129 -28z
" />
    <glyph glyph-name="uni2079" unicode="&#x2079;" horiz-adv-x="410" 
d="M385 546q0 -94 -76 -148q-76 -53 -201 -55l-20 91q148 12 157 65q-33 -30 -87 -30q-57 0 -95 32t-38 78q0 58 48 93t125 35q91 0 139 -41.5t48 -119.5zM245 572q-5 35 -48 35q-32 0 -32 -19q0 -11 9.5 -20t23.5 -9q25 0 47 13z" />
    <glyph glyph-name="uni207A" unicode="&#x207a;" horiz-adv-x="360" 
d="M129 480h-89v100h89v85h100v-85h91v-100h-91v-86h-100v86z" />
    <glyph glyph-name="uni207B" unicode="&#x207b;" horiz-adv-x="360" 
d="M320 480h-280v100h280v-100z" />
    <glyph glyph-name="uni207C" unicode="&#x207c;" horiz-adv-x="360" 
d="M320 400h-280v100h280v-100zM320 560h-280v100h280v-100z" />
    <glyph glyph-name="uni207D" unicode="&#x207d;" horiz-adv-x="257" 
d="M247 383l-76 -76q-71 34 -106 91.5t-35 124.5q0 61 35.5 117t106.5 98l68 -74q-43 -29 -61.5 -60t-18.5 -81q0 -47 22 -79t65 -61z" />
    <glyph glyph-name="uni207E" unicode="&#x207e;" horiz-adv-x="257" 
d="M10 662l76 76q71 -34 106 -91.5t35 -124.5q0 -61 -35.5 -117t-106.5 -98l-68 74q43 29 61.5 60t18.5 81q0 47 -22 79t-65 61z" />
    <glyph glyph-name="uni2080" unicode="&#x2080;" horiz-adv-x="412" 
d="M30 175q0 80 47 129.5t129 49.5q83 0 129 -52q47 -52 47 -127q0 -78 -46 -128q-46 -51 -129 -51t-130 48.5t-47 130.5zM170 175q0 -69 37 -69q19 0 27 14.5t8 54.5t-8 54.5t-28 14.5q-19 0 -27.5 -15t-8.5 -54z" />
    <glyph glyph-name="uni2081" unicode="&#x2081;" horiz-adv-x="285" 
d="M57 180l-47 88l121 80h94v-348h-130v200z" />
    <glyph glyph-name="uni2082" unicode="&#x2082;" horiz-adv-x="376" 
d="M351 0h-326v94q116 65 148 91q24 21 24 36q0 23 -26 23q-14 0 -24.5 -13t-13.5 -30l-107 39q9 54 50.5 84t109.5 30q72 0 111 -30t39 -84q0 -58 -54 -90q-43 -25 -89 -40h158v-110z" />
    <glyph glyph-name="uni2083" unicode="&#x2083;" horiz-adv-x="372" 
d="M181 -7q-57 0 -103 21t-68 57l74 70q11 -17 31.5 -30t42.5 -13q44 0 44 18q0 15 -45 15h-27v90h25q36 0 36 18q0 13 -29 13q-42 0 -80 -36l-61 71q52 70 168 70q63 0 102.5 -24.5t39.5 -65.5q0 -66 -80 -81v-1q43 -2 67 -24t24 -57q0 -50 -48 -81q-47 -30 -113 -30z" />
    <glyph glyph-name="uni2084" unicode="&#x2084;" horiz-adv-x="393" 
d="M321 0h-120v61h-191v87l141 202h123l-134 -189h61v64h120v-64h52v-100h-52v-61z" />
    <glyph glyph-name="uni2085" unicode="&#x2085;" horiz-adv-x="357" 
d="M51 134l19 216h243v-100h-153l-3 -27q18 8 47 8q57 0 90 -28.5t33 -79.5q0 -62 -43.5 -96t-118.5 -34q-116 0 -155 57l65 70q29 -27 67 -27q26 0 36 5.5t10 18.5q0 24 -60 24q-57 0 -77 -7z" />
    <glyph glyph-name="uni2086" unicode="&#x2086;" horiz-adv-x="410" 
d="M25 137q0 89 78 154q80 65 199 66l25 -88q-109 -9 -162 -68q42 20 87 20q60 0 96.5 -29t36.5 -77q0 -54 -48.5 -88t-124.5 -34q-89 0 -138 38.5t-49 105.5zM165 118q4 -25 48 -25q32 0 32 19t-33 19q-25 0 -47 -13z" />
    <glyph glyph-name="uni2087" unicode="&#x2087;" horiz-adv-x="346" 
d="M186 240h-176v110h326v-79l-148 -271h-142z" />
    <glyph glyph-name="uni2088" unicode="&#x2088;" horiz-adv-x="430" 
d="M214 225h4q32 0 32 16t-36 16q-34 0 -34 -17q0 -15 34 -15zM218 135h-4q-44 0 -44 -21t45 -21t45 21t-42 21zM215 -7q-81 0 -128 26.5t-47 71.5q0 63 57 88v2q-47 24 -47 83q0 41 46 67t119 26t119 -26t46 -67q0 -60 -56 -83v-1q66 -18 66 -79q0 -52 -46 -80t-129 -28z
" />
    <glyph glyph-name="uni2089" unicode="&#x2089;" horiz-adv-x="410" 
d="M385 196q0 -94 -76 -148q-76 -53 -201 -55l-20 91q148 12 157 65q-33 -30 -87 -30q-57 0 -95 32t-38 78q0 58 48 93t125 35q91 0 139 -41.5t48 -119.5zM245 222q-5 35 -48 35q-32 0 -32 -19q0 -11 9.5 -20t23.5 -9q25 0 47 13z" />
    <glyph glyph-name="uni208A" unicode="&#x208a;" horiz-adv-x="360" 
d="M129 130h-89v100h89v85h100v-85h91v-100h-91v-86h-100v86z" />
    <glyph glyph-name="uni208B" unicode="&#x208b;" horiz-adv-x="360" 
d="M320 130h-280v100h280v-100z" />
    <glyph glyph-name="uni208C" unicode="&#x208c;" horiz-adv-x="360" 
d="M320 50h-280v100h280v-100zM320 210h-280v100h280v-100z" />
    <glyph glyph-name="uni208D" unicode="&#x208d;" horiz-adv-x="257" 
d="M247 33l-76 -76q-71 34 -106 91.5t-35 124.5q0 61 35.5 117t106.5 98l68 -74q-43 -29 -61.5 -60t-18.5 -81q0 -47 22 -79t65 -61z" />
    <glyph glyph-name="uni208E" unicode="&#x208e;" horiz-adv-x="257" 
d="M10 312l76 76q71 -34 106 -91.5t35 -124.5q0 -61 -35.5 -117t-106.5 -98l-68 74q43 29 61.5 60t18.5 81q0 47 -22 79t-65 61z" />
    <glyph glyph-name="Euro" unicode="&#x20ac;" 
d="M110 385h-93l46 120h74q39 97 122.5 152t200.5 55q78 0 130 -28l-57 -137q-29 15 -75 15q-80 0 -130 -57h194l-45 -120h-196q-2 -30 -2 -35q0 -20 1 -25h178l-40 -120h-89q55 -67 147 -67q52 0 77 12l25 -145q-60 -17 -115 -17q-116 0 -204 58q-88 59 -125 159h-115
l45 120h46q-1 5 -1 25q0 27 1 35z" />
    <glyph glyph-name="uni20B4" unicode="&#x20b4;" 
d="M250 390h-187v120h279q0 27 -11.5 39.5t-38.5 12.5q-54 0 -98 -37l-76 113q63 74 184 74q84 0 137 -45t53 -116q0 -31 -6 -41h51v-120h-123q-48 -56 -54 -60h177v-120h-283q-4 -11 -4 -22q0 -22 18.5 -36t52.5 -14q60 0 116 46l78 -102q-75 -94 -215 -94q-77 0 -139 47
q-61 46 -61 126q0 23 8 49h-45v120h130q3 3 24 26t33 34z" />
    <glyph glyph-name="uni20B6" unicode="&#x20b6;" 
d="M97 287h-90v120h90v293q46 0 101 1q56 1 113 1q283 0 283 -212q0 -94 -69.5 -148.5t-189.5 -54.5h-78v-60h154v-120h-154v-107h-160v107h-90v120h90v60zM327 552q-1 0 -9 -0.5t-25 -1t-36 -0.5v-143h73q94 0 94 69q0 41 -24 58.5t-73 17.5z" />
    <glyph glyph-name="uni20B6" unicode="&#x20cf;" 
d="M97 287h-90v120h90v293q46 0 101 1q56 1 113 1q283 0 283 -212q0 -94 -69.5 -148.5t-189.5 -54.5h-78v-60h154v-120h-154v-107h-160v107h-90v120h90v60zM327 552q-1 0 -9 -0.5t-25 -1t-36 -0.5v-143h73q94 0 94 69q0 41 -24 58.5t-73 17.5z" />
    <glyph glyph-name="uni20B6" unicode="&#x20ce;" 
d="M97 287h-90v120h90v293q46 0 101 1q56 1 113 1q283 0 283 -212q0 -94 -69.5 -148.5t-189.5 -54.5h-78v-60h154v-120h-154v-107h-160v107h-90v120h90v60zM327 552q-1 0 -9 -0.5t-25 -1t-36 -0.5v-143h73q94 0 94 69q0 41 -24 58.5t-73 17.5z" />
    <glyph glyph-name="uni20B6" unicode="&#x20cd;" 
d="M97 287h-90v120h90v293q46 0 101 1q56 1 113 1q283 0 283 -212q0 -94 -69.5 -148.5t-189.5 -54.5h-78v-60h154v-120h-154v-107h-160v107h-90v120h90v60zM327 552q-1 0 -9 -0.5t-25 -1t-36 -0.5v-143h73q94 0 94 69q0 41 -24 58.5t-73 17.5z" />
    <glyph glyph-name="uni20B6" unicode="&#x20cc;" 
d="M97 287h-90v120h90v293q46 0 101 1q56 1 113 1q283 0 283 -212q0 -94 -69.5 -148.5t-189.5 -54.5h-78v-60h154v-120h-154v-107h-160v107h-90v120h90v60zM327 552q-1 0 -9 -0.5t-25 -1t-36 -0.5v-143h73q94 0 94 69q0 41 -24 58.5t-73 17.5z" />
    <glyph glyph-name="uni20B6" unicode="&#x20cb;" 
d="M97 287h-90v120h90v293q46 0 101 1q56 1 113 1q283 0 283 -212q0 -94 -69.5 -148.5t-189.5 -54.5h-78v-60h154v-120h-154v-107h-160v107h-90v120h90v60zM327 552q-1 0 -9 -0.5t-25 -1t-36 -0.5v-143h73q94 0 94 69q0 41 -24 58.5t-73 17.5z" />
    <glyph glyph-name="uni20B6" unicode="&#x20ca;" 
d="M97 287h-90v120h90v293q46 0 101 1q56 1 113 1q283 0 283 -212q0 -94 -69.5 -148.5t-189.5 -54.5h-78v-60h154v-120h-154v-107h-160v107h-90v120h90v60zM327 552q-1 0 -9 -0.5t-25 -1t-36 -0.5v-143h73q94 0 94 69q0 41 -24 58.5t-73 17.5z" />
    <glyph glyph-name="uni20B6" unicode="&#x20c9;" 
d="M97 287h-90v120h90v293q46 0 101 1q56 1 113 1q283 0 283 -212q0 -94 -69.5 -148.5t-189.5 -54.5h-78v-60h154v-120h-154v-107h-160v107h-90v120h90v60zM327 552q-1 0 -9 -0.5t-25 -1t-36 -0.5v-143h73q94 0 94 69q0 41 -24 58.5t-73 17.5z" />
    <glyph glyph-name="uni20B6" unicode="&#x20c8;" 
d="M97 287h-90v120h90v293q46 0 101 1q56 1 113 1q283 0 283 -212q0 -94 -69.5 -148.5t-189.5 -54.5h-78v-60h154v-120h-154v-107h-160v107h-90v120h90v60zM327 552q-1 0 -9 -0.5t-25 -1t-36 -0.5v-143h73q94 0 94 69q0 41 -24 58.5t-73 17.5z" />
    <glyph glyph-name="uni20B6" unicode="&#x20c7;" 
d="M97 287h-90v120h90v293q46 0 101 1q56 1 113 1q283 0 283 -212q0 -94 -69.5 -148.5t-189.5 -54.5h-78v-60h154v-120h-154v-107h-160v107h-90v120h90v60zM327 552q-1 0 -9 -0.5t-25 -1t-36 -0.5v-143h73q94 0 94 69q0 41 -24 58.5t-73 17.5z" />
    <glyph glyph-name="uni20B6" unicode="&#x20c6;" 
d="M97 287h-90v120h90v293q46 0 101 1q56 1 113 1q283 0 283 -212q0 -94 -69.5 -148.5t-189.5 -54.5h-78v-60h154v-120h-154v-107h-160v107h-90v120h90v60zM327 552q-1 0 -9 -0.5t-25 -1t-36 -0.5v-143h73q94 0 94 69q0 41 -24 58.5t-73 17.5z" />
    <glyph glyph-name="uni20B6" unicode="&#x20c5;" 
d="M97 287h-90v120h90v293q46 0 101 1q56 1 113 1q283 0 283 -212q0 -94 -69.5 -148.5t-189.5 -54.5h-78v-60h154v-120h-154v-107h-160v107h-90v120h90v60zM327 552q-1 0 -9 -0.5t-25 -1t-36 -0.5v-143h73q94 0 94 69q0 41 -24 58.5t-73 17.5z" />
    <glyph glyph-name="uni20B6" unicode="&#x20c4;" 
d="M97 287h-90v120h90v293q46 0 101 1q56 1 113 1q283 0 283 -212q0 -94 -69.5 -148.5t-189.5 -54.5h-78v-60h154v-120h-154v-107h-160v107h-90v120h90v60zM327 552q-1 0 -9 -0.5t-25 -1t-36 -0.5v-143h73q94 0 94 69q0 41 -24 58.5t-73 17.5z" />
    <glyph glyph-name="uni20B6" unicode="&#x20c3;" 
d="M97 287h-90v120h90v293q46 0 101 1q56 1 113 1q283 0 283 -212q0 -94 -69.5 -148.5t-189.5 -54.5h-78v-60h154v-120h-154v-107h-160v107h-90v120h90v60zM327 552q-1 0 -9 -0.5t-25 -1t-36 -0.5v-143h73q94 0 94 69q0 41 -24 58.5t-73 17.5z" />
    <glyph glyph-name="uni20B6" unicode="&#x20c2;" 
d="M97 287h-90v120h90v293q46 0 101 1q56 1 113 1q283 0 283 -212q0 -94 -69.5 -148.5t-189.5 -54.5h-78v-60h154v-120h-154v-107h-160v107h-90v120h90v60zM327 552q-1 0 -9 -0.5t-25 -1t-36 -0.5v-143h73q94 0 94 69q0 41 -24 58.5t-73 17.5z" />
    <glyph glyph-name="uni20B6" unicode="&#x20c1;" 
d="M97 287h-90v120h90v293q46 0 101 1q56 1 113 1q283 0 283 -212q0 -94 -69.5 -148.5t-189.5 -54.5h-78v-60h154v-120h-154v-107h-160v107h-90v120h90v60zM327 552q-1 0 -9 -0.5t-25 -1t-36 -0.5v-143h73q94 0 94 69q0 41 -24 58.5t-73 17.5z" />
    <glyph glyph-name="uni20B6" unicode="&#x20c0;" 
d="M97 287h-90v120h90v293q46 0 101 1q56 1 113 1q283 0 283 -212q0 -94 -69.5 -148.5t-189.5 -54.5h-78v-60h154v-120h-154v-107h-160v107h-90v120h90v60zM327 552q-1 0 -9 -0.5t-25 -1t-36 -0.5v-143h73q94 0 94 69q0 41 -24 58.5t-73 17.5z" />
    <glyph glyph-name="uni20B6" unicode="&#x20bf;" 
d="M97 287h-90v120h90v293q46 0 101 1q56 1 113 1q283 0 283 -212q0 -94 -69.5 -148.5t-189.5 -54.5h-78v-60h154v-120h-154v-107h-160v107h-90v120h90v60zM327 552q-1 0 -9 -0.5t-25 -1t-36 -0.5v-143h73q94 0 94 69q0 41 -24 58.5t-73 17.5z" />
    <glyph glyph-name="uni20B6" unicode="&#x20be;" 
d="M97 287h-90v120h90v293q46 0 101 1q56 1 113 1q283 0 283 -212q0 -94 -69.5 -148.5t-189.5 -54.5h-78v-60h154v-120h-154v-107h-160v107h-90v120h90v60zM327 552q-1 0 -9 -0.5t-25 -1t-36 -0.5v-143h73q94 0 94 69q0 41 -24 58.5t-73 17.5z" />
    <glyph glyph-name="uni20B6" unicode="&#x20bd;" 
d="M97 287h-90v120h90v293q46 0 101 1q56 1 113 1q283 0 283 -212q0 -94 -69.5 -148.5t-189.5 -54.5h-78v-60h154v-120h-154v-107h-160v107h-90v120h90v60zM327 552q-1 0 -9 -0.5t-25 -1t-36 -0.5v-143h73q94 0 94 69q0 41 -24 58.5t-73 17.5z" />
    <glyph glyph-name="uni20B6" unicode="&#x20bc;" 
d="M97 287h-90v120h90v293q46 0 101 1q56 1 113 1q283 0 283 -212q0 -94 -69.5 -148.5t-189.5 -54.5h-78v-60h154v-120h-154v-107h-160v107h-90v120h90v60zM327 552q-1 0 -9 -0.5t-25 -1t-36 -0.5v-143h73q94 0 94 69q0 41 -24 58.5t-73 17.5z" />
    <glyph glyph-name="uni20B6" unicode="&#x20bb;" 
d="M97 287h-90v120h90v293q46 0 101 1q56 1 113 1q283 0 283 -212q0 -94 -69.5 -148.5t-189.5 -54.5h-78v-60h154v-120h-154v-107h-160v107h-90v120h90v60zM327 552q-1 0 -9 -0.5t-25 -1t-36 -0.5v-143h73q94 0 94 69q0 41 -24 58.5t-73 17.5z" />
    <glyph glyph-name="uni20B6" unicode="&#x20ba;" 
d="M97 287h-90v120h90v293q46 0 101 1q56 1 113 1q283 0 283 -212q0 -94 -69.5 -148.5t-189.5 -54.5h-78v-60h154v-120h-154v-107h-160v107h-90v120h90v60zM327 552q-1 0 -9 -0.5t-25 -1t-36 -0.5v-143h73q94 0 94 69q0 41 -24 58.5t-73 17.5z" />
    <glyph glyph-name="uni20B6" unicode="&#x20b9;" 
d="M97 287h-90v120h90v293q46 0 101 1q56 1 113 1q283 0 283 -212q0 -94 -69.5 -148.5t-189.5 -54.5h-78v-60h154v-120h-154v-107h-160v107h-90v120h90v60zM327 552q-1 0 -9 -0.5t-25 -1t-36 -0.5v-143h73q94 0 94 69q0 41 -24 58.5t-73 17.5z" />
    <glyph glyph-name="uni20B6" unicode="&#x20b7;" 
d="M97 287h-90v120h90v293q46 0 101 1q56 1 113 1q283 0 283 -212q0 -94 -69.5 -148.5t-189.5 -54.5h-78v-60h154v-120h-154v-107h-160v107h-90v120h90v60zM327 552q-1 0 -9 -0.5t-25 -1t-36 -0.5v-143h73q94 0 94 69q0 41 -24 58.5t-73 17.5z" />
    <glyph glyph-name="afii61352" unicode="&#x2116;" horiz-adv-x="1202" 
d="M680 700v-700h-128l-312 420v-420h-150v700h128l312 -422v422h150zM779 335q-59 53 -59 137q0 85 59 135q58 51 152 51q93 0 152 -51q59 -50 59 -135q0 -84 -59 -137q-59 -51 -152 -51q-94 0 -152 51zM860 472q0 -32 20 -50t51 -18q33 0 52 18t19 50q0 30 -19.5 48
t-51.5 18t-51.5 -18t-19.5 -48zM1102 106h-342v140h342v-140z" />
    <glyph glyph-name="trademark" unicode="&#x2122;" horiz-adv-x="884" 
d="M518 385h-141v315h126l106 -77l98 77h122v-315h-141v139l-82 -62h-2l-86 62v-139zM114 565h-94v135h328v-135h-94v-180h-140v180z" />
    <glyph glyph-name="arrowleft" unicode="&#x2190;" horiz-adv-x="643" 
d="M40 273l283 283l106 -106l-102 -102h276v-150h-276l102 -102l-106 -106z" />
    <glyph glyph-name="arrowup" unicode="&#x2191;" horiz-adv-x="646" 
d="M248 276l-102 -102l-106 106l283 283l283 -283l-106 -106l-102 102v-276h-150v276z" />
    <glyph glyph-name="arrowright" unicode="&#x2192;" horiz-adv-x="643" 
d="M316 348l-102 102l106 106l283 -283l-283 -283l-106 106l102 102h-276v150h276z" />
    <glyph glyph-name="arrowdown" unicode="&#x2193;" horiz-adv-x="646" 
d="M323 -20l-283 283l106 106l102 -102v276h150v-276l102 102l106 -106z" />
    <glyph glyph-name="partialdiff" unicode="&#x2202;" horiz-adv-x="601" 
d="M30 200q0 109 70 185q71 77 186 77q84 0 125 -40q0 81 -53 117.5t-161 38.5l22 134q169 0 260.5 -76.5t91.5 -222.5q0 -189 -79 -307t-231 -118q-108 0 -169 61q-62 62 -62 151zM190 213q0 -37 24 -61t64 -24q48 0 79.5 42.5t41.5 115.5q-43 36 -106 36q-45 0 -74 -31.5
t-29 -77.5z" />
    <glyph glyph-name="product" unicode="&#x220f;" horiz-adv-x="885" 
d="M795 -200h-160v750h-385v-750h-160v900h705v-900z" />
    <glyph glyph-name="summation" unicode="&#x2211;" horiz-adv-x="650" 
d="M40 -88l267 338l-267 338v112h570v-150h-347l228 -300l-238 -300h357v-150h-570v112z" />
    <glyph glyph-name="minus" unicode="&#x2212;" 
d="M537 295h-474v130h474v-130z" />
    <glyph glyph-name="uni2215" unicode="&#x2215;" horiz-adv-x="382" 
d="M86 -208l-116 43l327 877l115 -43z" />
    <glyph glyph-name="radical" unicode="&#x221a;" horiz-adv-x="643" 
d="M103 300h-93v150h196l135 -197l114 447h308v-150h-177l-144 -550h-133z" />
    <glyph glyph-name="infinity" unicode="&#x221e;" horiz-adv-x="766" 
d="M557 153q-101 0 -175 83q-69 -83 -165 -83q-72 0 -124 52q-53 53 -53 136q0 78 50 134t130 56q89 0 163 -89q68 89 173 89q77 0 123 -55q47 -55 47 -139q0 -76 -48 -130t-121 -54zM234 283q44 0 78 49q-25 37 -42 53t-36 16q-26 0 -40 -16t-14 -44q0 -27 14 -42.5
t40 -15.5zM530 401q-35 0 -76 -59q45 -59 84 -59q21 0 34.5 16.5t13.5 43.5q0 24 -15.5 41t-40.5 17z" />
    <glyph glyph-name="integral" unicode="&#x222b;" horiz-adv-x="320" 
d="M205 514v-514q0 -109 -31.5 -158.5t-110.5 -49.5q-20 0 -50 5q-48 9 -70 29l39 119q22 -13 44 -13q6 0 10 1.5t7 4.5t5.5 6t3.5 8.5t2 9.5t1 11v11.5v13v12.5v513q0 91 43 140t121 49q27 0 53 -6q52 -10 78 -38l-50 -114q-9 9 -24 14q-27 8 -49 -2.5t-22 -51.5z" />
    <glyph glyph-name="approxequal" unicode="&#x2248;" 
d="M97 169l-64 96q34 41 76 65.5t81 24.5q42 0 118 -33q78 -33 116 -33q21 0 45 13t40 32l58 -103q-77 -72 -144 -72q-42 0 -117 33q-73 33 -106 33q-47 0 -103 -56zM97 369l-64 96q34 41 76 65.5t81 24.5q42 0 118 -33q78 -33 116 -33q21 0 45 13t40 32l58 -103
q-77 -72 -144 -72q-42 0 -117 33q-73 33 -106 33q-47 0 -103 -56z" />
    <glyph glyph-name="notequal" unicode="&#x2260;" 
d="M248 395h-185v130h234l70 187l115 -43l-54 -144h109v-130h-158l-26 -70h184v-130h-233l-77 -207l-116 43l61 164h-109v130h158z" />
    <glyph glyph-name="lessequal" unicode="&#x2264;" 
d="M530 -46l-490 276v135l490 -269v-142zM530 316v-162l-490 276v64l490 274v-162l-284 -144z" />
    <glyph glyph-name="greaterequal" unicode="&#x2265;" 
d="M70 96l490 269v-135l-490 -276v142zM560 494v-64l-490 -276v162l284 146l-284 144v162z" />
    <glyph glyph-name="lozenge" unicode="&#x25ca;" horiz-adv-x="498" 
d="M310 0h-123l-167 249l168 266h123l167 -255zM249 371l-78 -121l78 -115l78 125z" />
    <glyph glyph-name="spade" unicode="&#x2660;" horiz-adv-x="632" 
d="M316 510q88 -55 172 -151t84 -160q0 -44 -31 -74t-86 -30q-79 0 -131 72q29 -120 107 -167h-230q74 53 105 164q-51 -69 -129 -69q-55 0 -86 30t-31 75q0 63 84 159t172 151z" />
    <glyph glyph-name="club" unicode="&#x2663;" horiz-adv-x="612" 
d="M177 381q0 53 38 91t91 38t91 -38t38 -91q0 -3 -2 -19q51 -5 84 -41q35 -38 35 -87q0 -53 -38 -91t-91 -38q-66 0 -104 53q31 -114 102 -158h-230q62 43 100 156q-41 -51 -102 -51q-53 0 -91 38t-38 91q0 50 34 87q33 36 84 41q-1 4 -1 19z" />
    <glyph glyph-name="heart" unicode="&#x2665;" horiz-adv-x="649" 
d="M325 0q-95 72 -179 181q-86 113 -86 189q0 56 31.5 93t89.5 37q88 0 144 -104q54 104 143 104q57 0 89 -36.5t32 -92.5q0 -76 -86 -189q-87 -113 -178 -182z" />
    <glyph glyph-name="diamond" unicode="&#x2666;" horiz-adv-x="583" 
d="M523 249q-109 -109 -232 -268q-102 134 -231 268q106 110 231 269q124 -158 232 -269z" />
    <glyph glyph-name="uniF350" unicode="&#xf350;" horiz-adv-x="632" 
d="M161 0h-161l244 525h144l244 -525h-171l-33 75h-234zM362 225l-50 115l-51 -115h101z" />
    <glyph glyph-name="uniF351" unicode="&#xf351;" horiz-adv-x="557" 
d="M72 0v525h397v-150h-237v-35q13 4 78 4q93 0 146 -43.5t53 -123.5q0 -182 -233 -182q-49 0 -121 3q-20 0 -40 0.5t-30 1t-13 0.5zM290 195q-42 0 -58 -3v-44q32 -3 61 -3q32 0 44 5.5t12 18.5q0 14 -13 20t-46 6z" />
    <glyph glyph-name="uniF352" unicode="&#xf352;" horiz-adv-x="555" 
d="M72 2v521q99 6 217 6q98 0 150.5 -35.5t52.5 -95.5q0 -86 -66 -120v-1q81 -19 81 -112q0 -80 -62.5 -124.5t-167.5 -44.5q-153 0 -205 6zM298 192h-66v-40q10 -6 59 -6q56 0 56 23t-49 23zM287 379q-32 0 -55 -4v-43h56q44 0 44 23q0 24 -45 24z" />
    <glyph glyph-name="uniF353" unicode="&#xf353;" horiz-adv-x="455" 
d="M232 0h-160v525h363v-150h-203v-375z" />
    <glyph glyph-name="uniF354" unicode="&#xf354;" horiz-adv-x="655" 
d="M157 -85h-150v235h64q24 27 49 102q28 78 32 168l5 105h403v-375h81v-235h-150v85h-334v-85zM312 375l-11 -67q-7 -50 -24 -96q-16 -45 -30 -62h153v225h-88z" />
    <glyph glyph-name="uniF355" unicode="&#xf355;" horiz-adv-x="508" 
d="M460 0h-388v525h379v-150h-219v-37h194v-150h-194v-38h228v-150z" />
    <glyph glyph-name="uniF356" unicode="&#xf356;" horiz-adv-x="853" 
d="M0 0l198 274l-189 251h194l144 -209v209h160v-209l144 209h193l-188 -248l197 -277h-193l-153 230v-230h-160v230l-153 -230h-194z" />
    <glyph glyph-name="uniF357" unicode="&#xf357;" horiz-adv-x="537" 
d="M261 -12q-84 0 -145 29t-94 74l87 109q67 -62 154 -62q66 0 66 23q0 30 -83 30h-79v150h76q63 0 63 19q0 23 -49 23q-85 0 -124 -52l-92 109q31 42 90 67.5t133 25.5q86 0 144 -41q58 -40 58 -113q0 -77 -60 -105v-3q83 -24 83 -126q0 -72 -62.5 -114.5t-165.5 -42.5z
" />
    <glyph glyph-name="uniF358" unicode="&#xf358;" horiz-adv-x="671" 
d="M439 270l-227 -270h-140v525h160v-270l227 270h140v-525h-160v270z" />
    <glyph glyph-name="uniF359" unicode="&#xf359;" horiz-adv-x="671" 
d="M439 270l-227 -270h-140v525h160v-270l227 270h140v-525h-160v270zM156 720h140q0 -40 42 -40q38 0 38 40h140q0 -70 -47 -110t-131 -40q-90 0 -136 38.5t-46 111.5z" />
    <glyph glyph-name="uniF35A" unicode="&#xf35a;" horiz-adv-x="617" 
d="M232 0h-160v525h160v-211l159 211h207l-202 -239l221 -286h-217l-168 232v-232z" />
    <glyph glyph-name="uniF35B" unicode="&#xf35b;" horiz-adv-x="625" 
d="M553 0h-160v375h-102l-13 -99q-22 -174 -83 -236q-60 -61 -180 -40l3 154q16 -2 30 -1t27.5 16.5t24.5 43.5t20.5 80.5t15.5 126.5l9 105h408v-525z" />
    <glyph glyph-name="uniF35C" unicode="&#xf35c;" horiz-adv-x="782" 
d="M232 0h-160v525h161l168 -187l158 187h151v-525h-160v281l-149 -165h-22l-147 162v-278z" />
    <glyph glyph-name="uniF35D" unicode="&#xf35d;" horiz-adv-x="659" 
d="M587 0h-160v193h-195v-193h-160v525h160v-182h195v182h160v-525z" />
    <glyph glyph-name="uniF35E" unicode="&#xf35e;" horiz-adv-x="664" 
d="M31 261q0 117 83 194q82 78 218 78q134 0 217 -73q84 -73 84 -199q0 -121 -85 -197t-216 -76q-135 0 -218 73q-83 74 -83 200zM201 261q0 -52 38 -88q38 -35 93 -35q65 0 98 33t33 90q0 56 -36.5 89t-94.5 33q-60 0 -95.5 -32.5t-35.5 -89.5z" />
    <glyph glyph-name="uniF35F" unicode="&#xf35f;" horiz-adv-x="659" 
d="M587 0h-160v375h-195v-375h-160v525h515v-525z" />
    <glyph glyph-name="uniF360" unicode="&#xf360;" horiz-adv-x="543" 
d="M232 132v-132h-160v525q39 0 90 1t102 1q127 0 187.5 -51.5t60.5 -145.5q0 -89 -61 -144q-62 -56 -161 -56q-34 0 -58 2zM280 377q-4 0 -10 -0.5t-17.5 -1t-20.5 -0.5v-91q28 -4 53 -4q57 0 57 50q0 26 -14.5 36.5t-47.5 10.5z" />
    <glyph glyph-name="uniF361" unicode="&#xf361;" horiz-adv-x="557" 
d="M472 170l61 -120q-26 -27 -81 -44.5t-115 -17.5q-140 0 -223 74q-83 75 -83 199q0 115 77 194q78 78 229 78q55 0 104.5 -16t78.5 -41l-71 -120l-22 8q-22 9 -26 10q-25 9 -64 9q-64 0 -100 -30.5t-36 -91.5q0 -55 41 -89t110 -34q67 0 120 32z" />
    <glyph glyph-name="uniF362" unicode="&#xf362;" horiz-adv-x="513" 
d="M176 375h-167v150h495v-150h-168v-375h-160v375z" />
    <glyph glyph-name="uniF363" unicode="&#xf363;" horiz-adv-x="587" 
d="M419 525h164l-197 -393q-64 -132 -188 -132q-48 0 -86 26l56 136q21 -12 39 -12q19 0 28 12l8 12l-236 351h201l117 -193z" />
    <glyph glyph-name="uniF364" unicode="&#xf364;" horiz-adv-x="720" 
d="M439 -6h-160v52q-119 2 -188 61.5t-69 162.5q0 101 69.5 160.5t187.5 63.5v37h160v-37q119 -3 189 -61.5t70 -162.5q0 -102 -70 -162t-189 -62v-52zM528 270q0 29 -22 52t-67 26v-156q89 5 89 78zM192 270q0 -33 21.5 -54.5t65.5 -23.5v156q-42 -3 -64.5 -26.5
t-22.5 -51.5z" />
    <glyph glyph-name="uniF365" unicode="&#xf365;" horiz-adv-x="577" 
d="M377 525h198l-183 -257l191 -268h-198l-98 146l-95 -146h-198l190 268l-181 257h198l91 -139z" />
    <glyph glyph-name="uniF366" unicode="&#xf366;" horiz-adv-x="668" 
d="M504 0h-432v525h160v-375h181v375h160v-375h81v-235h-150v85z" />
    <glyph glyph-name="uniF367" unicode="&#xf367;" horiz-adv-x="604" 
d="M372 525h160v-525h-160v181q-38 -24 -117 -24q-34 0 -65.5 8t-61.5 26t-48.5 52t-18.5 81v201h160v-141q0 -42 17 -59.5t51 -17.5q51 0 83 20v198z" />
    <glyph glyph-name="uniF368" unicode="&#xf368;" horiz-adv-x="852" 
d="M780 0h-708v525h160v-375h114v375h160v-375h114v375h160v-525z" />
    <glyph glyph-name="uniF369" unicode="&#xf369;" horiz-adv-x="875" 
d="M711 0h-639v525h160v-375h114v375h160v-375h114v375h160v-375h81v-235h-150v85z" />
    <glyph glyph-name="uniF36A" unicode="&#xf36a;" horiz-adv-x="578" 
d="M120 375h-110v150h270v-142q22 2 41 2q112 0 169 -48.5t57 -139.5t-68.5 -145t-190.5 -54q-56 0 -95 1t-73 1v375zM307 235q-1 0 -4 -0.5t-9.5 -1t-13.5 -0.5v-83q18 -2 38 -2q59 0 59 45q0 42 -70 42z" />
    <glyph glyph-name="uniF36B" unicode="&#xf36b;" horiz-adv-x="766" 
d="M694 0h-160v525h160v-525zM260 235q-20 0 -28 -1v-84q16 -2 28 -2q60 0 60 45q0 42 -60 42zM72 525h160v-142q22 2 43 2q104 0 159.5 -49.5t55.5 -138.5t-66.5 -144t-182.5 -55q-56 0 -96 1q-39 1 -73 1v525z" />
    <glyph glyph-name="uniF36C" unicode="&#xf36c;" horiz-adv-x="530" 
d="M259 235q-1 0 -12 -0.5t-15 -0.5v-84q7 0 13.5 -0.5t9.5 -1.5h3q71 0 71 45q0 42 -70 42zM72 525h160v-142q22 2 41 2q111 0 168.5 -49.5t57.5 -138.5q0 -91 -69 -145t-191 -54q-56 0 -95 1t-72 1v525z" />
    <glyph glyph-name="uniF36D" unicode="&#xf36d;" horiz-adv-x="567" 
d="M362 193h-212v150h201q-36 42 -122 42q-98 0 -154 -35l-61 120q88 65 222 65q128 0 214 -77t86 -197q0 -129 -86 -200t-237 -71q-65 0 -120 16t-81 39l68 135q55 -40 154 -40t128 53z" />
    <glyph glyph-name="uniF36E" unicode="&#xf36e;" horiz-adv-x="884" 
d="M232 0h-160v525h160v-182h56q24 89 94.5 140.5t177.5 51.5q139 0 216 -71.5t77 -200.5q0 -123 -78 -198t-215 -75q-108 0 -181.5 54t-93.5 149h-53v-193zM448 263q0 -55 32 -89t85 -34q59 0 88.5 33t29.5 90q0 58 -31 90t-87 32q-54 0 -85.5 -32.5t-31.5 -89.5z" />
    <glyph glyph-name="uniF36F" unicode="&#xf36f;" horiz-adv-x="584" 
d="M512 0h-160v140h-71l-88 -140h-189l123 179q-75 51 -75 144q0 86 62 146q63 60 192 60q19 0 119 -2q21 0 42 -0.5t31.5 -1t13.5 -0.5v-525zM268 290h84v85q-9 4 -61 4q-69 0 -69 -45q0 -35 46 -44z" />
    <glyph glyph-name="uniF371" unicode="&#xf371;" horiz-adv-x="508" 
d="M98 637q0 33 23 54t59 21q30 0 52 -21t22 -54q0 -35 -22 -57t-52 -22q-36 0 -59 21.5t-23 57.5zM279 637q0 33 23 54t57 21q32 0 54 -21t22 -54q0 -35 -22 -57t-54 -22q-34 0 -57 21.5t-23 57.5zM460 0h-388v525h379v-150h-219v-37h194v-150h-194v-38h228v-150z" />
    <glyph glyph-name="uniF372" unicode="&#xf372;" horiz-adv-x="654" 
d="M623 162q0 -84 -41.5 -128t-119.5 -44q-38 0 -72.5 12.5t-47.5 30.5l51 122q23 -15 47 -15q23 0 23 15q0 22 -51 22q-34 0 -76 -17v-160h-160v375h-167v150h495v-150h-168v-60q43 12 106 12q83 0 132 -41.5t49 -123.5z" />
    <glyph glyph-name="uniF373" unicode="&#xf373;" horiz-adv-x="455" 
d="M232 0h-160v525h363v-150h-203v-375zM306 786l92 -115l-162 -110l-71 83z" />
    <glyph glyph-name="uniF374" unicode="&#xf374;" horiz-adv-x="567" 
d="M205 339h213v-150h-207q34 -49 137 -49q92 0 150 40l57 -135q-26 -23 -83 -39q-55 -16 -120 -16q-149 0 -235 72q-86 74 -86 201q0 124 85 197q86 75 216 75q133 0 221 -65l-71 -120q-27 17 -69 26t-76 9q-107 0 -132 -46z" />
    <glyph glyph-name="uniF375" unicode="&#xf375;" horiz-adv-x="516" 
d="M315 160q0 14 -70 34q-5 1 -15 4l-11 3q-33 9 -61 21t-55.5 31.5t-43.5 50t-16 67.5q0 75 57.5 118.5t173.5 43.5q52 0 116 -24q65 -24 95 -57l-72 -119q-31 20 -74 35q-44 15 -71 15q-55 0 -55 -20q0 -8 20 -15.5t50.5 -13.5t65.5 -19.5t65.5 -32t50.5 -52.5t20 -79
q0 -71 -63 -118q-62 -45 -164 -45q-66 0 -137 27q-69 26 -101 71l91 109q22 -20 73 -39q50 -18 86 -18q45 0 45 22z" />
    <glyph glyph-name="uniF376" unicode="&#xf376;" horiz-adv-x="314" 
d="M237 0h-160v525h160v-525z" />
    <glyph glyph-name="uniF377" unicode="&#xf377;" horiz-adv-x="347" 
d="M20 636q0 32 20.5 51.5t53.5 19.5q28 0 48 -20t20 -51q0 -33 -20 -54t-48 -21q-33 0 -53.5 20t-20.5 55zM185 636q0 32 21.5 51.5t52.5 19.5q29 0 48.5 -19.5t19.5 -51.5q0 -33 -20 -54t-48 -21q-32 0 -53 20.5t-21 54.5zM254 0h-160v525h160v-525z" />
    <glyph glyph-name="uniF378" unicode="&#xf378;" horiz-adv-x="357" 
d="M125 525h160v-390q0 -71 -43.5 -108t-123.5 -37q-38 0 -73 13t-48 30l52 122q22 -15 46 -15q30 0 30 24v361z" />
    <glyph glyph-name="uniF379" unicode="&#xf379;" horiz-adv-x="841" 
d="M393 0v375h-98l-15 -99q-27 -174 -87 -236q-58 -60 -178 -40l3 160q25 -4 39.5 1.5t29.5 28.5q32 45 49 230l9 105h408v-142q22 2 42 2q104 0 159.5 -49.5t55.5 -138.5q0 -90 -66.5 -144.5t-182.5 -54.5q-56 0 -96 1q-39 1 -72 1zM580 235q-1 0 -4.5 -0.5t-10 -1
t-12.5 -0.5v-82q17 -3 27 -3q60 0 60 45q0 42 -60 42z" />
    <glyph glyph-name="uniF37A" unicode="&#xf37a;" horiz-adv-x="868" 
d="M232 0h-160v525h160v-167h187v167h160v-160q22 2 42 2q103 0 159.5 -48t56.5 -130q0 -81 -66 -137q-66 -54 -183 -54q-56 0 -96 1q-39 1 -73 1v208h-187v-208zM579 215v-64q18 -3 28 -3q29 0 44.5 10t15.5 26t-16.5 25t-43.5 9q-10 0 -28 -3z" />
    <glyph glyph-name="uniF37B" unicode="&#xf37b;" horiz-adv-x="654" 
d="M176 375h-167v150h495v-150h-168v-74q42 16 101 16q34 0 64.5 -8t59 -25.5t45.5 -52t17 -81.5v-150h-160v101q0 37 -15 51.5t-45 14.5q-42 0 -67 -11v-156h-160v375z" />
    <glyph glyph-name="uniF37C" unicode="&#xf37c;" horiz-adv-x="617" 
d="M232 0h-160v525h160v-211l159 211h207l-202 -239l221 -286h-217l-168 232v-232zM346 786l92 -115l-162 -110l-71 83z" />
    <glyph glyph-name="uniF37E" unicode="&#xf37e;" horiz-adv-x="587" 
d="M419 525h164l-197 -393q-64 -132 -188 -132q-48 0 -86 26l56 136q21 -12 39 -12q19 0 28 12l8 12l-236 351h201l117 -193zM115 720h140q0 -40 42 -40q38 0 38 40h140q0 -70 -47 -110t-131 -40q-90 0 -136 38.5t-46 111.5z" />
    <glyph glyph-name="uniF37F" unicode="&#xf37f;" horiz-adv-x="651" 
d="M250 0h-178v525h160v-375h187v375h160v-525h-179v-110h-150v110z" />
    <glyph glyph-name="uniF381" unicode="&#xf381;" horiz-adv-x="540" 
d="M82 364h-72v130h72v31h160v-31h115v-130h-115v-21q22 2 41 2q116 0 171 -41t55 -127q0 -87 -67 -133t-193 -46q-56 0 -95 1t-72 1v364zM269 205q-1 0 -12 -0.5t-15 -0.5v-64q7 0 13.5 -0.5t9.5 -1.5h3q71 0 71 35q0 32 -70 32z" />
    <glyph glyph-name="uniF389" unicode="&#xf389;" horiz-adv-x="664" 
d="M31 261q0 117 83 194q82 78 218 78q134 0 217 -73q84 -73 84 -199q0 -121 -85 -197t-216 -76q-135 0 -218 73q-83 74 -83 200zM261 227q-31 0 -50 -15q14 -33 47 -53.5t74 -20.5q44 0 69 13q-37 3 -80 39q-43 37 -60 37zM422 291q19 0 35 10q-12 39 -45.5 60.5
t-79.5 21.5q-40 0 -71 -16q30 1 61.5 -18.5t58 -39t41.5 -18.5z" />
    <glyph glyph-name="uniF38A" unicode="&#xf38a;" horiz-adv-x="556" 
d="M482 340l-138 -338h-124l-233 523h181l120 -306l64 189q28 84 74 110q48 26 140 7v-130q-32 2 -51 -9.5t-33 -45.5z" />
    <glyph glyph-name="uniF393" unicode="&#xf393;" horiz-adv-x="465" 
d="M232 0h-160v525h223v75h150v-225h-213v-375z" />
    <glyph glyph-name="uniF3CF" unicode="&#xf3cf;" horiz-adv-x="1031" 
d="M582 525v-525h-129l-231 266v-266h-150v525h128l232 -267v267h150zM794 204q-83 0 -136 41q-52 42 -52 110t51.5 108.5t136.5 40.5t137 -40.5t52 -108.5t-52.5 -109.5t-136.5 -41.5zM746 355q0 -31 48 -31q49 0 49 31q0 29 -49 29q-48 0 -48 -29zM947 37h-305v140h305
v-140z" />
    <glyph glyph-name="uniF3D0" unicode="&#xf3d0;" horiz-adv-x="480" 
d="M60 720h140q0 -40 42 -40q38 0 38 40h140q0 -70 -47 -110t-131 -40q-90 0 -136 38.5t-46 111.5z" />
    <glyph glyph-name="uniF400" unicode="&#xf400;" horiz-adv-x="0" 
d="M-240 738l117 -89l-131 -146l-89 63z" />
    <glyph glyph-name="uniF401" unicode="&#xf401;" horiz-adv-x="0" 
d="M-276 935l56 -129l-249 -78l-41 89z" />
    <glyph glyph-name="uniF406" unicode="&#xf406;" horiz-adv-x="522" 
d="M60 843l64 77q58 -60 143 -60q86 0 140 60l55 -78q-28 -48 -82 -80t-113 -32q-67 0 -123 34q-56 35 -84 79z" />
    <glyph glyph-name="uniF407" unicode="&#xf407;" horiz-adv-x="424" 
d="M60 -157l48 74q14 -14 35.5 -25.5t38.5 -11.5q22 0 22 13q0 17 -25 17h-6v90h75v-26q116 -9 116 -90q0 -43 -39 -68.5t-106 -25.5q-100 0 -159 53z" />
    <glyph glyph-name="uniF408" unicode="&#xf408;" horiz-adv-x="486" 
d="M112 723l-52 83l178 119h4l184 -117l-58 -85l-128 66z" />
    <glyph glyph-name="uniF409" unicode="&#xf409;" horiz-adv-x="311" 
d="M89 -50l149 29q13 -17 13 -48q0 -55 -47 -93q-46 -38 -100 -46l-44 64q41 18 41 58q0 21 -12 36z" />
    <glyph glyph-name="uniF40A" unicode="&#xf40a;" horiz-adv-x="303" 
d="M79 715l126 73q38 -41 38 -105q0 -66 -32 -115.5t-81 -78.5l-70 63q43 40 43 98q0 41 -24 65z" />
    <glyph glyph-name="uniF40B" unicode="&#xf40b;" horiz-adv-x="317" 
d="M60 845q0 40 29 65t72 25q40 0 68 -25.5t28 -64.5q0 -43 -28 -69.5t-68 -26.5q-44 0 -72.5 26t-28.5 70z" />
    <glyph glyph-name="uniF40C" unicode="&#xf40c;" horiz-adv-x="435" 
d="M60 809q0 58 42 88t113 30q74 0 117 -30t43 -88q0 -57 -44.5 -89t-115.5 -32q-69 0 -112 32.5t-43 88.5zM170 809q0 -41 47 -41q48 0 48 41q0 38 -48 38q-47 0 -47 -38z" />
    <glyph glyph-name="uniF40D" unicode="&#xf40d;" horiz-adv-x="496" 
d="M106 746l-46 94q23 28 57.5 45.5t67.5 17.5q31 0 70 -15t65 -15q50 0 78 30l38 -94q-40 -66 -126 -66q-24 0 -67 15q-42 15 -71 15q-33 0 -66 -27z" />
    <glyph glyph-name="uniF40E" unicode="&#xf40e;" horiz-adv-x="385" 
d="M280 -70l45 -90q-13 -16 -47.5 -28t-72.5 -12q-65 0 -105 24.5t-40 70.5q0 44 40 75q72 55 209 53v-23q-40 0 -69.5 -17t-29.5 -37q0 -26 30 -26q20 0 40 10z" />
    <glyph glyph-name="uniF410" unicode="&#xf410;" horiz-adv-x="0" 
d="M-243 817l-41 -89l-249 78l56 129z" />
    <glyph glyph-name="uniF416" unicode="&#xf416;" horiz-adv-x="311" 
d="M89 -50l149 29q13 -17 13 -48q0 -55 -47 -93q-46 -38 -100 -46l-44 64q41 18 41 58q0 21 -12 36z" />
    <glyph glyph-name="uniF418" unicode="&#xf418;" horiz-adv-x="303" 
d="M79 515l126 73q38 -41 38 -105q0 -66 -32 -115.5t-81 -78.5l-70 63q43 40 43 98q0 41 -24 65z" />
    <glyph glyph-name="uniF447" unicode="&#xf447;" horiz-adv-x="513" 
d="M114 -161l44 69q28 -28 68 -28q22 0 22 13q0 17 -25 17h-6v90h-41v375h-167v150h495v-150h-168v-375h-44v-26q106 -9 106 -90q0 -44 -39 -69t-112 -25q-80 0 -133 49z" />
    <glyph glyph-name="uniF44E" unicode="&#xf44e;" horiz-adv-x="626" 
d="M66 341h383q-29 42 -123 42q-42 0 -69 -8q-23 -7 -55 -27l-61 120q23 18 46 30q59 35 155 35q128 0 204 -76q77 -75 77 -198q0 -128 -81 -200q-82 -71 -210 -71q-141 0 -218 92q-76 93 -48 261zM330 138q58 0 86 12t39 41h-223q0 -21 28 -37t70 -16z" />
    <glyph glyph-name="uniF639" unicode="&#xf639;" 
d="M58 350q0 169 61 263q62 95 181 95q118 0 180 -95t62 -263q0 -170 -61 -264t-179 -94q-119 0 -181.5 94.5t-62.5 263.5zM218 350q0 -218 84 -218q43 0 61.5 49t18.5 169t-18.5 169t-63.5 49q-43 0 -62.5 -50.5t-19.5 -167.5z" />
    <glyph glyph-name="uniF63A" unicode="&#xf63a;" 
d="M530 0h-452v120q1 1 49 47l55 55q18 20 48 50q34 36 48 57l33 51q35 53 35 109q0 69 -64 69q-29 0 -46 -18.5t-31 -56.5l-125 57q18 79 74.5 123.5t145.5 44.5q97 0 151 -55q55 -55 55 -134q0 -199 -234 -379h258v-140z" />
    <glyph glyph-name="uniF63B" unicode="&#xf63b;" 
d="M295 -12q-80 0 -140 31.5t-91 84.5l83 111q68 -77 138 -77q42 0 65 19t23 49q0 77 -119 77h-44v150h40q43 0 69.5 18.5t26.5 51.5q0 26 -16 42.5t-48 16.5q-70 0 -121 -63l-82 108q64 105 217 105q93 0 151 -49q59 -48 59 -130q0 -117 -104 -164v-3q62 -12 96.5 -56.5
t34.5 -109.5q0 -96 -68 -155q-67 -57 -170 -57z" />
    <glyph glyph-name="uniF63C" unicode="&#xf63c;" 
d="M488 0h-150v150h-318v112l250 438h172l-229 -400h125v150h150v-150h82v-150h-82v-150z" />
    <glyph glyph-name="uniF63D" unicode="&#xf63d;" 
d="M117 308l48 392h346v-150h-214l-14 -89h24q94 0 156 -62q63 -61 63 -166q0 -114 -72 -180q-73 -65 -183 -65q-59 0 -118 25q-59 26 -89 69l84 115q21 -25 57.5 -42t69.5 -17q40 0 65.5 24.5t25.5 63.5q0 45 -34.5 72.5t-94.5 27.5q-83 0 -120 -18z" />
    <glyph glyph-name="uniF63E" unicode="&#xf63e;" 
d="M40 248q0 90 32 172.5t85 141.5q110 118 231 150l61 -113q-80 -27 -140.5 -79.5t-90.5 -121.5q41 38 123 38q78 0 135 -60q58 -59 58 -153q0 -110 -71 -173q-71 -62 -165 -62q-115 0 -187 75q-71 76 -71 185zM200 247q0 -51 26 -80t73 -29q35 0 55 21t20 53
q0 38 -22.5 61t-62.5 23q-55 0 -89 -49z" />
    <glyph glyph-name="uniF63F" unicode="&#xf63f;" 
d="M361 550h-281v150h460v-102l-237 -598h-164z" />
    <glyph glyph-name="uniF640" unicode="&#xf640;" 
d="M295 435h13q32 0 50 18.5t18 46.5q0 62 -77 62q-36 0 -55 -17t-19 -45t18.5 -46.5t51.5 -18.5zM308 285h-12q-37 0 -62.5 -20t-25.5 -54t23 -53.5t69 -19.5q47 0 70.5 18t22.5 55q-1 35 -23.5 54.5t-61.5 19.5zM301 -12q-112 0 -182 52q-71 53 -71 141q0 64 29 110t78 67
v3q-41 22 -65.5 65t-24.5 101q0 81 67 133t168 52t168 -52q68 -53 68 -133q0 -52 -27 -97t-73 -68v-3q51 -13 84 -57.5t33 -107.5q0 -97 -70 -152q-71 -54 -182 -54z" />
    <glyph glyph-name="uniF641" unicode="&#xf641;" 
d="M555 442q0 -196 -104 -317t-264 -137l-49 119q189 41 239 185q-41 -38 -109 -38q-86 0 -150 62q-62 62 -62 156q0 111 73 175q74 65 168 65q116 0 187 -74t71 -196zM395 443q0 52 -27 85.5t-72 33.5q-35 0 -57.5 -23.5t-22.5 -55.5q0 -38 25 -63.5t65 -25.5q55 0 89 49z
" />
    <glyph glyph-name="uniF643" unicode="&#xf643;" 
d="M102 65q-72 78 -72 185q0 108 72 184q74 78 198 78q125 0 197 -78q73 -76 73 -184t-73 -185q-72 -77 -197 -77q-124 0 -198 77zM190 250q0 -49 30 -80.5t80 -31.5q53 0 81.5 30.5t28.5 81.5q0 53 -29.5 82.5t-80.5 29.5q-50 0 -80 -30t-30 -82z" />
    <glyph glyph-name="uniF644" unicode="&#xf644;" 
d="M153 288l-48 136l178 84h105v-508h-160v319z" />
    <glyph glyph-name="uniF645" unicode="&#xf645;" 
d="M530 0h-452v110q97 42 163 80q95 57 95 113q0 28 -13.5 44t-37.5 16q-30 0 -52 -14.5t-44 -47.5l-95 98q27 50 82 82t119 32q97 0 149 -48t52 -126q0 -63 -41 -115t-88 -74h163v-150z" />
    <glyph glyph-name="uniF646" unicode="&#xf646;" 
d="M295 -212q-80 0 -140 31.5t-91 84.5l83 111q68 -77 138 -77q42 0 65 19t23 49q0 77 -119 77h-44v150h40q43 0 69.5 18.5t26.5 51.5q0 26 -16 42.5t-48 16.5q-70 0 -121 -63l-82 108q64 105 217 105q93 0 151 -49q59 -48 59 -130q0 -117 -104 -164v-3q62 -12 96.5 -56.5
t34.5 -109.5q0 -97 -68 -154q-67 -58 -170 -58z" />
    <glyph glyph-name="uniF647" unicode="&#xf647;" 
d="M488 -200h-150v200h-318v112l224 388h172l-203 -350h125v150h150v-150h82v-150h-82v-200z" />
    <glyph glyph-name="uniF648" unicode="&#xf648;" 
d="M117 108l48 392h346v-150h-214l-14 -89h24q94 0 156 -62q63 -61 63 -166q0 -115 -72 -179q-72 -66 -183 -66q-57 0 -118 26q-60 26 -89 68l84 115q21 -25 57.5 -42t69.5 -17q40 0 65.5 24.5t25.5 63.5q0 45 -34.5 72.5t-94.5 27.5q-83 0 -120 -18z" />
    <glyph glyph-name="uniF649" unicode="&#xf649;" 
d="M40 248q0 90 32 172.5t85 141.5q110 118 231 150l61 -113q-80 -27 -140.5 -79.5t-90.5 -121.5q41 38 123 38q78 0 135 -60q58 -59 58 -153q0 -110 -71 -173q-71 -62 -165 -62q-115 0 -187 75q-71 76 -71 185zM200 247q0 -51 26 -80t73 -29q35 0 55 21t20 53
q0 38 -22.5 61t-62.5 23q-55 0 -89 -49z" />
    <glyph glyph-name="uniF64A" unicode="&#xf64a;" 
d="M361 350h-281v150h460v-102l-237 -598h-164z" />
    <glyph glyph-name="uniF64B" unicode="&#xf64b;" 
d="M295 435h13q32 0 50 18.5t18 46.5q0 62 -77 62q-36 0 -55 -17t-19 -45t18.5 -46.5t51.5 -18.5zM308 285h-12q-37 0 -62.5 -20t-25.5 -54t23 -53.5t69 -19.5q47 0 70.5 18t22.5 55q-1 35 -23.5 54.5t-61.5 19.5zM301 -12q-112 0 -182 52q-71 53 -71 141q0 64 29 110t78 67
v3q-41 22 -65.5 65t-24.5 101q0 81 67 133t168 52t168 -52q68 -53 68 -133q0 -52 -27 -97t-73 -68v-3q51 -13 84 -57.5t33 -107.5q0 -97 -70 -152q-71 -54 -182 -54z" />
    <glyph glyph-name="uniF64C" unicode="&#xf64c;" 
d="M555 242q0 -196 -104 -317t-264 -137l-49 119q189 41 239 185q-41 -38 -109 -38q-86 0 -150 62q-62 62 -62 156q0 111 73 175q74 65 168 65q116 0 187 -74t71 -196zM395 243q0 52 -27 85.5t-72 33.5q-35 0 -57.5 -23.5t-22.5 -55.5q0 -38 25 -63.5t65 -25.5q55 0 89 49z
" />
    <glyph glyph-name="uniF66D" unicode="&#xf66d;" horiz-adv-x="632" 
d="M161 0h-161l244 525h144l244 -525h-171l-33 75h-234zM362 225l-50 115l-51 -115h101zM150 657l66 75q46 -52 105 -52q68 0 110 50l51 -72q-65 -98 -167 -98q-62 0 -103 31q-43 32 -62 66z" />
    <glyph glyph-name="uniF66E" unicode="&#xf66e;" horiz-adv-x="632" 
d="M161 0h-161l244 525h144l244 -525h-171l-33 75h-234zM362 225l-50 115l-51 -115h101zM463 570h-294v120h294v-120z" />
    <glyph glyph-name="uniF66F" unicode="&#xf66f;" horiz-adv-x="632" 
d="M579 -70l45 -90q-13 -16 -47.5 -28t-72.5 -12q-65 0 -105 24.5t-40 70.5q0 73 101 106l-32 74h-234l-33 -75h-161l244 525h144l244 -525h-33q-37 -2 -63.5 -18.5t-26.5 -35.5q0 -26 30 -26q20 0 40 10zM362 225l-50 115l-51 -115h101z" />
    <glyph glyph-name="uniF671" unicode="&#xf671;" horiz-adv-x="557" 
d="M472 170l61 -120q-26 -27 -81 -44.5t-115 -17.5q-140 0 -223 74q-83 75 -83 199q0 115 77 194q78 78 229 78q55 0 104.5 -16t78.5 -41l-71 -120l-22 8q-22 9 -26 10q-25 9 -64 9q-64 0 -100 -30.5t-36 -91.5q0 -55 41 -89t110 -34q67 0 120 32zM366 786l92 -115
l-162 -110l-71 83z" />
    <glyph glyph-name="uniF672" unicode="&#xf672;" horiz-adv-x="557" 
d="M472 170l61 -120q-26 -27 -81 -44.5t-115 -17.5q-140 0 -223 74q-83 75 -83 199q0 115 77 194q78 78 229 78q55 0 104.5 -16t78.5 -41l-71 -120l-22 8q-22 9 -26 10q-25 9 -64 9q-64 0 -100 -30.5t-36 -91.5q0 -55 41 -89t110 -34q67 0 120 32zM318 548h-4l-165 126
l70 88l98 -71l100 69l67 -87z" />
    <glyph glyph-name="uniF673" unicode="&#xf673;" horiz-adv-x="557" 
d="M472 170l61 -120q-26 -27 -81 -44.5t-115 -17.5q-140 0 -223 74q-83 75 -83 199q0 115 77 194q78 78 229 78q55 0 104.5 -16t78.5 -41l-71 -120l-22 8q-22 9 -26 10q-25 9 -64 9q-64 0 -100 -30.5t-36 -91.5q0 -55 41 -89t110 -34q67 0 120 32zM318 756h4l165 -126
l-70 -88l-98 71l-100 -69l-67 87z" />
    <glyph glyph-name="uniF674" unicode="&#xf674;" horiz-adv-x="557" 
d="M472 170l61 -120q-26 -27 -81 -44.5t-115 -17.5q-140 0 -223 74q-83 75 -83 199q0 115 77 194q78 78 229 78q55 0 104.5 -16t78.5 -41l-71 -120l-22 8q-22 9 -26 10q-25 9 -64 9q-64 0 -100 -30.5t-36 -91.5q0 -55 41 -89t110 -34q67 0 120 32zM223 655q0 38 26 61.5
t65 23.5q35 0 60 -24t25 -61q0 -41 -25 -66t-60 -25q-40 0 -65.5 24.5t-25.5 66.5z" />
    <glyph glyph-name="uniF675" unicode="&#xf675;" horiz-adv-x="634" 
d="M88 0h-16v525h13q38 0 89 1t95 1q167 0 250.5 -68.5t83.5 -193.5q0 -121 -88 -194q-86 -73 -252 -73q-33 0 -76 1t-99 1zM268 377q-26 0 -36 -2v-225q14 -2 36 -2q165 0 165 117q0 112 -165 112zM288 548h-4l-165 126l70 88l98 -71l100 69l67 -87z" />
    <glyph glyph-name="uniF676" unicode="&#xf676;" horiz-adv-x="630" 
d="M67 194h-58v140h58v191h13q37 0 92 1t114 1q154 0 234 -74q79 -73 79 -188q0 -113 -84 -190q-83 -77 -225 -77q-55 0 -104 1t-102 1h-17v194zM291 377q-49 0 -64 -4v-39h132v-140h-132v-44q26 -2 50 -2q152 0 152 117q0 57 -37 84.5t-101 27.5z" />
    <glyph glyph-name="uniF678" unicode="&#xf678;" horiz-adv-x="508" 
d="M460 0h-388v525h379v-150h-219v-37h194v-150h-194v-38h228v-150zM268 548h-4l-165 126l70 88l98 -71l100 69l67 -87z" />
    <glyph glyph-name="uniF679" unicode="&#xf679;" horiz-adv-x="508" 
d="M173 655q0 38 26 61.5t65 23.5q35 0 60 -24t25 -61q0 -41 -25 -66t-60 -25q-40 0 -65.5 24.5t-25.5 66.5zM460 0h-388v525h379v-150h-219v-37h194v-150h-194v-38h228v-150z" />
    <glyph glyph-name="uniF67A" unicode="&#xf67a;" horiz-adv-x="508" 
d="M460 0h-388v525h379v-150h-219v-37h194v-150h-194v-38h228v-150zM406 570h-294v120h294v-120z" />
    <glyph glyph-name="uniF67C" unicode="&#xf67c;" horiz-adv-x="508" 
d="M308 0h-236v525h379v-150h-219v-37h194v-150h-194v-38h228v-150h-9q-37 -2 -63.5 -18.5t-26.5 -35.5q0 -26 30 -26q20 0 40 10l45 -90q-13 -16 -47.5 -28t-72.5 -12q-65 0 -105 24.5t-40 70.5q0 71 97 105z" />
    <glyph glyph-name="uniF67D" unicode="&#xf67d;" horiz-adv-x="618" 
d="M429 180h-114v140h264v-257q-38 -34 -103 -55q-65 -20 -120 -20q-154 0 -240 74q-85 73 -85 199q0 116 83 194q82 78 222 78q112 0 198 -57l-67 -125q-56 32 -112 32q-154 0 -154 -122q0 -57 42.5 -90t114.5 -33q40 0 71 12v30zM159 657l66 75q46 -52 105 -52
q68 0 110 50l51 -72q-65 -98 -167 -98q-62 0 -103 31q-43 32 -62 66z" />
    <glyph glyph-name="uniF67E" unicode="&#xf67e;" horiz-adv-x="618" 
d="M429 180h-114v140h264v-257q-38 -34 -103 -55q-65 -20 -120 -20q-154 0 -240 74q-85 73 -85 199q0 116 83 194q82 78 222 78q112 0 198 -57l-67 -125q-56 32 -112 32q-154 0 -154 -122q0 -57 42.5 -90t114.5 -33q40 0 71 12v30zM328 756h4l165 -126l-70 -88l-98 71
l-100 -69l-67 87z" />
    <glyph glyph-name="uniF67F" unicode="&#xf67f;" horiz-adv-x="618" 
d="M429 180h-114v140h264v-257q-38 -34 -103 -55q-65 -20 -120 -20q-154 0 -240 74q-85 73 -85 199q0 116 83 194q82 78 222 78q112 0 198 -57l-67 -125q-56 32 -112 32q-154 0 -154 -122q0 -57 42.5 -90t114.5 -33q40 0 71 12v30zM256 -50l149 29q13 -17 13 -48
q0 -55 -47 -93q-46 -38 -100 -46l-44 64q41 18 41 58q0 21 -12 36z" />
    <glyph glyph-name="uniF680" unicode="&#xf680;" horiz-adv-x="618" 
d="M429 180h-114v140h264v-257q-38 -34 -103 -55q-65 -20 -120 -20q-154 0 -240 74q-85 73 -85 199q0 116 83 194q82 78 222 78q112 0 198 -57l-67 -125q-56 32 -112 32q-154 0 -154 -122q0 -57 42.5 -90t114.5 -33q40 0 71 12v30zM243 655q0 38 26 61.5t65 23.5
q35 0 60 -24t25 -61q0 -41 -25 -66t-60 -25q-40 0 -65.5 24.5t-25.5 66.5z" />
    <glyph glyph-name="uniF681" unicode="&#xf681;" horiz-adv-x="659" 
d="M72 363h-42v140h42v22h160v-22h195v22h160v-22h42v-140h-42v-363h-160v193h-195v-193h-160v363zM232 363v-20h195v20h-195z" />
    <glyph glyph-name="uniF682" unicode="&#xf682;" horiz-adv-x="659" 
d="M587 0h-160v193h-195v-193h-160v525h160v-182h195v182h160v-525zM328 756h4l165 -126l-70 -88l-98 71l-100 -69l-67 87z" />
    <glyph glyph-name="uniF685" unicode="&#xf685;" horiz-adv-x="314" 
d="M304 570h-294v120h294v-120zM237 0h-160v525h160v-525z" />
    <glyph glyph-name="uniF686" unicode="&#xf686;" horiz-adv-x="314" 
d="M197 -70l45 -90q-13 -16 -47.5 -28t-72.5 -12q-65 0 -105 24.5t-40 70.5q0 72 100 106v524h160v-525h-20q-37 -2 -63.5 -18.5t-26.5 -35.5q0 -26 30 -26q20 0 40 10z" />
    <glyph glyph-name="uniF688" unicode="&#xf688;" horiz-adv-x="357" 
d="M125 525h160v-390q0 -71 -43.5 -108t-123.5 -37q-38 0 -73 13t-48 30l52 122q22 -15 46 -15q30 0 30 24v361zM198 756h4l165 -126l-70 -88l-98 71l-100 -69l-67 87z" />
    <glyph glyph-name="uniF689" unicode="&#xf689;" horiz-adv-x="617" 
d="M232 0h-160v525h160v-211l159 211h207l-202 -239l221 -286h-217l-168 232v-232zM206 -50l149 29q13 -17 13 -48q0 -55 -47 -93q-46 -38 -100 -46l-44 64q41 18 41 58q0 21 -12 36z" />
    <glyph glyph-name="uniF68A" unicode="&#xf68a;" horiz-adv-x="475" 
d="M455 0h-383v525h160v-365h223v-160zM286 786l92 -115l-162 -110l-71 83z" />
    <glyph glyph-name="uniF68B" unicode="&#xf68b;" horiz-adv-x="475" 
d="M296 525h146q5 -15 5 -32q0 -131 -113 -194l-70 63q43 49 43 113q0 23 -11 50zM455 0h-383v525h160v-365h223v-160z" />
    <glyph glyph-name="uniF68C" unicode="&#xf68c;" horiz-adv-x="475" 
d="M196 -50l149 29q13 -17 13 -48q0 -55 -47 -93q-46 -38 -100 -46l-44 64q41 18 41 58q0 21 -12 36zM455 0h-383v525h160v-365h223v-160z" />
    <glyph glyph-name="uniF68D" unicode="&#xf68d;" horiz-adv-x="475" 
d="M291 316q0 37 29 65.5t73 28.5q39 0 66.5 -28.5t27.5 -65.5q0 -42 -26.5 -72t-67.5 -30q-45 0 -73.5 29.5t-28.5 72.5zM455 0h-383v525h160v-365h223v-160z" />
    <glyph glyph-name="uniF68E" unicode="&#xf68e;" horiz-adv-x="671" 
d="M599 525v-525h-129l-248 266v-266h-150v525h128l249 -267v267h150zM396 786l92 -115l-162 -110l-71 83z" />
    <glyph glyph-name="uniF68F" unicode="&#xf68f;" horiz-adv-x="671" 
d="M599 525v-525h-129l-248 266v-266h-150v525h128l249 -267v267h150zM337 548h-4l-165 126l70 88l98 -71l100 69l67 -87z" />
    <glyph glyph-name="uniF690" unicode="&#xf690;" horiz-adv-x="671" 
d="M599 525v-525h-129l-248 266v-266h-150v525h128l249 -267v267h150zM256 -50l149 29q13 -17 13 -48q0 -55 -47 -93q-46 -38 -100 -46l-44 64q41 18 41 58q0 21 -12 36z" />
    <glyph glyph-name="uniF692" unicode="&#xf692;" horiz-adv-x="664" 
d="M31 261q0 117 83 194q82 78 218 78q134 0 217 -73q84 -73 84 -199q0 -121 -85 -197t-216 -76q-135 0 -218 73q-83 74 -83 200zM201 261q0 -52 38 -88q38 -35 93 -35q65 0 98 33t33 90q0 56 -36.5 89t-94.5 33q-60 0 -95.5 -32.5t-35.5 -89.5zM462 776l111 -84l-174 -127
l-66 54zM271 790l108 -80l-129 -145l-76 51z" />
    <glyph glyph-name="uniF693" unicode="&#xf693;" horiz-adv-x="664" 
d="M31 261q0 117 83 194q82 78 218 78q134 0 217 -73q84 -73 84 -199q0 -121 -85 -197t-216 -76q-135 0 -218 73q-83 74 -83 200zM201 261q0 -52 38 -88q38 -35 93 -35q65 0 98 33t33 90q0 56 -36.5 89t-94.5 33q-60 0 -95.5 -32.5t-35.5 -89.5zM479 570h-294v120h294v-120z
" />
    <glyph glyph-name="uniF695" unicode="&#xf695;" horiz-adv-x="578" 
d="M232 145v-145h-160v525q37 0 86 1t114 1q242 0 242 -187q0 -51 -21 -98q-6 -14 -21 -29q-14 -15 -18 -18l-16 -11l130 -184h-203l-90 145h-43zM282 377q-24 0 -50 -2v-80h46q66 0 66 43q0 15 -15.5 27t-46.5 12zM336 786l92 -115l-162 -110l-71 83z" />
    <glyph glyph-name="uniF696" unicode="&#xf696;" horiz-adv-x="578" 
d="M232 145v-145h-160v525q37 0 86 1t114 1q242 0 242 -187q0 -51 -21 -98q-6 -14 -21 -29q-14 -15 -18 -18l-16 -11l130 -184h-203l-90 145h-43zM282 377q-24 0 -50 -2v-80h46q66 0 66 43q0 15 -15.5 27t-46.5 12zM278 548h-4l-165 126l70 88l98 -71l100 69l67 -87z" />
    <glyph glyph-name="uniF697" unicode="&#xf697;" horiz-adv-x="578" 
d="M232 145v-145h-160v525q37 0 86 1t114 1q242 0 242 -187q0 -51 -21 -98q-6 -14 -21 -29q-14 -15 -18 -18l-16 -11l130 -184h-203l-90 145h-43zM282 377q-24 0 -50 -2v-80h46q66 0 66 43q0 15 -15.5 27t-46.5 12zM196 -50l149 29q13 -17 13 -48q0 -55 -47 -93
q-46 -38 -100 -46l-44 64q41 18 41 58q0 21 -12 36z" />
    <glyph glyph-name="uniF698" unicode="&#xf698;" horiz-adv-x="516" 
d="M315 160q0 14 -70 34q-5 1 -15 4l-11 3q-33 9 -61 21t-55.5 31.5t-43.5 50t-16 67.5q0 75 57.5 118.5t173.5 43.5q52 0 116 -24q65 -24 95 -57l-72 -119q-31 20 -74 35q-44 15 -71 15q-55 0 -55 -20q0 -8 20 -15.5t50.5 -13.5t65.5 -19.5t65.5 -32t50.5 -52.5t20 -79
q0 -71 -63 -118q-62 -45 -164 -45q-66 0 -137 27q-69 26 -101 71l91 109q22 -20 73 -39q50 -18 86 -18q45 0 45 22zM326 786l92 -115l-162 -110l-71 83z" />
    <glyph glyph-name="uniF699" unicode="&#xf699;" horiz-adv-x="516" 
d="M114 -161l44 69q28 -28 68 -28q22 0 22 13q0 17 -25 17h-6v81q-62 7 -116.5 33t-80.5 62l91 109q22 -20 73 -39q50 -18 86 -18q45 0 45 22q0 14 -70 34q-5 1 -15 4l-11 3q-33 9 -61 21t-55.5 31.5t-43.5 50t-16 67.5q0 75 57.5 118.5t173.5 43.5q52 0 116 -24
q65 -24 95 -57l-72 -119q-31 20 -74 35q-44 15 -71 15q-55 0 -55 -20q0 -8 20 -15.5t50.5 -13.5t65.5 -19.5t65.5 -32t50.5 -52.5t20 -79q0 -66 -52.5 -109.5t-140.5 -51.5v-16q106 -9 106 -90q0 -44 -39 -69t-112 -25q-80 0 -133 49z" />
    <glyph glyph-name="uniF69A" unicode="&#xf69a;" horiz-adv-x="516" 
d="M315 160q0 14 -70 34q-5 1 -15 4l-11 3q-33 9 -61 21t-55.5 31.5t-43.5 50t-16 67.5q0 75 57.5 118.5t173.5 43.5q52 0 116 -24q65 -24 95 -57l-72 -119q-31 20 -74 35q-44 15 -71 15q-55 0 -55 -20q0 -8 20 -15.5t50.5 -13.5t65.5 -19.5t65.5 -32t50.5 -52.5t20 -79
q0 -71 -63 -118q-62 -45 -164 -45q-66 0 -137 27q-69 26 -101 71l91 109q22 -20 73 -39q50 -18 86 -18q45 0 45 22zM258 756h4l165 -126l-70 -88l-98 71l-100 -69l-67 87z" />
    <glyph glyph-name="uniF69B" unicode="&#xf69b;" horiz-adv-x="516" 
d="M315 160q0 14 -70 34q-5 1 -15 4l-11 3q-33 9 -61 21t-55.5 31.5t-43.5 50t-16 67.5q0 75 57.5 118.5t173.5 43.5q52 0 116 -24q65 -24 95 -57l-72 -119q-31 20 -74 35q-44 15 -71 15q-55 0 -55 -20q0 -8 20 -15.5t50.5 -13.5t65.5 -19.5t65.5 -32t50.5 -52.5t20 -79
q0 -71 -63 -118q-62 -45 -164 -45q-66 0 -137 27q-69 26 -101 71l91 109q22 -20 73 -39q50 -18 86 -18q45 0 45 22zM186 -50l149 29q13 -17 13 -48q0 -55 -47 -93q-46 -38 -100 -46l-44 64q41 18 41 58q0 21 -12 36z" />
    <glyph glyph-name="uniF69D" unicode="&#xf69d;" horiz-adv-x="513" 
d="M176 375h-167v150h495v-150h-168v-375h-160v375zM258 548h-4l-165 126l70 88l98 -71l100 69l67 -87z" />
    <glyph glyph-name="uniF69E" unicode="&#xf69e;" horiz-adv-x="513" 
d="M176 375h-167v150h495v-150h-168v-375h-160v375zM176 -50l149 29q13 -17 13 -48q0 -55 -47 -93q-46 -38 -100 -46l-44 64q41 18 41 58q0 21 -12 36z" />
    <glyph glyph-name="uniF69F" unicode="&#xf69f;" horiz-adv-x="638" 
d="M415 525h160v-310q0 -113 -71 -170q-71 -56 -177 -56q-122 0 -193 60.5t-71 170.5v305h160v-270q0 -24 4 -43t14.5 -36.5t32 -27t53.5 -9.5q51 0 69.5 26t18.5 82v278zM153 657l66 75q46 -52 105 -52q68 0 110 50l51 -72q-65 -98 -167 -98q-62 0 -103 31q-43 32 -62 66z
" />
    <glyph glyph-name="uniF6A0" unicode="&#xf6a0;" horiz-adv-x="638" 
d="M415 525h160v-310q0 -113 -71 -170q-71 -56 -177 -56q-122 0 -193 60.5t-71 170.5v305h160v-270q0 -24 4 -43t14.5 -36.5t32 -27t53.5 -9.5q51 0 69.5 26t18.5 82v278zM452 776l111 -84l-174 -127l-66 54zM261 790l108 -80l-129 -145l-76 51z" />
    <glyph glyph-name="uniF6A1" unicode="&#xf6a1;" horiz-adv-x="638" 
d="M415 525h160v-310q0 -113 -71 -170q-71 -56 -177 -56q-122 0 -193 60.5t-71 170.5v305h160v-270q0 -24 4 -43t14.5 -36.5t32 -27t53.5 -9.5q51 0 69.5 26t18.5 82v278zM466 570h-294v120h294v-120z" />
    <glyph glyph-name="uniF6A2" unicode="&#xf6a2;" horiz-adv-x="638" 
d="M415 525h160v-310q0 -151 -130 -205q-55 -34 -55 -64q0 -26 30 -26q20 0 40 10l45 -90q-13 -16 -47.5 -28t-72.5 -12q-65 0 -105 24.5t-40 70.5q0 32 21 53.5t65 40.5q-122 0 -192.5 60.5t-70.5 170.5v305h160v-270q0 -24 4 -43t14.5 -36.5t32 -27t53.5 -9.5
q51 0 69.5 26t18.5 82v278z" />
    <glyph glyph-name="uniF6A3" unicode="&#xf6a3;" horiz-adv-x="638" 
d="M181 652q0 54 39 91q40 38 98 38q59 0 99 -38q40 -37 40 -91q0 -53 -40 -90q-38 -37 -99 -37q-60 0 -98 37q-39 38 -39 90zM276 654q0 -21 12 -35t32 -14q19 0 30.5 14t11.5 35q0 20 -11.5 33.5t-30.5 13.5q-20 0 -32 -13t-12 -34zM415 525h160v-310q0 -113 -71 -170
q-71 -56 -177 -56q-122 0 -193 60.5t-71 170.5v305h160v-270q0 -24 4 -43t14.5 -36.5t32 -27t53.5 -9.5q51 0 69.5 26t18.5 82v278z" />
    <glyph glyph-name="uniF6AB" unicode="&#xf6ab;" horiz-adv-x="557" 
d="M282 375h-231v150h464v-113l-249 -262h257v-150h-489v113zM336 786l92 -115l-162 -110l-71 83z" />
    <glyph glyph-name="uniF6AC" unicode="&#xf6ac;" horiz-adv-x="557" 
d="M282 375h-231v150h464v-113l-249 -262h257v-150h-489v113zM190 655q0 38 26 61.5t65 23.5q35 0 60 -24t25 -61q0 -41 -25 -66t-60 -25q-40 0 -65.5 24.5t-25.5 66.5z" />
    <glyph glyph-name="uniF6AD" unicode="&#xf6ad;" horiz-adv-x="314" 
d="M69 655q0 38 26 61.5t65 23.5q35 0 60 -24t25 -61q0 -41 -25 -66t-60 -25q-40 0 -65.5 24.5t-25.5 66.5zM237 0h-160v525h160v-525z" />
    <glyph glyph-name="uniF6BA" unicode="&#xf6ba;" horiz-adv-x="364" 
d="M314 284h-264v140h264v-140z" />
    <glyph glyph-name="uniF6BB" unicode="&#xf6bb;" horiz-adv-x="604" 
d="M524 289h-444v130h444v-130z" />
    <glyph glyph-name="uniF6BC" unicode="&#xf6bc;" horiz-adv-x="824" 
d="M744 289h-664v130h664v-130z" />
    <glyph glyph-name="uniF6C3" unicode="&#xf6c3;" horiz-adv-x="311" 
d="M89 -50l149 29q13 -17 13 -48q0 -55 -47 -93q-46 -38 -100 -46l-44 64q41 18 41 58q0 21 -12 36z" />
    <glyph glyph-name="uniF6C9" unicode="&#xf6c9;" horiz-adv-x="410" 
d="M294 935l56 -129l-249 -78l-41 89z" />
    <glyph glyph-name="uniF6CA" unicode="&#xf6ca;" horiz-adv-x="486" 
d="M248 733h-4l-184 117l58 85l128 -76l128 76l52 -83z" />
    <glyph glyph-name="uniF6CB" unicode="&#xf6cb;" horiz-adv-x="540" 
d="M60 837q0 35 27.5 56.5t70.5 21.5q38 0 64.5 -22t26.5 -56q0 -38 -26.5 -61t-64.5 -23q-43 0 -70.5 22.5t-27.5 61.5zM291 837q0 35 28 56.5t70 21.5q38 0 64.5 -22t26.5 -56q0 -38 -26 -61t-65 -23q-43 0 -70.5 22.5t-27.5 61.5z" />
    <glyph glyph-name="uniF6CE" unicode="&#xf6ce;" horiz-adv-x="410" 
d="M350 817l-41 -89l-249 78l56 129z" />
    <glyph glyph-name="uniF6CF" unicode="&#xf6cf;" horiz-adv-x="571" 
d="M405 935l106 -94l-204 -113l-61 63zM161 935l130 -65l-167 -142l-64 58z" />
    <glyph glyph-name="uniF6D0" unicode="&#xf6d0;" horiz-adv-x="434" 
d="M374 750h-314v120h314v-120z" />
    <glyph glyph-name="uniF6D1" unicode="&#xf6d1;" horiz-adv-x="541" 
d="M60 880h150q0 -28 14 -39t48 -11q32 0 45 10.5t13 39.5h150q2 -72 -57 -116q-58 -44 -151 -44q-99 0 -155.5 43.5t-56.5 116.5z" />
    <glyph glyph-name="uniF6D4" unicode="&#xf6d4;" horiz-adv-x="460" 
d="M60 670h130q0 -58 42 -58q38 0 38 58h130q0 -76 -44.5 -123t-123.5 -47q-85 0 -128.5 45.5t-43.5 124.5z" />
    <glyph glyph-name="uniF6DC" unicode="&#xf6dc;" 
d="M178 438l-78 124l190 138h108v-700h-150v487z" />
    <glyph glyph-name="uniF6DE" unicode="&#xf6de;" horiz-adv-x="618" 
d="M558 205h-498v130h498v-130z" />
    <glyph glyph-name="uniF6F4" unicode="&#xf6f4;" horiz-adv-x="452" 
d="M60 657l66 75q46 -52 105 -52q68 0 110 50l51 -72q-65 -98 -167 -98q-62 0 -103 31q-43 32 -62 66z" />
    <glyph glyph-name="uniF6F5" unicode="&#xf6f5;" horiz-adv-x="455" 
d="M229 548h-4l-165 126l70 88l98 -71l100 69l67 -87z" />
    <glyph glyph-name="uniF6F6" unicode="&#xf6f6;" horiz-adv-x="455" 
d="M226 756h4l165 -126l-70 -88l-98 71l-100 -69l-67 87z" />
    <glyph glyph-name="uniF6F7" unicode="&#xf6f7;" horiz-adv-x="296" 
d="M60 655q0 38 26 61.5t65 23.5q35 0 60 -24t25 -61q0 -41 -25 -66t-60 -25q-40 0 -65.5 24.5t-25.5 66.5z" />
    <glyph glyph-name="uniF6F8" unicode="&#xf6f8;" horiz-adv-x="519" 
d="M348 776l111 -84l-174 -127l-66 54zM157 790l108 -80l-129 -145l-76 51z" />
    <glyph glyph-name="uniF6F9" unicode="&#xf6f9;" horiz-adv-x="475" 
d="M72 152l-52 -23v154l52 23v219h160v-149l90 40v-153l-90 -40v-63h223v-160h-383v152z" />
    <glyph glyph-name="uniF6FA" unicode="&#xf6fa;" horiz-adv-x="875" 
d="M827 0h-388v13q-57 -25 -120 -25q-127 0 -208 75q-80 77 -80 198q0 119 75 195q77 77 219 77q57 0 114 -23v15h380v-150h-220v-37h194v-150h-194v-38h228v-150zM332 138q58 0 107 34v178q-45 33 -102 33q-64 0 -100 -30.5t-36 -91.5q0 -53 37 -88t94 -35z" />
    <glyph glyph-name="uniF6FB" unicode="&#xf6fb;" horiz-adv-x="385" 
d="M280 -70l45 -90q-13 -16 -47.5 -28t-72.5 -12q-65 0 -105 24.5t-40 70.5q0 44 40 75q72 55 209 53v-23q-40 0 -69.5 -17t-29.5 -37q0 -26 30 -26q20 0 40 10z" />
    <glyph glyph-name="uniF6FC" unicode="&#xf6fc;" horiz-adv-x="396" 
d="M60 652q0 54 39 91q40 38 98 38q59 0 99 -38q40 -37 40 -91q0 -53 -40 -90q-38 -37 -99 -37q-60 0 -98 37q-39 38 -39 90zM155 654q0 -21 12 -35t32 -14q19 0 30.5 14t11.5 35q0 20 -11.5 33.5t-30.5 13.5q-20 0 -32 -13t-12 -34z" />
    <glyph glyph-name="uniF6FD" unicode="&#xf6fd;" horiz-adv-x="516" 
d="M315 160q0 14 -70 34q-5 1 -15 4l-11 3q-33 9 -61 21t-55.5 31.5t-43.5 50t-16 67.5q0 75 57.5 118.5t173.5 43.5q52 0 116 -24q65 -24 95 -57l-72 -119q-31 20 -74 35q-44 15 -71 15q-55 0 -55 -20q0 -8 20 -15.5t50.5 -13.5t65.5 -19.5t65.5 -32t50.5 -52.5t20 -79
q0 -71 -63 -118q-62 -45 -164 -45q-66 0 -137 27q-69 26 -101 71l91 109q22 -20 73 -39q50 -18 86 -18q45 0 45 22zM258 548h-4l-165 126l70 88l98 -71l100 69l67 -87z" />
    <glyph glyph-name="uniF6FE" unicode="&#xf6fe;" horiz-adv-x="485" 
d="M120 569l-60 67q56 78 132 78q23 0 61 -20q37 -19 57 -19t31 5q4 1 10 5l13.5 9t11.5 8l49 -75q-60 -72 -127 -72q-22 0 -59 19q-38 20 -60 20q-16 0 -59 -25z" />
    <glyph glyph-name="uniF6FF" unicode="&#xf6ff;" horiz-adv-x="557" 
d="M282 375h-231v150h464v-113l-249 -262h257v-150h-489v113zM278 548h-4l-165 126l70 88l98 -71l100 69l67 -87z" />
    <glyph glyph-name="uniF730" unicode="&#xf730;" horiz-adv-x="620" 
d="M112 65q-72 78 -72 185q0 108 72 184q74 78 198 78q125 0 197 -78q73 -76 73 -184t-73 -185q-72 -77 -197 -77q-124 0 -198 77zM200 250q0 -49 30 -80.5t80 -31.5q53 0 81.5 30.5t28.5 81.5q0 53 -29.5 82.5t-80.5 29.5q-50 0 -80 -30t-30 -82z" />
    <glyph glyph-name="uniF731" unicode="&#xf731;" horiz-adv-x="383" 
d="M68 288l-48 136l178 84h105v-508h-160v319z" />
    <glyph glyph-name="uniF732" unicode="&#xf732;" horiz-adv-x="512" 
d="M482 0h-452v110q97 42 163 80q95 57 95 113q0 28 -13.5 44t-37.5 16q-30 0 -52 -14.5t-44 -47.5l-95 98q27 50 82 82t119 32q97 0 149 -48t52 -126q0 -63 -41 -115t-88 -74h163v-150z" />
    <glyph glyph-name="uniF733" unicode="&#xf733;" horiz-adv-x="529" 
d="M241 -212q-80 0 -140 31.5t-91 84.5l83 111q68 -77 138 -77q42 0 65 19t23 49q0 77 -119 77h-44v150h40q43 0 69.5 18.5t26.5 51.5q0 26 -16 42.5t-48 16.5q-70 0 -121 -63l-82 108q65 105 217 105q93 0 151 -49q59 -48 59 -130q0 -117 -104 -164v-3q62 -12 96.5 -56.5
t34.5 -109.5q0 -97 -68 -154q-67 -58 -170 -58z" />
    <glyph glyph-name="uniF734" unicode="&#xf734;" horiz-adv-x="580" 
d="M478 -200h-150v200h-318v112l224 388h172l-203 -350h125v150h150v-150h82v-150h-82v-200z" />
    <glyph glyph-name="uniF735" unicode="&#xf735;" horiz-adv-x="512" 
d="M63 108l48 392h346v-150h-214l-14 -89h24q94 0 156 -62q63 -61 63 -166q0 -115 -72 -179q-72 -66 -183 -66q-57 0 -118 26q-60 26 -89 68l84 115q21 -25 57.5 -42t69.5 -17q40 0 65.5 24.5t25.5 63.5q0 45 -34.5 72.5t-94.5 27.5q-83 0 -120 -18z" />
    <glyph glyph-name="uniF736" unicode="&#xf736;" horiz-adv-x="564" 
d="M40 248q0 90 32 172.5t85 141.5q110 118 231 150l61 -113q-80 -27 -140.5 -79.5t-90.5 -121.5q41 38 123 38q78 0 135 -60q58 -59 58 -153q0 -110 -71 -173q-71 -62 -165 -62q-115 0 -187 75q-71 76 -71 185zM200 247q0 -51 26 -80t73 -29q35 0 55 21t20 53
q0 38 -22.5 61t-62.5 23q-55 0 -89 -49z" />
    <glyph glyph-name="uniF737" unicode="&#xf737;" horiz-adv-x="510" 
d="M301 350h-281v150h460v-102l-237 -598h-164z" />
    <glyph glyph-name="uniF738" unicode="&#xf738;" horiz-adv-x="605" 
d="M297 435h13q32 0 50 18.5t18 46.5q0 62 -77 62q-36 0 -55 -17t-19 -45t18.5 -46.5t51.5 -18.5zM310 285h-12q-37 0 -62.5 -20t-25.5 -54t23 -53.5t69 -19.5q47 0 70.5 18t22.5 55q-1 35 -23.5 54.5t-61.5 19.5zM303 -12q-112 0 -182 52q-71 53 -71 141q0 64 29 110t78 67
v3q-41 22 -65.5 65t-24.5 101q0 81 67 133t168 52t168 -52q68 -53 68 -133q0 -52 -27 -97t-73 -68v-3q51 -13 84 -57.5t33 -107.5q0 -97 -70 -152q-71 -54 -182 -54z" />
    <glyph glyph-name="uniF739" unicode="&#xf739;" horiz-adv-x="559" 
d="M519 242q0 -196 -104 -317t-264 -137l-49 119q189 41 239 185q-41 -38 -109 -38q-86 0 -150 62q-62 62 -62 156q0 111 73 175q74 65 168 65q116 0 187 -74t71 -196zM359 243q0 52 -27 85.5t-72 33.5q-35 0 -57.5 -23.5t-22.5 -55.5q0 -38 25 -63.5t65 -25.5q55 0 89 49z
" />
    <glyph glyph-name="uniF760" unicode="&#xf760;" horiz-adv-x="353" 
d="M293 644l-71 -83l-162 110l92 115z" />
    <glyph glyph-name="uniF761" unicode="&#xf761;" horiz-adv-x="632" 
d="M161 0h-161l244 525h144l244 -525h-171l-33 75h-234zM362 225l-50 115l-51 -115h101z" />
    <glyph glyph-name="uniF762" unicode="&#xf762;" horiz-adv-x="555" 
d="M72 2v521q99 6 217 6q98 0 150.5 -35.5t52.5 -95.5q0 -86 -66 -120v-1q81 -19 81 -112q0 -80 -62.5 -124.5t-167.5 -44.5q-153 0 -205 6zM298 192h-66v-40q10 -6 59 -6q56 0 56 23t-49 23zM287 379q-32 0 -55 -4v-43h56q44 0 44 23q0 24 -45 24z" />
    <glyph glyph-name="uniF763" unicode="&#xf763;" horiz-adv-x="557" 
d="M472 170l61 -120q-26 -27 -81 -44.5t-115 -17.5q-140 0 -223 74q-83 75 -83 199q0 115 77 194q78 78 229 78q55 0 104.5 -16t78.5 -41l-71 -120l-22 8q-22 9 -26 10q-25 9 -64 9q-64 0 -100 -30.5t-36 -91.5q0 -55 41 -89t110 -34q67 0 120 32z" />
    <glyph glyph-name="uniF764" unicode="&#xf764;" horiz-adv-x="634" 
d="M88 0h-16v525h13q38 0 89 1t95 1q167 0 250.5 -68.5t83.5 -193.5q0 -121 -88 -194q-86 -73 -252 -73q-33 0 -76 1t-99 1zM268 377q-26 0 -36 -2v-225q14 -2 36 -2q165 0 165 117q0 112 -165 112z" />
    <glyph glyph-name="uniF765" unicode="&#xf765;" horiz-adv-x="508" 
d="M460 0h-388v525h379v-150h-219v-37h194v-150h-194v-38h228v-150z" />
    <glyph glyph-name="uniF766" unicode="&#xf766;" horiz-adv-x="473" 
d="M232 0h-160v525h367v-150h-207v-57h182v-150h-182v-168z" />
    <glyph glyph-name="uniF767" unicode="&#xf767;" horiz-adv-x="618" 
d="M429 180h-114v140h264v-257q-38 -34 -103 -55q-65 -20 -120 -20q-154 0 -240 74q-85 73 -85 199q0 116 83 194q82 78 222 78q112 0 198 -57l-67 -125q-56 32 -112 32q-154 0 -154 -122q0 -57 42.5 -90t114.5 -33q40 0 71 12v30z" />
    <glyph glyph-name="uniF768" unicode="&#xf768;" horiz-adv-x="659" 
d="M587 0h-160v193h-195v-193h-160v525h160v-182h195v182h160v-525z" />
    <glyph glyph-name="uniF769" unicode="&#xf769;" horiz-adv-x="314" 
d="M237 0h-160v525h160v-525z" />
    <glyph glyph-name="uniF76A" unicode="&#xf76a;" horiz-adv-x="357" 
d="M125 525h160v-390q0 -71 -43.5 -108t-123.5 -37q-38 0 -73 13t-48 30l52 122q22 -15 46 -15q30 0 30 24v361z" />
    <glyph glyph-name="uniF76B" unicode="&#xf76b;" horiz-adv-x="617" 
d="M232 0h-160v525h160v-211l159 211h207l-202 -239l221 -286h-217l-168 232v-232z" />
    <glyph glyph-name="uniF76C" unicode="&#xf76c;" horiz-adv-x="475" 
d="M455 0h-383v525h160v-365h223v-160z" />
    <glyph glyph-name="uniF76D" unicode="&#xf76d;" horiz-adv-x="782" 
d="M232 0h-160v525h161l168 -187l158 187h151v-525h-160v281l-149 -165h-22l-147 162v-278z" />
    <glyph glyph-name="uniF76E" unicode="&#xf76e;" horiz-adv-x="671" 
d="M599 525v-525h-129l-248 266v-266h-150v525h128l249 -267v267h150z" />
    <glyph glyph-name="uniF76F" unicode="&#xf76f;" horiz-adv-x="664" 
d="M31 261q0 117 83 194q82 78 218 78q134 0 217 -73q84 -73 84 -199q0 -121 -85 -197t-216 -76q-135 0 -218 73q-83 74 -83 200zM201 261q0 -52 38 -88q38 -35 93 -35q65 0 98 33t33 90q0 56 -36.5 89t-94.5 33q-60 0 -95.5 -32.5t-35.5 -89.5z" />
    <glyph glyph-name="uniF770" unicode="&#xf770;" horiz-adv-x="543" 
d="M232 132v-132h-160v525q39 0 90 1t102 1q127 0 187.5 -51.5t60.5 -145.5q0 -89 -61 -144q-62 -56 -161 -56q-34 0 -58 2zM280 377q-4 0 -10 -0.5t-17.5 -1t-20.5 -0.5v-91q28 -4 53 -4q57 0 57 50q0 26 -14.5 36.5t-47.5 10.5z" />
    <glyph glyph-name="uniF771" unicode="&#xf771;" horiz-adv-x="664" 
d="M31 261q0 117 83 194q82 78 218 78q134 0 217 -73q84 -73 84 -199q0 -92 -53 -162l91 -99h-185l-15 15q-65 -27 -139 -27q-135 0 -218 73q-83 74 -83 200zM201 261q0 -52 38 -88q38 -35 93 -35q18 0 23 1l-33 36l105 94l33 -37q3 13 3 29q0 56 -36.5 89t-94.5 33
q-60 0 -95.5 -32.5t-35.5 -89.5z" />
    <glyph glyph-name="uniF772" unicode="&#xf772;" horiz-adv-x="578" 
d="M232 145v-145h-160v525q37 0 86 1t114 1q242 0 242 -187q0 -51 -21 -98q-6 -14 -21 -29q-14 -15 -18 -18l-16 -11l130 -184h-203l-90 145h-43zM282 377q-24 0 -50 -2v-80h46q66 0 66 43q0 15 -15.5 27t-46.5 12z" />
    <glyph glyph-name="uniF773" unicode="&#xf773;" horiz-adv-x="516" 
d="M315 160q0 14 -70 34q-5 1 -15 4l-11 3q-33 9 -61 21t-55.5 31.5t-43.5 50t-16 67.5q0 75 57.5 118.5t173.5 43.5q52 0 116 -24q65 -24 95 -57l-72 -119q-31 20 -74 35q-44 15 -71 15q-55 0 -55 -20q0 -8 20 -15.5t50.5 -13.5t65.5 -19.5t65.5 -32t50.5 -52.5t20 -79
q0 -71 -63 -118q-62 -45 -164 -45q-66 0 -137 27q-69 26 -101 71l91 109q22 -20 73 -39q50 -18 86 -18q45 0 45 22z" />
    <glyph glyph-name="uniF774" unicode="&#xf774;" horiz-adv-x="513" 
d="M176 375h-167v150h495v-150h-168v-375h-160v375z" />
    <glyph glyph-name="uniF775" unicode="&#xf775;" horiz-adv-x="638" 
d="M415 525h160v-310q0 -113 -71 -170q-71 -56 -177 -56q-122 0 -193 60.5t-71 170.5v305h160v-270q0 -24 4 -43t14.5 -36.5t32 -27t53.5 -9.5q51 0 69.5 26t18.5 82v278z" />
    <glyph glyph-name="uniF776" unicode="&#xf776;" horiz-adv-x="558" 
d="M400 525h171l-227 -523h-124l-233 523h181l120 -306z" />
    <glyph glyph-name="uniF777" unicode="&#xf777;" horiz-adv-x="860" 
d="M703 525h160l-166 -525h-154l-107 278l-106 -278h-159l-174 525h181l86 -290l95 290h162l99 -290z" />
    <glyph glyph-name="uniF778" unicode="&#xf778;" horiz-adv-x="577" 
d="M377 525h198l-183 -257l191 -268h-198l-98 146l-95 -146h-198l190 268l-181 257h198l91 -139z" />
    <glyph glyph-name="uniF779" unicode="&#xf779;" horiz-adv-x="572" 
d="M393 525h182l-210 -319v-206h-160v206l-208 319h193l102 -169z" />
    <glyph glyph-name="uniF77A" unicode="&#xf77a;" horiz-adv-x="557" 
d="M282 375h-231v150h464v-113l-249 -262h257v-150h-489v113z" />
    <glyph glyph-name="uniF7A8" unicode="&#xf7a8;" horiz-adv-x="457" 
d="M60 637q0 33 23 54t59 21q30 0 52 -21t22 -54q0 -35 -22 -57t-52 -22q-36 0 -59 21.5t-23 57.5zM241 637q0 33 23 54t57 21q32 0 54 -21t22 -54q0 -35 -22 -57t-54 -22q-34 0 -57 21.5t-23 57.5z" />
    <glyph glyph-name="uniF7AF" unicode="&#xf7af;" horiz-adv-x="414" 
d="M354 570h-294v120h294v-120z" />
    <glyph glyph-name="uniF7B4" unicode="&#xf7b4;" horiz-adv-x="353" 
d="M201 786l92 -115l-162 -110l-71 83z" />
    <glyph glyph-name="uniF7B8" unicode="&#xf7b8;" horiz-adv-x="404" 
d="M60 -161l44 69q28 -28 68 -28q22 0 22 13q0 17 -25 17h-6v90h75v-26q106 -9 106 -90q0 -44 -39 -69t-112 -25q-80 0 -133 49z" />
    <glyph glyph-name="uniF7E0" unicode="&#xf7e0;" horiz-adv-x="632" 
d="M161 0h-161l244 525h144l244 -525h-171l-33 75h-234zM362 225l-50 115l-51 -115h101zM413 644l-71 -83l-162 110l92 115z" />
    <glyph glyph-name="uniF7E1" unicode="&#xf7e1;" horiz-adv-x="632" 
d="M161 0h-161l244 525h144l244 -525h-171l-33 75h-234zM362 225l-50 115l-51 -115h101zM361 786l92 -115l-162 -110l-71 83z" />
    <glyph glyph-name="uniF7E2" unicode="&#xf7e2;" horiz-adv-x="632" 
d="M161 0h-161l244 525h144l244 -525h-171l-33 75h-234zM362 225l-50 115l-51 -115h101zM315 756h4l165 -126l-70 -88l-98 71l-100 -69l-67 87z" />
    <glyph glyph-name="uniF7E3" unicode="&#xf7e3;" horiz-adv-x="632" 
d="M161 0h-161l244 525h144l244 -525h-171l-33 75h-234zM362 225l-50 115l-51 -115h101zM194 569l-60 67q56 78 132 78q23 0 61 -20q37 -19 57 -19t31 5q4 1 10 5l13.5 9t11.5 8l49 -75q-60 -72 -127 -72q-22 0 -59 19q-38 20 -60 20q-16 0 -59 -25z" />
    <glyph glyph-name="uniF7E4" unicode="&#xf7e4;" horiz-adv-x="632" 
d="M161 0h-161l244 525h144l244 -525h-171l-33 75h-234zM362 225l-50 115l-51 -115h101zM148 637q0 33 23 54t59 21q30 0 52 -21t22 -54q0 -35 -22 -57t-52 -22q-36 0 -59 21.5t-23 57.5zM329 637q0 33 23 54t57 21q32 0 54 -21t22 -54q0 -35 -22 -57t-54 -22
q-34 0 -57 21.5t-23 57.5z" />
    <glyph glyph-name="uniF7E5" unicode="&#xf7e5;" horiz-adv-x="632" 
d="M161 0h-161l244 525h144l244 -525h-171l-33 75h-234zM362 225l-50 115l-51 -115h101zM178 664q0 54 39 91q40 38 98 38q59 0 99 -38q40 -37 40 -91q0 -53 -40 -90q-38 -37 -99 -37q-60 0 -98 37q-39 38 -39 90zM273 666q0 -21 12 -35t32 -14q19 0 30.5 14t11.5 35
q0 20 -11.5 33.5t-30.5 13.5q-20 0 -32 -13t-12 -34z" />
    <glyph glyph-name="uniF7E6" unicode="&#xf7e6;" horiz-adv-x="800" 
d="M752 0h-368v73h-183l-58 -73h-185l171 210l257 315h357v-150h-199v-37h174v-150h-174v-38h208v-150zM384 223v78l-63 -78h63z" />
    <glyph glyph-name="uniF7E7" unicode="&#xf7e7;" horiz-adv-x="557" 
d="M174 -161l44 69q28 -28 68 -28q22 0 22 13q0 17 -25 17h-6v82q-114 16 -180 88t-66 181q0 115 77 194q78 78 229 78q55 0 104.5 -16t78.5 -41l-71 -120l-22 8q-22 9 -26 10q-25 9 -64 9q-64 0 -100 -30.5t-36 -91.5q0 -55 41 -89t110 -34q67 0 120 32l61 -120
q-24 -25 -74.5 -42.5t-106.5 -19.5v-14q106 -9 106 -90q0 -44 -39 -69t-112 -25q-80 0 -133 49z" />
    <glyph glyph-name="uniF7E8" unicode="&#xf7e8;" horiz-adv-x="508" 
d="M460 0h-388v525h379v-150h-219v-37h194v-150h-194v-38h228v-150zM368 644l-71 -83l-162 110l92 115z" />
    <glyph glyph-name="uniF7E9" unicode="&#xf7e9;" horiz-adv-x="508" 
d="M460 0h-388v525h379v-150h-219v-37h194v-150h-194v-38h228v-150zM296 786l92 -115l-162 -110l-71 83z" />
    <glyph glyph-name="uniF7EA" unicode="&#xf7ea;" horiz-adv-x="508" 
d="M460 0h-388v525h379v-150h-219v-37h194v-150h-194v-38h228v-150zM258 756h4l165 -126l-70 -88l-98 71l-100 -69l-67 87z" />
    <glyph glyph-name="uniF7EB" unicode="&#xf7eb;" horiz-adv-x="508" 
d="M100 637q0 33 23 54t59 21q30 0 52 -21t22 -54q0 -35 -22 -57t-52 -22q-36 0 -59 21.5t-23 57.5zM281 637q0 33 23 54t57 21q32 0 54 -21t22 -54q0 -35 -22 -57t-54 -22q-34 0 -57 21.5t-23 57.5zM460 0h-388v525h379v-150h-219v-37h194v-150h-194v-38h228v-150z" />
    <glyph glyph-name="uniF7EC" unicode="&#xf7ec;" horiz-adv-x="314" 
d="M237 0h-160v525h160v-525zM258 644l-71 -83l-162 110l92 115z" />
    <glyph glyph-name="uniF7ED" unicode="&#xf7ed;" horiz-adv-x="314" 
d="M237 0h-160v525h160v-525zM216 786l92 -115l-162 -110l-71 83z" />
    <glyph glyph-name="uniF7EE" unicode="&#xf7ee;" horiz-adv-x="314" 
d="M156 756h4l165 -126l-70 -88l-98 71l-100 -69l-67 87zM237 0h-160v525h160v-525z" />
    <glyph glyph-name="uniF7EF" unicode="&#xf7ef;" horiz-adv-x="314" 
d="M-11 637q0 33 23 54t59 21q30 0 52 -21t22 -54q0 -35 -22 -57t-52 -22q-36 0 -59 21.5t-23 57.5zM170 637q0 33 23 54t57 21q32 0 54 -21t22 -54q0 -35 -22 -57t-54 -22q-34 0 -57 21.5t-23 57.5zM237 0h-160v525h160v-525z" />
    <glyph glyph-name="uniF7F0" unicode="&#xf7f0;" horiz-adv-x="630" 
d="M67 194h-58v140h58v191h13q37 0 92 1t114 1q154 0 234 -74q79 -73 79 -188q0 -113 -84 -190q-83 -77 -225 -77q-55 0 -104 1t-102 1h-17v194zM291 377q-49 0 -64 -4v-39h132v-140h-132v-44q26 -2 50 -2q152 0 152 117q0 57 -37 84.5t-101 27.5z" />
    <glyph glyph-name="uniF7F1" unicode="&#xf7f1;" horiz-adv-x="671" 
d="M203 569l-60 67q55 78 132 78q23 0 61 -20q37 -19 57 -19t31 5q4 1 10 5l13.5 9t11.5 8l49 -75q-60 -72 -127 -72q-22 0 -59 19q-38 20 -60 20q-16 0 -59 -25zM599 525v-525h-129l-248 266v-266h-150v525h128l249 -267v267h150z" />
    <glyph glyph-name="uniF7F2" unicode="&#xf7f2;" horiz-adv-x="664" 
d="M31 261q0 117 83 194q82 78 218 78q134 0 217 -73q84 -73 84 -199q0 -121 -85 -197t-216 -76q-135 0 -218 73q-83 74 -83 200zM201 261q0 -52 38 -88q38 -35 93 -35q65 0 98 33t33 90q0 56 -36.5 89t-94.5 33q-60 0 -95.5 -32.5t-35.5 -89.5zM418 644l-71 -83l-162 110
l92 115z" />
    <glyph glyph-name="uniF7F3" unicode="&#xf7f3;" horiz-adv-x="664" 
d="M31 261q0 117 83 194q82 78 218 78q134 0 217 -73q84 -73 84 -199q0 -121 -85 -197t-216 -76q-135 0 -218 73q-83 74 -83 200zM201 261q0 -52 38 -88q38 -35 93 -35q65 0 98 33t33 90q0 56 -36.5 89t-94.5 33q-60 0 -95.5 -32.5t-35.5 -89.5zM386 786l92 -115l-162 -110
l-71 83z" />
    <glyph glyph-name="uniF7F4" unicode="&#xf7f4;" horiz-adv-x="664" 
d="M31 261q0 117 83 194q82 78 218 78q134 0 217 -73q84 -73 84 -199q0 -121 -85 -197t-216 -76q-135 0 -218 73q-83 74 -83 200zM201 261q0 -52 38 -88q38 -35 93 -35q65 0 98 33t33 90q0 56 -36.5 89t-94.5 33q-60 0 -95.5 -32.5t-35.5 -89.5zM331 756h4l165 -126l-70 -88
l-98 71l-100 -69l-67 87z" />
    <glyph glyph-name="uniF7F5" unicode="&#xf7f5;" horiz-adv-x="664" 
d="M31 261q0 117 83 194q82 78 218 78q134 0 217 -73q84 -73 84 -199q0 -121 -85 -197t-216 -76q-135 0 -218 73q-83 74 -83 200zM201 261q0 -52 38 -88q38 -35 93 -35q65 0 98 33t33 90q0 56 -36.5 89t-94.5 33q-60 0 -95.5 -32.5t-35.5 -89.5zM210 569l-60 67
q56 78 132 78q23 0 61 -20q37 -19 57 -19t31 5q4 1 10 5l13.5 9t11.5 8l49 -75q-60 -72 -127 -72q-22 0 -59 19q-38 20 -60 20q-16 0 -59 -25z" />
    <glyph glyph-name="uniF7F6" unicode="&#xf7f6;" horiz-adv-x="664" 
d="M31 261q0 117 83 194q82 78 218 78q134 0 217 -73q84 -73 84 -199q0 -121 -85 -197t-216 -76q-135 0 -218 73q-83 74 -83 200zM201 261q0 -52 38 -88q38 -35 93 -35q65 0 98 33t33 90q0 56 -36.5 89t-94.5 33q-60 0 -95.5 -32.5t-35.5 -89.5zM164 637q0 33 23 54t59 21
q30 0 52 -21t22 -54q0 -35 -22 -57t-52 -22q-36 0 -59 21.5t-23 57.5zM345 637q0 33 23 54t57 21q32 0 54 -21t22 -54q0 -35 -22 -57t-54 -22q-34 0 -57 21.5t-23 57.5z" />
    <glyph glyph-name="uniF7F8" unicode="&#xf7f8;" horiz-adv-x="664" 
d="M31 261q0 117 83 194q82 78 218 78q90 0 159 -34l47 46l86 -88l-39 -38q48 -68 48 -158q0 -121 -85 -197t-216 -76q-85 0 -155 32l-46 -45l-86 88l36 35q-50 68 -50 163zM201 261q0 -21 6 -40l161 158q-20 4 -36 4q-60 0 -95.5 -32.5t-35.5 -89.5zM463 261q0 17 -4 34
l-158 -154q15 -3 31 -3q65 0 98 33t33 90z" />
    <glyph glyph-name="uniF7F9" unicode="&#xf7f9;" horiz-adv-x="638" 
d="M415 525h160v-310q0 -113 -71 -170q-71 -56 -177 -56q-122 0 -193 60.5t-71 170.5v305h160v-270q0 -24 4 -43t14.5 -36.5t32 -27t53.5 -9.5q51 0 69.5 26t18.5 82v278zM398 644l-71 -83l-162 110l92 115z" />
    <glyph glyph-name="uniF7FA" unicode="&#xf7fa;" horiz-adv-x="638" 
d="M415 525h160v-310q0 -113 -71 -170q-71 -56 -177 -56q-122 0 -193 60.5t-71 170.5v305h160v-270q0 -24 4 -43t14.5 -36.5t32 -27t53.5 -9.5q51 0 69.5 26t18.5 82v278zM376 786l92 -115l-162 -110l-71 83z" />
    <glyph glyph-name="uniF7FB" unicode="&#xf7fb;" horiz-adv-x="638" 
d="M415 525h160v-310q0 -113 -71 -170q-71 -56 -177 -56q-122 0 -193 60.5t-71 170.5v305h160v-270q0 -24 4 -43t14.5 -36.5t32 -27t53.5 -9.5q51 0 69.5 26t18.5 82v278zM318 756h4l165 -126l-70 -88l-98 71l-100 -69l-67 87z" />
    </font>
</defs>
</svg>
