<?xml version="1.0" standalone="no"?>
<!DOCTYPE svg PUBLIC "-//W3C//DTD SVG 1.1//EN" "http://www.w3.org/Graphics/SVG/1.1/DTD/svg11.dtd" >
<svg xmlns="http://www.w3.org/2000/svg" xmlns:xlink="http://www.w3.org/1999/xlink" version="1.1">
<metadata>
Created by FontForge 20170910 at Tue Feb  4 22:12:50 2014
 By Jimmy Wärting
Copyright (c) 2011 ParaType Inc., ParaType Ltd. All rights reserved.
</metadata>
<defs>
<font id="Circe-Regular" horiz-adv-x="592" >
  <font-face 
    font-family="Circe"
    font-weight="400"
    font-stretch="normal"
    units-per-em="1000"
    panose-1="2 11 5 2 2 2 3 2 2 3"
    ascent="800"
    descent="-200"
    x-height="450"
    cap-height="700"
    bbox="-534 -392 1681 1005"
    underline-thickness="50"
    underline-position="-200"
    unicode-range="U+0020-FB02"
  />
<missing-glyph horiz-adv-x="225" 
 />
    <glyph glyph-name="uniF350.var.accented" unicode="&#xf350;`" horiz-adv-x="590" 
d="M98 0h-86l246 528h74l246 -528h-91l-64 140h-261zM387 220l-94 206l-95 -206h189zM360 766l49 -61l-135 -125l-40 44z" />
    <glyph glyph-name="uniF355.var.accented" unicode="&#xf355;`" horiz-adv-x="488" 
d="M432 0h-348v525h340v-80h-255v-140h230v-80h-230v-145h263v-80zM318 766l49 -61l-135 -125l-40 44z" />
    <glyph glyph-name="uniF358.var.accented" unicode="&#xf358;`" horiz-adv-x="656" 
d="M487 390l-328 -390h-75v525h85v-390l328 390h75v-525h-85v390zM388 766l49 -61l-135 -125l-40 44z" />
    <glyph glyph-name="uniF35E.var.accented" unicode="&#xf35e;`" horiz-adv-x="655" 
d="M40 262q0 116 81 192q81 78 207 78q124 0 205 -75q82 -75 82 -195q0 -119 -82 -195q-80 -76 -205 -76q-124 0 -207 75q-81 75 -81 196zM130 262q0 -80 57 -136q56 -55 141 -55q90 0 143 54q54 54 54 137q0 84 -57 136q-56 54 -140 54q-85 0 -142 -54q-56 -53 -56 -136z
M399 766l49 -61l-135 -125l-40 44z" />
    <glyph glyph-name="uniF363.var.accented" unicode="&#xf363;`" horiz-adv-x="546" 
d="M449 525h87l-197 -401q-31 -64 -67.5 -94t-84.5 -30q-41 0 -69 20l30 72q22 -13 43 -13q35 0 61 48l10 18l-251 380h106l189 -296zM348 766l49 -61l-135 -125l-40 44z" />
    <glyph glyph-name="uniF36B.var.accented" unicode="&#xf36b;`" horiz-adv-x="706" 
d="M622 0h-85v525h85v-525zM233 265q-25 0 -64 -3v-182q54 -2 62 -2q131 0 131 97q0 90 -129 90zM84 525h85v-183q42 3 71 3q104 0 158 -44t54 -124q0 -83 -61.5 -131t-169.5 -48q-44 0 -75 1t-62 1v525zM398 766l49 -61l-135 -125l-40 44z" />
    <glyph glyph-name="uniF36D.var.accented" unicode="&#xf36d;`" horiz-adv-x="557" 
d="M430 228h-273v80h272q-14 70 -67 107.5t-138 37.5q-98 0 -157 -41l-34 64q75 57 195 57q129 0 209 -74q81 -74 81 -196q0 -124 -82 -197q-82 -74 -217 -74q-122 0 -193 55l37 71q65 -46 166 -46q84 0 137.5 41t63.5 115zM298 766l49 -61l-135 -125l-40 44z" />
    <glyph glyph-name="uniF36E.var.accented" unicode="&#xf36e;`" horiz-adv-x="871" 
d="M169 0h-85v525h85v-217h112q13 99 87 162t184 63q126 0 203 -74q76 -73 76 -196q0 -119 -77 -196q-76 -75 -202 -75q-112 0 -186 64q-75 65 -86 172h-111v-228zM368 263q0 -84 52 -137q53 -54 134 -54q86 0 136 54q51 54 51 137q0 85 -52 137q-51 53 -135 53
q-81 0 -134 -53q-52 -52 -52 -137zM489 766l49 -61l-135 -125l-40 44z" />
    <glyph glyph-name="uniF36F.var.accented" unicode="&#xf36f;`" horiz-adv-x="534" 
d="M450 0h-85v180h-112l-134 -180h-101l149 197q-47 21 -75 59.5t-28 88.5q0 82 59 132.5t167 50.5q13 0 89 -2q38 -1 71 -1v-525zM245 260h120v185q-51 3 -83 3q-61 0 -94.5 -27t-33.5 -71q0 -34 26.5 -59t64.5 -31zM348 766l49 -61l-135 -125l-40 44z" />
    <glyph glyph-name="uniF371.var.accented" unicode="&#xf371;`" horiz-adv-x="488" 
d="M84 654q0 19 14 31t34 12q18 0 30.5 -12.5t12.5 -30.5q0 -20 -12.5 -33t-30.5 -13q-21 0 -34.5 12.5t-13.5 33.5zM332 654q0 18 13.5 30.5t32.5 12.5q18 0 31 -12.5t13 -30.5q0 -20 -13 -33t-31 -13q-19 0 -32.5 13t-13.5 33zM268 766l69 -43l-109 -143l-45 28zM432 0
h-348v525h340v-80h-255v-140h230v-80h-230v-145h263v-80z" />
    <glyph glyph-name="afii10017.var.accented" unicode="&#x410;`" horiz-adv-x="705" 
d="M101 0h-86l301 704h73l301 -704h-91l-90 212h-319zM476 292l-126 299l-126 -299h252zM483 887l30 -68l-202 -84l-23 48z" />
    <glyph glyph-name="afii10022.var.accented" unicode="&#x415;`" horiz-adv-x="575" 
d="M510 0h-405v700h395v-80h-310v-226h280v-80h-280v-234h320v-80zM433 887l30 -68l-202 -84l-23 48z" />
    <glyph glyph-name="afii10026.var.accented" unicode="&#x418;`" horiz-adv-x="795" 
d="M605 560l-425 -560h-75v700h85v-560l425 560h75v-700h-85v560zM523 887l30 -68l-202 -84l-23 48z" />
    <glyph glyph-name="afii10032.var.accented" unicode="&#x41e;`" horiz-adv-x="814" 
d="M50 350q0 152 101 256t256 104q154 0 255 -101q102 -101 102 -259q0 -154 -102 -258q-102 -102 -255 -102t-256 101q-101 101 -101 259zM140 350q0 -118 77 -200q77 -80 190 -80q118 0 192 80q75 80 75 200t-77 200t-190 80q-115 0 -191 -79t-76 -201zM533 887l30 -68
l-202 -84l-23 48z" />
    <glyph glyph-name="afii10037.var.accented" unicode="&#x423;`" horiz-adv-x="666" 
d="M565 700h86l-242 -540q-37 -84 -77.5 -122t-96.5 -38q-54 0 -85 25l30 72q26 -18 54 -18q51 0 86 71l12 26l-317 524h96l262 -439zM478 887l30 -68l-202 -84l-23 48z" />
    <glyph glyph-name="afii10045.var.accented" unicode="&#x42b;`" horiz-adv-x="845" 
d="M740 0h-85v700h85v-700zM277 365q-35 0 -87 -6v-278q81 -3 84 -3q178 0 178 149q0 67 -45 102.5t-130 35.5zM105 700h85v-260q70 5 93 5q127 0 193 -56.5t66 -159.5q0 -110 -73 -170.5t-205 -60.5q-50 0 -87 1q-36 1 -72 1v700zM533 887l30 -68l-202 -84l-23 48z" />
    <glyph glyph-name="afii10047.var.accented" unicode="&#x42d;`" horiz-adv-x="677" 
d="M540 317h-347v80h346q-13 108 -89 170.5t-194 62.5q-104 0 -177 -57l-33 64q82 73 230 73q156 0 254 -98q97 -97 97 -260q0 -161 -98 -262q-97 -100 -261 -100q-142 0 -233 73l37 71q85 -64 194 -64q112 0 187 66q77 68 87 181zM413 887l30 -68l-202 -84l-23 48z" />
    <glyph glyph-name="afii10048.var.accented" unicode="&#x42e;`" horiz-adv-x="1078" 
d="M190 0h-85v700h85v-303h151q15 137 108 225q94 88 232 88q152 0 250 -101q97 -100 97 -259q0 -155 -98 -258q-98 -102 -249 -102q-138 0 -235 91q-96 91 -106 236h-150v-317zM429 350q0 -119 72 -200q74 -80 182 -80q119 0 186 79q69 79 69 201t-71 201q-70 79 -184 79
q-110 0 -182 -79t-72 -201zM683 887l30 -68l-202 -84l-23 48z" />
    <glyph glyph-name="afii10049.var.accented" unicode="&#x42f;`" horiz-adv-x="623" 
d="M518 0h-85v260h-131l-181 -260h-96l194 275q-62 25 -100 76.5t-38 119.5q0 101 69 166q69 66 204 66q4 0 84 -2q40 -1 80 -1v-700zM292 340h141v280q-69 3 -95 3q-78 0 -122.5 -40.5t-44.5 -106.5q0 -54 36 -91q36 -38 85 -45zM488 887l30 -68l-202 -84l-23 48z" />
    <glyph glyph-name="afii10023.var.accented" unicode="&#x401;`" horiz-adv-x="575" 
d="M124 813q0 21 12 33t31 12q18 0 29.5 -12.5t11.5 -32.5q0 -23 -11.5 -36t-29.5 -13q-19 0 -31 13t-12 36zM403 813q0 20 13 32.5t31 12.5t29.5 -12.5t11.5 -32.5q0 -23 -11.5 -36t-29.5 -13q-19 0 -31.5 13t-12.5 36zM336 887l67 -21l-139 -125l-29 15zM510 0h-405v700
h395v-80h-310v-226h280v-80h-280v-234h320v-80z" />
    <glyph glyph-name="afii10065.var.accented" unicode="&#x430;`" horiz-adv-x="460" 
d="M96 355l-21 64q67 41 150 41q91 0 132 -45t41 -139v-276h-76v58q-53 -65 -144 -65q-62 0 -100 37.5t-38 101.5q0 66 47 104.5t123 38.5q71 0 112 -29q0 76 -21 109t-81 33q-61 0 -124 -33zM206 65q67 0 116 58v57q-42 30 -101 30q-41 0 -68.5 -19.5t-27.5 -54.5
q0 -33 21.5 -52t59.5 -19zM293 722l62 -48l-120 -143l-48 34z" />
    <glyph glyph-name="afii10070.var.accented" unicode="&#x435;`" horiz-adv-x="520" 
d="M427 112l25 -63q-65 -59 -169 -59q-110 0 -175 64q-66 64 -66 171q0 101 62 168q61 67 170 67q90 0 149 -58q60 -57 60 -148q0 -29 -5 -54h-346q5 -63 47.5 -99t109.5 -36q88 0 138 47zM270 385q-59 0 -97.5 -33t-45.5 -87h273q-3 56 -37.5 88t-92.5 32zM322 722l62 -48
l-120 -143l-48 34z" />
    <glyph glyph-name="afii10074.var.accented" unicode="&#x438;`" horiz-adv-x="565" 
d="M412 335l-260 -335h-80v450h80v-335l260 335h80v-450h-80v335zM330 722l62 -48l-120 -143l-48 34z" />
    <glyph glyph-name="afii10080.var.accented" unicode="&#x43e;`" horiz-adv-x="565" 
d="M108 56q-66 68 -66 169q0 102 66 168q67 67 174 67t173 -67q67 -66 67 -168t-67 -169q-66 -66 -173 -66q-106 0 -174 66zM127 225q0 -71 43 -115q44 -45 112 -45t111.5 44.5t43.5 115.5q0 69 -44 115q-43 45 -111 45t-111 -45q-44 -44 -44 -115zM335 722l62 -48
l-120 -143l-48 34z" />
    <glyph glyph-name="afii10085.var.accented" unicode="&#x443;`" horiz-adv-x="491" 
d="M390 450h91l-180 -450q-49 -119 -85 -158q-38 -42 -87 -42q-44 0 -85 28l26 61q32 -15 50 -15q28 0 50.5 24t45.5 78l10 24l-216 450h96l132 -286q4 -7 27 -68q9 33 21 69zM308 722l62 -48l-120 -143l-48 34z" />
    <glyph glyph-name="afii10093.var.accented" unicode="&#x44b;`" horiz-adv-x="642" 
d="M217 0h-145v450h80v-135h74q92 0 135 -41.5t43 -113.5q0 -68 -45 -114q-43 -46 -142 -46zM570 0h-80v450h80v-450zM211 240h-59v-165h58q57 0 83 20t26 62q0 83 -108 83zM358 722l62 -48l-120 -143l-48 34z" />
    <glyph glyph-name="afii10095.var.accented" unicode="&#x44d;`" horiz-adv-x="489" 
d="M364 196h-222v65h221q-9 60 -50.5 92t-105.5 32q-83 0 -138 -49l-34 60q29 29 77 46.5t94 17.5q108 0 173 -64q67 -64 67 -171q0 -99 -65 -167t-163 -68q-122 0 -181 57l38 59q46 -41 138 -41q63 0 103 34.5t48 96.5zM270 722l62 -48l-120 -143l-48 34z" />
    <glyph glyph-name="afii10096.var.accented" unicode="&#x44e;`" horiz-adv-x="760" 
d="M157 0h-85v450h85v-180h98q14 86 75.5 138t151.5 52q106 0 170 -67q65 -67 65 -168t-66 -169q-65 -66 -169 -66q-95 0 -156 55t-72 145h-97v-190zM342 225q0 -69 40 -112t103 -43t102.5 42.5t39.5 112.5q0 69 -39 112t-103 43q-63 0 -103 -43t-40 -112zM435 722l62 -48
l-120 -143l-48 34z" />
    <glyph glyph-name="afii10097.var.accented" unicode="&#x44f;`" horiz-adv-x="482" 
d="M269 450h140v-450h-80v150h-87l-110 -150h-97l130 170q-41 9 -69 44.5t-28 85.5q0 69 50 109.5t151 40.5zM153 298q0 -32 25 -52.5t59 -20.5h92v150h-73q-51 0 -77 -21t-26 -56zM331 722l62 -48l-120 -143l-48 34z" />
    <glyph glyph-name="afii10071.var.accented" unicode="&#x451;`" horiz-adv-x="520" 
d="M96 602q0 18 11 28.5t29 10.5q15 0 26 -11t11 -28q0 -18 -11 -29.5t-26 -11.5q-18 0 -29 11.5t-11 29.5zM360 602q0 17 12 28t28 11q15 0 26 -11t11 -28q0 -18 -11 -29.5t-26 -11.5q-18 0 -29 11.5t-11 29.5zM308 715l52 -41l-120 -143l-39 27zM427 112l25 -63
q-65 -59 -169 -59q-110 0 -175 64q-66 64 -66 171q0 101 62 168q61 67 170 67q90 0 149 -58q60 -57 60 -148q0 -29 -5 -54h-346q5 -63 47.5 -99t109.5 -36q88 0 138 47zM270 385q-59 0 -97.5 -33t-45.5 -87h273q-3 56 -37.5 88t-92.5 32z" />
    <glyph glyph-name="fi" unicode="fi" horiz-adv-x="514" 
d="M444 0h-80v375h-202v-375h-80v511q0 98 49.5 148.5t138.5 50.5q109 0 165 -74l-58 -47q-34 46 -94 46q-121 0 -121 -133v-52h282v-450z" />
    <glyph glyph-name="fl" unicode="fl" horiz-adv-x="561" 
d="M344 120v487q-37 28 -82 28q-100 0 -100 -121v-64h103v-75h-103v-375h-80v523q0 92 41 139.5t117 47.5q71 0 114 -32h70v-522q0 -89 53 -89q25 0 56 20l18 -61q-40 -34 -106 -34q-101 0 -101 128z" />
    <glyph glyph-name=".notdef" horiz-adv-x="225" 
 />
    <glyph glyph-name=".null" horiz-adv-x="0" 
 />
    <glyph glyph-name="nonmarkingreturn" horiz-adv-x="333" 
 />
    <glyph glyph-name="space" unicode=" " horiz-adv-x="225" 
 />
    <glyph glyph-name="exclam" unicode="!" horiz-adv-x="310" 
d="M197 215h-85v485h85v-485zM99 54q0 22 16 37.5t42 15.5q21 0 37 -16t16 -37q0 -24 -15 -40.5t-38 -16.5q-26 0 -42 16.5t-16 40.5z" />
    <glyph glyph-name="quotedbl" unicode="&#x22;" horiz-adv-x="415" 
d="M330 477h-80v223h80v-223zM165 477h-80v223h80v-223z" />
    <glyph glyph-name="numbersign" unicode="#" horiz-adv-x="704" 
d="M379 -10l-62 22l67 183h-184l-76 -205l-63 22l68 183h-89v70h115l63 170h-178v70h204l76 205l63 -23l-68 -182h184l76 205l63 -22l-68 -183h94v-70h-120l-63 -170h183v-70h-209zM473 435h-184l-63 -170h184z" />
    <glyph glyph-name="dollar" unicode="$" 
d="M430 179q0 35 -19 61t-49 42.5t-66.5 31.5t-73 32.5t-66.5 39.5t-49 58t-19 83q0 69 47 118.5t127 61.5v83h80v-82q101 -12 155 -71l-46 -64q-57 57 -142 57q-62 0 -96.5 -27.5t-34.5 -75.5q0 -35 19 -61t49 -42t66.5 -30.5t73 -31.5t66.5 -38.5t49 -58.5t19 -85
q0 -73 -49 -124t-129 -62v-94h-80v92q-62 7 -113.5 35t-72.5 68l49 58q29 -38 77 -60.5t96 -22.5q58 0 95 29.5t37 79.5z" />
    <glyph glyph-name="percent" unicode="%" horiz-adv-x="877" 
d="M97 414q-52 48 -52 123t51 122q53 47 132 47t131 -47q52 -46 52 -122q0 -75 -52 -123q-53 -47 -131 -47t-131 47zM120 537q0 -46 31.5 -75.5t76.5 -29.5q46 0 77 29.5t31 75.5q0 45 -31 74.5t-77 29.5t-77 -29.5t-31 -74.5zM518 41q-52 48 -52 123t51 122q53 47 132 47
t131 -47q52 -46 52 -122q0 -75 -52 -123q-53 -47 -131 -47t-131 47zM541 164q0 -46 31.5 -75.5t76.5 -29.5q46 0 77 29.5t31 75.5q0 45 -31 74.5t-77 29.5t-77 -29.5t-31 -74.5zM206 -10l-47 33l514 687l46 -34z" />
    <glyph glyph-name="ampersand" unicode="&#x26;" horiz-adv-x="744" 
d="M684 0h-100l-73 92q-79 -102 -215 -102q-98 0 -163 56q-63 57 -63 144q0 75 41.5 131t124.5 112q-43 15 -68 49.5t-25 82.5q0 63 45 104q47 41 109 41t109 -41q46 -40 46 -104q0 -49 -31 -87q-31 -39 -73 -46l170 -219q58 101 58 237h79q0 -176 -88 -301zM298 70
q105 0 164 86l-175 230q-65 -50 -96 -91.5t-31 -88.5q0 -59 40 -98q41 -38 98 -38zM218 565q0 -32 23 -55.5t56 -23.5t56.5 23t23.5 56t-23.5 56.5t-56.5 23.5t-56 -23t-23 -57z" />
    <glyph glyph-name="quotesingle" unicode="'" horiz-adv-x="250" 
d="M165 477h-80v223h80v-223z" />
    <glyph glyph-name="parenleft" unicode="(" horiz-adv-x="293" 
d="M293 -162l-51 -44q-202 174 -202 431q0 248 203 431l50 -44q-90 -86 -131.5 -179.5t-41.5 -207.5q0 -111 45 -212t128 -175z" />
    <glyph glyph-name="parenright" unicode=")" horiz-adv-x="293" 
d="M51 -206l-51 44q83 74 128 175t45 212q0 114 -41.5 207.5t-131.5 179.5l50 44q203 -183 203 -431q0 -257 -202 -431z" />
    <glyph glyph-name="asterisk" unicode="*" horiz-adv-x="479" 
d="M240 709q22 0 37.5 -15.5t15.5 -36.5q0 -22 -15 -36.5t-38 -14.5q-21 0 -36 15t-15 36t15.5 36.5t35.5 15.5zM187 375q0 22 15.5 38t36.5 16t37 -16t16 -38q0 -20 -16 -36t-37 -16q-20 0 -36 16t-16 36zM305 584q0 22 14.5 37.5t35.5 15.5q22 0 37.5 -15.5t15.5 -37.5
q0 -21 -15.5 -36.5t-37.5 -15.5q-21 0 -35.5 15.5t-14.5 36.5zM355 503q22 0 37.5 -15t15.5 -37t-15.5 -37.5t-37.5 -15.5q-21 0 -35.5 15.5t-14.5 37.5t14.5 37t35.5 15zM122 503q22 0 37 -15t15 -37t-15 -37.5t-37 -15.5q-21 0 -36 15.5t-15 37.5t15 37t36 15zM71 584
q0 22 15 37.5t36 15.5q22 0 37 -15.5t15 -37.5q0 -21 -15 -36.5t-37 -15.5q-21 0 -36 15.5t-15 36.5z" />
    <glyph glyph-name="plus" unicode="+" 
d="M257 325h-188v70h188v191h75v-191h191v-70h-191v-193h-75v193z" />
    <glyph glyph-name="comma" unicode="," horiz-adv-x="223" 
d="M54 46q0 24 15 38.5t42 14.5q32 0 52 -26.5t20 -70.5q0 -54 -29.5 -93.5t-80.5 -54.5l-22 38q52 16 64 67q7 34 -1 50q-6 -9 -22 -9q-15 0 -26.5 13.5t-11.5 32.5z" />
    <glyph glyph-name="hyphen" unicode="-" horiz-adv-x="389" 
d="M314 235h-239v75h239v-75z" />
    <glyph glyph-name="period" unicode="." horiz-adv-x="210" 
d="M50 54q0 21 16.5 37t40.5 16q21 0 37 -16t16 -37q0 -24 -15 -40.5t-38 -16.5q-24 0 -40.5 16.5t-16.5 40.5z" />
    <glyph glyph-name="slash" unicode="/" horiz-adv-x="335" 
d="M33 -208l-63 23l333 895l62 -23z" />
    <glyph glyph-name="zero" unicode="0" horiz-adv-x="564" 
d="M509 350q0 -170 -56.5 -264t-168.5 -94q-113 0 -172 96q-57 97 -57 262q0 164 56 261q57 97 171 97q115 0 170 -97q57 -96 57 -261zM284 67q73 0 106.5 70t33.5 213q0 142 -34.5 212.5t-107.5 70.5q-142 0 -142 -283t144 -283z" />
    <glyph glyph-name="one" unicode="1" horiz-adv-x="379" 
d="M77 509l-42 65l168 130h56v-704h-80v589z" />
    <glyph glyph-name="two" unicode="2" horiz-adv-x="527" 
d="M472 0h-427v65q136 133 200 212q113 142 113 238q0 50 -30.5 81.5t-83.5 31.5q-46 0 -80.5 -29.5t-44.5 -82.5l-68 28q12 75 67.5 119.5t132.5 44.5q92 0 142 -53t50 -124q0 -135 -129 -287q-58 -68 -93 -102q-30 -30 -72 -67h323v-75z" />
    <glyph glyph-name="three" unicode="3" horiz-adv-x="532" 
d="M247 -10q-74 0 -129.5 31t-82.5 89l46 57q24 -46 68 -71.5t95 -25.5q63 0 100.5 35t37.5 91t-39.5 89t-103.5 33h-55v80h50q49 0 84 34q37 34 37 87q0 52 -30.5 81.5t-83.5 29.5q-95 0 -144 -87l-45 55q24 53 75.5 82.5t119.5 29.5q88 0 140.5 -48t52.5 -129
q0 -58 -28 -102t-81 -66v-3q62 -10 99 -57t37 -112q0 -92 -62 -148q-61 -55 -158 -55z" />
    <glyph glyph-name="four" unicode="4" horiz-adv-x="550" 
d="M423 0h-80v175h-323v57l290 468h92l-277 -445h218v195h80v-195h97v-80h-97v-175z" />
    <glyph glyph-name="five" unicode="5" horiz-adv-x="516" 
d="M99 348l44 352h316v-80h-246l-26 -189q24 7 56 7q97 0 159 -60q62 -59 62 -157q0 -105 -66 -168t-162 -63q-62 0 -117 28t-84 78l46 59q24 -39 67.5 -62t89.5 -23q60 0 100 42q41 43 41 106q0 64 -47 106q-46 42 -123 42q-63 0 -110 -18z" />
    <glyph glyph-name="six" unicode="6" horiz-adv-x="554" 
d="M50 248q0 90 30.5 173t81.5 141q105 119 228 148l33 -61q-99 -25 -179 -107q-77 -80 -100 -204q50 93 165 93q87 0 143 -60q57 -60 57 -155q0 -98 -65 -163q-64 -63 -151 -63q-113 0 -178 74q-65 76 -65 184zM135 248q0 -75 41 -127q41 -51 116 -51q56 0 94 41
q38 43 38 99q0 65 -37.5 105.5t-104.5 40.5q-53 0 -92.5 -31t-54.5 -77z" />
    <glyph glyph-name="seven" unicode="7" horiz-adv-x="485" 
d="M353 620h-323v80h420v-52l-258 -648h-88z" />
    <glyph glyph-name="eight" unicode="8" horiz-adv-x="595" 
d="M285 400h26q45 0 78 34q34 34 34 81q0 52 -36 83.5t-91 31.5q-54 0 -89 -32t-35 -83q0 -47 34 -81t79 -34zM310 320h-22q-57 0 -98 -35q-40 -34 -40 -89t41.5 -90.5t105.5 -35.5q67 0 107.5 34.5t40.5 91.5q-1 56 -39 90t-96 34zM65 181q0 63 36 111.5t96 65.5v3
q-48 16 -79 62.5t-31 103.5q0 81 60 132q61 51 150 51t150 -51t61 -132q0 -53 -31.5 -98.5t-83.5 -66.5v-3q60 -10 98.5 -57.5t38.5 -114.5q0 -92 -67 -144q-68 -53 -165 -53q-99 0 -166 52t-67 139z" />
    <glyph glyph-name="nine" unicode="9" horiz-adv-x="551" 
d="M501 447q0 -193 -99 -316q-97 -121 -251 -141l-27 63q119 23 193 102t90 201q-47 -87 -158 -87q-92 0 -150 61q-59 62 -59 154q0 99 68 162q67 64 155 64q113 0 175 -74q63 -74 63 -189zM416 447q0 77 -39 130t-113 53q-57 0 -98 -42q-41 -41 -41 -98q0 -62 39.5 -104
t104.5 -42q54 0 93 29t54 74z" />
    <glyph glyph-name="colon" unicode=":" horiz-adv-x="320" 
d="M105 406q0 21 16.5 37t40.5 16q21 0 37 -16t16 -37q0 -24 -15 -40.5t-38 -16.5q-24 0 -40.5 16.5t-16.5 40.5zM105 54q0 21 16.5 37t40.5 16q21 0 37 -16t16 -37q0 -24 -15 -40.5t-38 -16.5q-24 0 -40.5 16.5t-16.5 40.5z" />
    <glyph glyph-name="semicolon" unicode=";" horiz-adv-x="324" 
d="M105 46q0 24 15 38.5t42 14.5q32 0 52 -26.5t20 -70.5q0 -54 -29.5 -93.5t-80.5 -54.5l-22 38q52 16 64 67q7 34 -1 50q-6 -9 -22 -9q-15 0 -26.5 13.5t-11.5 32.5zM105 406q0 21 16.5 37t40.5 16q21 0 37 -16t16 -37q0 -24 -15 -40.5t-38 -16.5q-24 0 -40.5 16.5
t-16.5 40.5z" />
    <glyph glyph-name="less" unicode="&#x3c;" 
d="M497 166v-87l-440 266v34l440 264v-87l-329 -194z" />
    <glyph glyph-name="equal" unicode="=" 
d="M523 415h-454v70h454v-70zM523 235h-454v70h454v-70z" />
    <glyph glyph-name="greater" unicode="&#x3e;" 
d="M534 379v-34l-439 -266v87l329 196l-329 194v87z" />
    <glyph glyph-name="question" unicode="?" horiz-adv-x="466" 
d="M350 520q0 46 -34.5 78t-87.5 32q-86 0 -140 -74l-48 53q28 46 80 73.5t113 27.5q93 0 148 -50q55 -49 55 -123q0 -47 -16 -83q-4 -10 -9 -19t-12 -17.5t-11.5 -14t-14.5 -14t-13.5 -12t-15.5 -13t-15 -11.5q-6 -5 -16.5 -13.5t-16 -13.5t-14.5 -13t-14 -14t-11 -15
t-8.5 -17t-5 -18t-2 -21.5t2.5 -24.5l-72 -1q-18 95 47 149q10 8 33.5 25.5t36.5 29t29.5 29.5t24 39t7.5 46zM152 54q0 22 16 37.5t42 15.5q21 0 37 -16t16 -37q0 -24 -15 -40.5t-38 -16.5q-26 0 -42 16.5t-16 40.5z" />
    <glyph glyph-name="at" unicode="@" horiz-adv-x="1006" 
d="M711 0h-83v47q-57 -57 -139 -57q-102 0 -163 64q-60 64 -60 171q0 99 72 167q73 68 181 68t189 -51v-334h21q62 0 99 55q38 56 38 140q0 136 -99 227q-97 91 -254 91q-161 0 -267 -102q-106 -100 -106 -261q0 -155 107 -259q109 -104 266 -104q57 0 108 12l5 -74
q-56 -13 -113 -13q-193 0 -321 125q-127 124 -127 313q0 185 127 311q127 127 321 127q184 0 306 -110t122 -282q0 -111 -61 -191q-62 -80 -169 -80zM502 65q35 0 69.5 17t56.5 42v232q-52 29 -110 29q-74 0 -121 -48q-46 -46 -46 -116q0 -72 41 -114t110 -42z" />
    <glyph glyph-name="A" unicode="A" horiz-adv-x="705" 
d="M101 0h-86l301 704h73l301 -704h-91l-90 212h-319zM476 292l-126 299l-126 -299h252z" />
    <glyph glyph-name="B" unicode="B" horiz-adv-x="617" 
d="M105 1v698q139 4 192 4q114 0 169.5 -45.5t55.5 -127.5q0 -61 -32 -102t-88 -60v-2q68 -11 106.5 -54t38.5 -112q0 -100 -68 -151.5t-186 -51.5q-115 0 -188 4zM303 319h-113v-238q41 -4 108 -4q79 0 121.5 32.5t42.5 95.5q0 55 -41.5 84.5t-117.5 29.5zM295 623
q-30 0 -105 -3v-226h112q59 0 97 31.5t38 85.5q0 112 -142 112z" />
    <glyph glyph-name="C" unicode="C" horiz-adv-x="656" 
d="M592 132l34 -64q-35 -36 -95 -57t-126 -21q-157 0 -257 98q-98 100 -98 262q0 156 94 257q94 103 255 103q133 0 213 -68l-39 -64q-70 52 -173 52q-114 0 -187 -78q-73 -77 -73 -202t75 -203q77 -77 198 -77q102 0 179 62z" />
    <glyph glyph-name="D" unicode="D" horiz-adv-x="739" 
d="M116 0h-11v700h12q43 0 85 1q86 2 94 2q102 0 179 -27.5t123 -76t68.5 -109t22.5 -131.5q0 -157 -105 -259q-104 -102 -296 -102q-42 0 -82 1q-39 1 -90 1zM294 623q-18 0 -54.5 -1.5t-49.5 -1.5v-540q26 0 50.5 -0.5t36.5 -1t14 -0.5q145 0 227 77q81 78 81 204
q0 118 -79 191t-226 73z" />
    <glyph glyph-name="E" unicode="E" horiz-adv-x="575" 
d="M510 0h-405v700h395v-80h-310v-226h280v-80h-280v-234h320v-80z" />
    <glyph glyph-name="F" unicode="F" horiz-adv-x="540" 
d="M190 0h-85v700h395v-80h-310v-248h280v-80h-280v-292z" />
    <glyph glyph-name="G" unicode="G" horiz-adv-x="727" 
d="M587 276h-189v80h269v-269q-45 -45 -119 -71q-75 -26 -143 -26q-163 0 -259 98t-96 262q0 153 95 257q94 103 249 103q134 0 220 -68l-37 -68q-62 56 -173 56q-117 0 -191 -77q-73 -76 -73 -203q0 -128 73 -204t194 -76q48 0 101 17q50 18 79 45v144z" />
    <glyph glyph-name="H" unicode="H" horiz-adv-x="765" 
d="M660 0h-85v317h-385v-317h-85v700h85v-303h385v303h85v-700z" />
    <glyph glyph-name="I" unicode="I" horiz-adv-x="335" 
d="M210 0h-85v700h85v-700z" />
    <glyph glyph-name="J" unicode="J" horiz-adv-x="374" 
d="M184 700h85v-541q0 -169 -153 -169q-69 0 -106 37l29 65q28 -22 66 -22q79 0 79 103v527z" />
    <glyph glyph-name="K" unicode="K" horiz-adv-x="653" 
d="M514 700h103l-312 -329l328 -371h-109l-317 365zM190 0h-85v700h85v-700z" />
    <glyph glyph-name="L" unicode="L" horiz-adv-x="550" 
d="M535 0h-430v700h85v-620h345v-80z" />
    <glyph glyph-name="M" unicode="M" horiz-adv-x="892" 
d="M190 0h-85v700h86l263 -359l252 359h81v-700h-85v566l-248 -348h-13l-251 345v-563z" />
    <glyph glyph-name="N" unicode="N" horiz-adv-x="795" 
d="M690 700v-700h-68l-437 550v-550h-80v700h68l437 -552v552h80z" />
    <glyph glyph-name="O" unicode="O" horiz-adv-x="814" 
d="M50 350q0 152 101 256t256 104q154 0 255 -101q102 -101 102 -259q0 -154 -102 -258q-102 -102 -255 -102t-256 101q-101 101 -101 259zM140 350q0 -118 77 -200q77 -80 190 -80q118 0 192 80q75 80 75 200t-77 200t-190 80q-115 0 -191 -79t-76 -201z" />
    <glyph glyph-name="P" unicode="P" horiz-adv-x="597" 
d="M190 269v-269h-85v700q42 0 89 1t94 1q138 0 198 -62q61 -61 61 -155q0 -91 -66 -156q-64 -64 -186 -64q-64 0 -105 4zM296 622q-18 0 -106 -2v-270q63 -5 102 -5q77 0 121 37.5t44 103.5q0 65 -40.5 100.5t-120.5 35.5z" />
    <glyph glyph-name="Q" unicode="Q" horiz-adv-x="814" 
d="M50 350q0 152 101 256t256 104q154 0 255 -101q102 -101 102 -259q0 -156 -105 -260l77 -90h-100l-37 43q-86 -53 -192 -53q-153 0 -256 101q-101 101 -101 259zM140 350q0 -118 77 -200q77 -80 190 -80q77 0 138 36l-61 73l56 51l64 -75q70 79 70 195q0 120 -77 200
t-190 80q-115 0 -191 -79t-76 -201z" />
    <glyph glyph-name="R" unicode="R" horiz-adv-x="643" 
d="M190 280v-280h-85v700q48 0 101 1t87 1q249 0 249 -208q0 -78 -45 -130q-42 -51 -107 -68l233 -296h-104l-215 280h-114zM288 622q-10 0 -98 -2v-260h103q65 0 111 36q48 38 48 97q0 129 -164 129z" />
    <glyph glyph-name="S" unicode="S" horiz-adv-x="549" 
d="M409 179q0 35 -19 61t-49 42.5t-66.5 31.5t-73 32.5t-66.5 39.5t-49 58t-19 83q0 77 57 130q58 53 154 53q59 0 111 -20t82 -53l-46 -64q-57 57 -142 57q-58 0 -92 -28t-34 -75q0 -35 19 -61t49 -42t66.5 -30.5t73 -31.5t66.5 -38.5t49 -58.5t19 -85q0 -86 -66 -138
q-64 -52 -162 -52q-69 0 -132 28t-89 77l49 58q29 -38 77 -60.5t96 -22.5q59 0 98 29.5t39 79.5z" />
    <glyph glyph-name="T" unicode="T" horiz-adv-x="595" 
d="M255 620h-245v80h575v-80h-245v-620h-85v620z" />
    <glyph glyph-name="U" unicode="U" horiz-adv-x="751" 
d="M571 700h85v-408q0 -151 -77 -226t-194 -75q-132 0 -211 79t-79 229v401h85v-385q0 -115 53.5 -179.5t151.5 -64.5q89 0 137.5 61t48.5 177v391z" />
    <glyph glyph-name="V" unicode="V" horiz-adv-x="656" 
d="M565 700h86l-288 -704h-63l-295 704h91l238 -576z" />
    <glyph glyph-name="W" unicode="W" horiz-adv-x="970" 
d="M877 700h83l-202 -700h-78l-192 563l-188 -563h-78l-212 700h96l163 -557l181 557h82l186 -557z" />
    <glyph glyph-name="X" unicode="X" horiz-adv-x="664" 
d="M534 700h101l-248 -344l257 -356h-101l-212 291l-211 -291h-100l257 356l-246 344h100l203 -280z" />
    <glyph glyph-name="Y" unicode="Y" horiz-adv-x="604" 
d="M501 700h93l-251 -400v-300h-85v300l-248 400h98l196 -320z" />
    <glyph glyph-name="Z" unicode="Z" horiz-adv-x="635" 
d="M468 620h-408v80h525v-57l-430 -563h440v-80h-555v57z" />
    <glyph glyph-name="bracketleft" unicode="[" horiz-adv-x="320" 
d="M310 -200h-250v850h250v-75h-170v-700h170v-75z" />
    <glyph glyph-name="backslash" unicode="\" horiz-adv-x="335" 
d="M-30 687l62 23l333 -895l-63 -23z" />
    <glyph glyph-name="bracketright" unicode="]" horiz-adv-x="320" 
d="M10 650h250v-850h-250v75h170v700h-170v75z" />
    <glyph glyph-name="asciicircum" unicode="^" horiz-adv-x="492" 
d="M127 450h-87l180 258h54l178 -258h-87l-119 176z" />
    <glyph glyph-name="underscore" unicode="_" horiz-adv-x="312" 
d="M312 -200h-312v80h312v-80z" />
    <glyph glyph-name="grave" unicode="`" horiz-adv-x="290" 
d="M230 565l-49 -34l-121 142l63 48z" />
    <glyph glyph-name="a" unicode="a" horiz-adv-x="460" 
d="M96 355l-21 64q67 41 150 41q91 0 132 -45t41 -139v-276h-76v58q-53 -65 -144 -65q-62 0 -100 37.5t-38 101.5q0 66 47 104.5t123 38.5q71 0 112 -29q0 76 -21 109t-81 33q-61 0 -124 -33zM206 65q67 0 116 58v57q-42 30 -101 30q-41 0 -68.5 -19.5t-27.5 -54.5
q0 -33 21.5 -52t59.5 -19z" />
    <glyph glyph-name="b" unicode="b" horiz-adv-x="549" 
d="M72 42v658h80v-293q25 24 63.5 38.5t76.5 14.5q99 0 156 -63q58 -62 58 -165q0 -111 -68 -177q-68 -65 -182 -65q-113 0 -184 52zM274 385q-35 0 -69 -17t-53 -41v-231q46 -31 108 -31q71 0 116 44t45 117q0 74 -40 116.5t-107 42.5z" />
    <glyph glyph-name="c" unicode="c" horiz-adv-x="488" 
d="M418 123l38 -58q-58 -75 -173 -75q-108 0 -175 64q-66 64 -66 171q0 99 65 167t163 68q118 0 177 -59l-37 -63q-52 47 -129 47q-63 0 -109 -46q-45 -45 -45 -114q0 -73 46 -116q47 -44 116 -44q78 0 129 58z" />
    <glyph glyph-name="d" unicode="d" horiz-adv-x="554" 
d="M482 0h-80v57q-60 -65 -143 -65q-99 0 -158 63q-59 64 -59 167q0 105 69 171q70 67 177 67q68 0 114 -32v272h80v-700zM274 67q74 0 128 60v223q-56 35 -111 35q-69 0 -117 -45q-47 -44 -47 -116t40.5 -114.5t106.5 -42.5z" />
    <glyph glyph-name="e" unicode="e" horiz-adv-x="520" 
d="M427 112l25 -63q-65 -59 -169 -59q-110 0 -175 64q-66 64 -66 171q0 101 62 168q61 67 170 67q90 0 149 -58q60 -57 60 -148q0 -29 -5 -54h-346q5 -63 47.5 -99t109.5 -36q88 0 138 47zM270 385q-59 0 -97.5 -33t-45.5 -87h273q-3 56 -37.5 88t-92.5 32z" />
    <glyph glyph-name="f" unicode="f" horiz-adv-x="330" 
d="M162 0h-80v523q0 92 41 139.5t117 47.5q79 0 120 -40l-28 -61q-32 26 -79 26q-91 0 -91 -121v-64h150v-75h-150v-375z" />
    <glyph glyph-name="g" unicode="g" horiz-adv-x="494" 
d="M10 -65q0 52 38 87t106 50q-11 14 -11 37t12 38q-48 19 -74.5 58t-26.5 90q0 70 50 117q51 48 134 48q64 0 114 -33l132 32l2 -65l-85 -21q21 -35 21 -78q0 -69 -51 -116q-50 -46 -133 -46q-23 0 -30 1q-5 -12 -5 -25q0 -18 9 -30q2 0 12.5 0.5t14.5 0.5q105 0 167 -37.5
t62 -107.5q0 -68 -62 -105.5t-167 -37.5q-106 0 -167.5 36.5t-61.5 106.5zM393 -65q0 37 -41 58.5t-113 21.5t-113 -21.5t-41 -58.5t41 -57.5t113 -20.5t113 20t41 58zM129 295q0 -42 30.5 -69.5t78.5 -27.5t78 27q31 27 31 70t-30 71q-31 29 -79 29t-78.5 -28.5
t-30.5 -71.5z" />
    <glyph glyph-name="h" unicode="h" horiz-adv-x="549" 
d="M152 0h-80v700h80v-302q60 60 147 60q187 0 187 -200v-258h-80v247q0 136 -126 136q-35 0 -70.5 -16t-57.5 -41v-326z" />
    <glyph glyph-name="i" unicode="i" horiz-adv-x="268" 
d="M174 0h-80v450h80v-450zM84 619q0 21 15 34.5t37 13.5q21 0 35 -13.5t14 -34.5q0 -23 -14 -37.5t-35 -14.5q-22 0 -37 14.5t-15 37.5z" />
    <glyph glyph-name="j" unicode="j" horiz-adv-x="266" 
d="M98 450h80v-483q0 -175 -141 -175q-62 0 -100 29l23 64q28 -18 59 -18q79 0 79 106v477zM87 619q0 21 15 34.5t37 13.5q21 0 35 -13.5t14 -34.5q0 -23 -14 -37.5t-35 -14.5q-22 0 -37 14.5t-15 37.5z" />
    <glyph glyph-name="k" unicode="k" horiz-adv-x="491" 
d="M355 450h102l-191 -209l215 -241h-109l-203 235zM152 0h-80v700h80v-700z" />
    <glyph glyph-name="l" unicode="l" horiz-adv-x="290" 
d="M72 120v580h80v-544q0 -89 53 -89q26 0 57 20l18 -61q-43 -34 -106 -34q-102 0 -102 128z" />
    <glyph glyph-name="m" unicode="m" horiz-adv-x="803" 
d="M740 295v-295h-80v273q0 110 -97 110q-39 0 -70.5 -17.5t-47.5 -47.5q1 -5 1 -32v-286h-80v290q0 43 -25.5 68t-70.5 25q-75 0 -118 -61v-322h-80v450h80v-57q25 29 65.5 47t83.5 18q51 0 87 -21t49 -57q25 36 67 57t91 21q145 0 145 -163z" />
    <glyph glyph-name="n" unicode="n" horiz-adv-x="549" 
d="M152 0h-80v450h80v-55q25 28 65.5 45.5t81.5 17.5q187 0 187 -198v-260h-80v245q0 138 -127 138q-76 0 -127 -58v-325z" />
    <glyph glyph-name="o" unicode="o" horiz-adv-x="565" 
d="M108 56q-66 68 -66 169q0 102 66 168q67 67 174 67t173 -67q67 -66 67 -168t-67 -169q-66 -66 -173 -66q-106 0 -174 66zM127 225q0 -71 43 -115q44 -45 112 -45t111.5 44.5t43.5 115.5q0 69 -44 115q-43 45 -111 45t-111 -45q-44 -44 -44 -115z" />
    <glyph glyph-name="p" unicode="p" horiz-adv-x="556" 
d="M152 -200h-80v650h80v-53q24 28 66 45.5t87 17.5q96 0 151 -64q57 -63 57 -164q0 -103 -65 -173q-64 -69 -169 -69q-81 0 -127 31v-221zM282 385q-80 0 -130 -62v-223q53 -35 120 -35q71 0 113.5 45.5t42.5 118.5q0 71 -39 113.5t-107 42.5z" />
    <glyph glyph-name="q" unicode="q" horiz-adv-x="557" 
d="M484 -200h-80v236q-58 -46 -131 -46q-105 0 -168 64t-63 171q0 99 72 167q73 68 181 68t189 -51v-609zM283 65q35 0 68.5 15t52.5 39v237q-52 29 -110 29q-74 0 -121 -48q-46 -46 -46 -116q0 -69 43 -112.5t113 -43.5z" />
    <glyph glyph-name="r" unicode="r" horiz-adv-x="340" 
d="M152 0h-80v450h80v-53q40 61 113 61q47 0 70 -17l-28 -75q-29 17 -61 17q-61 0 -94 -64v-319z" />
    <glyph glyph-name="s" unicode="s" horiz-adv-x="430" 
d="M300 122q0 24 -25 40t-60.5 26.5t-71.5 24.5t-61 44.5t-25 75.5q0 57 42 92t111 35q99 0 155 -53l-38 -61q-50 44 -113 44q-32 0 -52 -16t-20 -40q0 -26 25 -42.5t60.5 -27t71.5 -24t61 -42.5t25 -72q0 -67 -50 -102q-49 -34 -124 -34q-53 0 -101 22q-49 23 -65 48l45 57
q20 -23 58 -40q40 -17 72 -17q35 0 57.5 16.5t22.5 45.5z" />
    <glyph glyph-name="t" unicode="t" horiz-adv-x="353" 
d="M62 171v404h80v-125h165v-75h-165v-196q0 -112 80 -112q39 0 71 25l25 -62q-47 -38 -115 -38q-73 0 -107 44t-34 135z" />
    <glyph glyph-name="u" unicode="u" horiz-adv-x="540" 
d="M387 450h80v-450h-80v64q-63 -74 -159 -74q-79 0 -122.5 48.5t-43.5 143.5v268h80v-250q0 -135 116 -135q36 0 71.5 18.5t57.5 48.5v318z" />
    <glyph glyph-name="v" unicode="v" horiz-adv-x="476" 
d="M386 450h85l-199 -454h-58l-209 454h94l109 -243q19 -42 38 -100q14 47 37 102z" />
    <glyph glyph-name="w" unicode="w" horiz-adv-x="706" 
d="M615 450h81l-144 -454h-70l-112 293q-8 21 -17 55q-9 -33 -19 -58l-109 -290h-66l-149 454h86l88 -284q2 -7 5.5 -20t7 -26.5t4.5 -16.5q18 62 19 63l102 284h69l103 -283l21 -65q7 34 18 69z" />
    <glyph glyph-name="x" unicode="x" horiz-adv-x="507" 
d="M379 450h93l-161 -217l171 -233h-98l-132 182l-134 -182h-93l170 229l-160 221h98l122 -170z" />
    <glyph glyph-name="y" unicode="y" horiz-adv-x="491" 
d="M390 450h91l-180 -450q-49 -119 -85 -158q-38 -42 -87 -42q-44 0 -85 28l26 61q32 -15 50 -15q28 0 50.5 24t45.5 78l10 24l-216 450h96l132 -286q4 -7 27 -68q9 33 21 69z" />
    <glyph glyph-name="z" unicode="z" horiz-adv-x="485" 
d="M326 375h-266v75h380v-56l-282 -319h277v-75h-390v56z" />
    <glyph glyph-name="braceleft" unicode="{" horiz-adv-x="335" 
d="M110 -65v157q0 51 -25.5 75t-64.5 23v70q39 0 64.5 27t25.5 83v139q0 73 32 107t106 34h67v-75h-48q-43 0 -60 -21t-17 -72v-142q0 -48 -20.5 -78.5t-54.5 -35.5q75 -9 75 -114v-145q0 -48 20 -70t63 -22h42v-75h-71q-68 0 -101 32.5t-33 102.5z" />
    <glyph glyph-name="bar" unicode="|" horiz-adv-x="330" 
d="M205 0h-80v700h80v-700z" />
    <glyph glyph-name="braceright" unicode="}" horiz-adv-x="335" 
d="M225 92v-157q0 -70 -33.5 -102.5t-101.5 -32.5h-70v75h42q43 0 63 22t20 70v145q0 105 75 114q-34 5 -54.5 35.5t-20.5 78.5v142q0 51 -17.5 72t-59.5 21h-48v75h67q74 0 106 -34t32 -107v-139q0 -56 25.5 -83t64.5 -27v-70q-39 1 -64.5 -23t-25.5 -75z" />
    <glyph glyph-name="asciitilde" unicode="~" 
d="M86 307l-36 51q67 72 136 72q42 0 118 -36q78 -35 114 -35q46 0 91 45l32 -55q-63 -60 -124 -60q-40 0 -116 35q-75 36 -111 36q-48 0 -104 -53z" />
    <glyph glyph-name="uni00A0" unicode="&#xa0;" horiz-adv-x="225" 
 />
    <glyph glyph-name="exclamdown" unicode="&#xa1;" horiz-adv-x="310" 
d="M113 242h85v-485h-85v485zM211 403q0 -22 -16 -37.5t-42 -15.5q-21 0 -37 16t-16 37q0 24 15 40.5t38 16.5q26 0 42 -16.5t16 -40.5z" />
    <glyph glyph-name="cent" unicode="&#xa2;" 
d="M465 123l38 -58q-49 -62 -143 -73v-112h-80v114q-88 14 -139.5 76t-51.5 155q0 89 53 154q52 65 138 78v109h80v-108q84 -9 134 -57l-37 -63q-52 47 -129 47q-63 0 -109 -46q-45 -45 -45 -114q0 -73 46 -116q47 -44 116 -44q78 0 129 58z" />
    <glyph glyph-name="sterling" unicode="&#xa3;" 
d="M173 275h-98v65h79q-9 20 -17 36q-11 22 -19 42q-18 45 -18 96q0 82 60 137q60 57 156 57q122 0 191 -76l-45 -62q-61 58 -144 58q-56 0 -92 -34.5t-36 -84.5q0 -33 9 -61q7 -18 25.5 -56.5t22.5 -51.5h162v-65h-150v-9q0 -71 -54 -139q33 -3 102 -27t106 -24
q62 0 109 46l36 -62q-63 -64 -147 -64q-38 0 -114 26t-114 26q-55 0 -111 -55l-34 63q38 40 84 60q52 65 52 135q0 19 -1 24z" />
    <glyph glyph-name="currency" unicode="&#xa4;" 
d="M69 345q0 76 41 135l-83 85l50 50l83 -85q58 42 136 42q76 0 135 -41l88 87l50 -50l-88 -87q42 -61 42 -136q0 -77 -42 -135l85 -85l-49 -49l-85 84q-59 -42 -136 -42q-78 0 -136 42l-88 -88l-49 49l87 89q-41 59 -41 135zM144 345q0 -65 41 -112q42 -45 111 -45
q70 0 111 44.5t41 112.5q0 69 -41.5 113t-110.5 44t-111 -45q-41 -46 -41 -112z" />
    <glyph glyph-name="yen" unicode="&#xa5;" 
d="M252 299h-184v65h146l-195 336h98l181 -320l182 320h93l-198 -336h147v-65h-185v-105h185v-65h-185v-129h-85v129h-184v65h184v105z" />
    <glyph glyph-name="brokenbar" unicode="&#xa6;" horiz-adv-x="330" 
d="M205 700v-260h-80v260h80zM125 0v260h80v-260h-80z" />
    <glyph glyph-name="section" unicode="&#xa7;" horiz-adv-x="524" 
d="M65 249q0 64 35 111t97 64q-82 46 -82 135q0 62 44 101.5t117 39.5q84 0 135 -65l-48 -54l-21 22q-27 22 -64 22q-35 0 -59 -23.5t-24 -57.5q0 -68 87 -112q80 -6 128.5 -56.5t48.5 -126.5q0 -64 -36 -111.5t-98 -63.5q82 -46 82 -133q0 -62 -44 -101.5t-117 -39.5
q-86 0 -136 65l48 54l21 -21q23 -23 65 -23q35 0 59 23.5t24 57.5q0 67 -89 111q-79 7 -126 57.5t-47 124.5zM262 136q51 0 84 32.5t33 80.5t-33.5 81t-83.5 33t-83.5 -33t-33.5 -81t33 -80.5t84 -32.5z" />
    <glyph glyph-name="dieresis" unicode="&#xa8;" horiz-adv-x="415" 
d="M60 610q0 21 13 33.5t34 12.5q18 0 31 -13t13 -33q0 -23 -12.5 -36.5t-31.5 -13.5q-21 0 -34 13.5t-13 36.5zM263 610q0 20 14 33t34 13q18 0 31 -13t13 -33q0 -23 -12.5 -36.5t-31.5 -13.5q-21 0 -34.5 13.5t-13.5 36.5z" />
    <glyph glyph-name="copyright" unicode="&#xa9;" horiz-adv-x="1018" 
d="M200 -87q-125 127 -125 308t125 308q124 126 309 126t309 -126q125 -127 125 -308t-125 -308q-124 -126 -309 -126t-309 126zM509 -143q156 0 259 106q105 106 105 257q0 152 -105 258q-104 107 -259 107q-156 0 -260 -107t-104 -258t104 -257q103 -106 260 -106z
M652 123l38 -58q-58 -75 -173 -75q-108 0 -175 64q-66 64 -66 171q0 99 65 167t163 68q118 0 177 -59l-37 -63q-52 47 -129 47q-63 0 -109 -46q-45 -45 -45 -114q0 -73 46 -116q47 -44 116 -44q78 0 129 58z" />
    <glyph glyph-name="ordfeminine" unicode="&#xaa;" horiz-adv-x="425" 
d="M114 573l-30 47q53 38 130 38q64 0 102.5 -33.5t38.5 -95.5v-204h-70v47q-42 -51 -124 -51q-49 0 -80 29.5t-31 73.5q0 52 33 80t93 28q66 0 109 -25v5q0 86 -84 86q-52 0 -87 -25zM195 380q47 0 90 36v46q-43 20 -86 20q-33 0 -53.5 -13.5t-20.5 -37.5q0 -23 19 -37
t51 -14z" />
    <glyph glyph-name="guillemotleft" unicode="&#xab;" horiz-adv-x="530" 
d="M474 77l-54 -47l-185 218v4l188 216l52 -46l-148 -172zM284 77l-54 -47l-185 218v4l188 216l52 -46l-148 -172z" />
    <glyph glyph-name="logicalnot" unicode="&#xac;" 
d="M463 325h-404v70h474v-201h-70v131z" />
    <glyph glyph-name="uni00AD" unicode="&#xad;" horiz-adv-x="389" 
d="M314 235h-239v75h239v-75z" />
    <glyph glyph-name="registered" unicode="&#xae;" horiz-adv-x="618" 
d="M50 497q0 107 76 182q76 76 184 76q106 0 182 -76q76 -75 76 -182q0 -109 -76 -185q-75 -76 -182 -76q-109 0 -185 76q-75 76 -75 185zM172 633q-57 -57 -57 -137t57 -137t137 -57t137 57t57 137t-57 137t-137 57t-137 -57zM266 461v-101h-55v280h98q108 0 108 -87
q0 -29 -16.5 -51t-43.5 -30l74 -112h-65l-63 101h-37zM302 600h-36v-99h39q24 0 40.5 14.5t16.5 36.5t-15.5 35t-44.5 13z" />
    <glyph glyph-name="overscore" unicode="&#xaf;" horiz-adv-x="384" 
d="M324 580h-264v65h264v-65z" />
    <glyph glyph-name="degree" unicode="&#xb0;" horiz-adv-x="410" 
d="M50 569q0 66 45 111t109 45t110 -44q46 -43 46 -109q0 -65 -46 -111q-45 -46 -110 -46q-63 0 -109 44q-45 45 -45 110zM290 570q0 34 -25 59.5t-60 25.5t-60 -25t-25 -60t25 -60t60 -25t60 25t25 60z" />
    <glyph glyph-name="plusminus" unicode="&#xb1;" 
d="M257 410h-188v70h188v191h75v-191h191v-70h-191v-123h-75v123zM523 165h-454v70h454v-70z" />
    <glyph glyph-name="twosuperior" unicode="&#xb2;" horiz-adv-x="349" 
d="M319 350h-284v51l25 16l29 19q12 10 27 20q22 16 29 21q1 1 21.5 19t27.5 25q33 40 33 68q0 25 -16 40t-45 15q-25 0 -45 -16.5t-24 -41.5l-59 21q7 44 44 70.5t91 26.5q61 0 94.5 -29.5t33.5 -77.5q0 -66 -72 -121q-52 -42 -102 -66h192v-60z" />
    <glyph glyph-name="threesuperior" unicode="&#xb3;" horiz-adv-x="350" 
d="M169 344q-107 0 -144 70l41 38q12 -23 38 -36.5t54 -13.5q35 0 56 14.5t21 38.5q0 21 -19 34t-52 13h-34v50h30q26 0 44 14.5t18 36.5q0 21 -17 33t-46 12q-57 0 -89 -45l-34 38q36 64 137 64q57 0 90.5 -23.5t33.5 -64.5q0 -65 -74 -84v-1q40 -3 63.5 -26.5t23.5 -56.5
q0 -47 -40 -76t-101 -29z" />
    <glyph glyph-name="acute" unicode="&#xb4;" horiz-adv-x="288" 
d="M166 722l62 -48l-120 -143l-48 34z" />
    <glyph glyph-name="mu" unicode="&#xb5;" horiz-adv-x="545" 
d="M392 450h80v-450h-80v64q-63 -74 -159 -74q-48 0 -86 20v-210h-80v650h80v-250q0 -135 116 -135q36 0 71.5 18.5t57.5 48.5v318z" />
    <glyph glyph-name="mu" unicode="&#x3bc;" horiz-adv-x="545" 
d="M392 450h80v-450h-80v64q-63 -74 -159 -74q-48 0 -86 20v-210h-80v650h80v-250q0 -135 116 -135q36 0 71.5 18.5t57.5 48.5v318z" />
    <glyph glyph-name="paragraph" unicode="&#xb6;" horiz-adv-x="461" 
d="M45 481q0 101 59 160t155 59h172v-75h-94v-638q0 -195 -165 -195q-70 0 -114 41l33 58q31 -24 75 -24q50 0 70.5 31t20.5 92v273q-90 2 -151 60t-61 158z" />
    <glyph glyph-name="middot" unicode="&#xb7;" horiz-adv-x="225" 
d="M57 299q0 21 16.5 37t40.5 16q21 0 37 -16t16 -37q0 -24 -15 -40.5t-38 -16.5q-24 0 -40.5 16.5t-16.5 40.5z" />
    <glyph glyph-name="cedilla" unicode="&#xb8;" horiz-adv-x="351" 
d="M60 -171l24 39q35 -23 71 -23q25 0 40.5 9.5t15.5 26.5q0 39 -58 39h-6v80h43v-43q101 -6 101 -80q0 -37 -33.5 -59.5t-92.5 -22.5q-55 0 -105 34z" />
    <glyph glyph-name="onesuperior" unicode="&#xb9;" horiz-adv-x="252" 
d="M49 582l-27 48l105 71h50v-351h-70v269z" />
    <glyph glyph-name="ordmasculine" unicode="&#xba;" horiz-adv-x="476" 
d="M107 366q-52 48 -52 123t51 122q53 47 132 47t131 -47q52 -46 52 -122q0 -75 -52 -123q-53 -47 -131 -47t-131 47zM130 489q0 -46 31.5 -75.5t76.5 -29.5q46 0 77 29.5t31 75.5q0 45 -31 74.5t-77 29.5t-77 -29.5t-31 -74.5z" />
    <glyph glyph-name="guillemotright" unicode="&#xbb;" horiz-adv-x="530" 
d="M485 252v-4l-185 -218l-54 47l147 173l-148 172l52 46zM295 252v-4l-185 -218l-54 47l147 173l-148 172l52 46z" />
    <glyph glyph-name="onequarter" unicode="&#xbc;" horiz-adv-x="673" 
d="M594 0h-65v79h-194v46l168 225h67l-163 -216h122v91h65v-91h59v-55h-59v-79zM97 -10l-47 33l514 687l46 -34zM59 582l-27 48l105 71h50v-351h-70v269z" />
    <glyph glyph-name="onehalf" unicode="&#xbd;" horiz-adv-x="689" 
d="M649 0h-284v51l25 16l29 19q12 10 27 20q22 16 29 21q1 1 21.5 19t27.5 25q33 40 33 68q0 25 -16 40t-45 15q-25 0 -45 -16.5t-24 -41.5l-59 21q7 44 44 70.5t91 26.5q61 0 94.5 -29.5t33.5 -77.5q0 -66 -72 -121q-52 -42 -102 -66h192v-60zM77 -10l-47 33l514 687
l46 -34zM59 582l-27 48l105 71h50v-351h-70v269z" />
    <glyph glyph-name="threequarters" unicode="&#xbe;" horiz-adv-x="723" 
d="M174 344q-107 0 -144 70l41 38q12 -23 38 -36.5t54 -13.5q35 0 56 14.5t21 38.5q0 21 -19 34t-52 13h-34v50h30q26 0 44 14.5t18 36.5q0 21 -17 33t-46 12q-58 0 -89 -45l-34 38q36 64 137 64q57 0 90.5 -23.5t33.5 -64.5q0 -65 -74 -84v-1q40 -3 63.5 -26.5t23.5 -56.5
q0 -47 -40 -76t-101 -29zM644 0h-65v79h-194v46l168 225h67l-163 -216h122v91h65v-91h59v-55h-59v-79zM157 -10l-47 33l514 687l46 -34z" />
    <glyph glyph-name="questiondown" unicode="&#xbf;" horiz-adv-x="466" 
d="M116 -63q0 -46 34.5 -78t87.5 -32q86 0 140 74l48 -53q-28 -46 -80 -73.5t-113 -27.5q-93 0 -149 50q-54 49 -54 123q0 47 16 83q4 10 9.5 19t12 17.5t11.5 14.5t14 14l13.5 12t15 12.5t14.5 11.5q4 4 16.5 13.5t17 13.5t14.5 13t14 14.5t11 15t9 17t4.5 18t2 21.5
t-2.5 24l72 1q18 -95 -47 -149q-10 -8 -33.5 -25.5t-36.5 -29t-29.5 -29.5t-24 -39t-7.5 -46zM314 403q0 -22 -16 -37.5t-42 -15.5q-21 0 -37 16t-16 37q0 24 15 40.5t38 16.5q26 0 42 -16.5t16 -40.5z" />
    <glyph glyph-name="Agrave" unicode="&#xc0;" horiz-adv-x="705" 
d="M101 0h-86l301 704h73l301 -704h-91l-90 212h-319zM476 292l-126 299l-126 -299h252zM418 783l-23 -48l-202 84l30 68z" />
    <glyph glyph-name="Aacute" unicode="&#xc1;" horiz-adv-x="705" 
d="M101 0h-86l301 704h73l301 -704h-91l-90 212h-319zM476 292l-126 299l-126 -299h252zM483 887l30 -68l-202 -84l-23 48z" />
    <glyph glyph-name="Acircumflex" unicode="&#xc2;" horiz-adv-x="705" 
d="M101 0h-86l301 704h73l301 -704h-91l-90 212h-319zM476 292l-126 299l-126 -299h252zM206 733l-29 45l171 104h4l174 -103l-33 -46l-143 76z" />
    <glyph glyph-name="Atilde" unicode="&#xc3;" horiz-adv-x="705" 
d="M101 0h-86l301 704h73l301 -704h-91l-90 212h-319zM476 292l-126 299l-126 -299h252zM204 761l-26 50q44 47 100 47q29 0 77 -20t73 -20q45 0 75 32l22 -50q-39 -52 -102 -52q-25 0 -76 20q-49 20 -77 20q-33 0 -66 -27z" />
    <glyph glyph-name="Adieresis" unicode="&#xc4;" horiz-adv-x="705" 
d="M101 0h-86l301 704h73l301 -704h-91l-90 212h-319zM476 292l-126 299l-126 -299h252zM182 813q0 20 15.5 32.5t39.5 12.5q22 0 37 -12.5t15 -32.5q0 -21 -15 -34.5t-37 -13.5q-24 0 -39.5 13t-15.5 35zM414 813q0 20 16 32.5t40 12.5q22 0 36.5 -12.5t14.5 -32.5
q0 -21 -14.5 -34.5t-36.5 -13.5q-24 0 -40 13.5t-16 34.5z" />
    <glyph glyph-name="Aring" unicode="&#xc5;" horiz-adv-x="705" 
d="M227 792q0 47 33.5 71.5t90.5 24.5q58 0 92 -24.5t34 -71.5q0 -76 -85 -96l298 -696h-91l-90 212h-319l-89 -212h-86l297 696q-39 8 -62 33.5t-23 62.5zM476 292l-126 299l-126 -299h252zM287 792q0 -26 17.5 -40.5t47.5 -14.5q29 0 47 14.5t18 40.5q0 51 -65 51t-65 -51
z" />
    <glyph glyph-name="AE" unicode="&#xc6;" horiz-adv-x="956" 
d="M488 700h393v-80h-310v-226h280v-80h-280v-234h320v-80h-405v216h-250l-152 -216h-99zM486 296v275l-194 -275h194z" />
    <glyph glyph-name="Ccedilla" unicode="&#xc7;" horiz-adv-x="656" 
d="M276 -169l26 42q40 -28 74 -28q25 0 40.5 9.5t15.5 26.5q0 39 -58 39h-6v72q-144 10 -231 108q-87 97 -87 250q0 156 94 257q94 103 255 103q133 0 213 -68l-39 -64q-70 52 -173 52q-114 0 -187 -78q-73 -77 -73 -202t75 -203q77 -77 198 -77q102 0 179 62l34 -64
q-33 -35 -91 -55.5t-124 -22.5v-33q106 -6 106 -80q0 -37 -33 -59.5t-90 -22.5q-64 0 -118 36z" />
    <glyph glyph-name="Egrave" unicode="&#xc8;" horiz-adv-x="575" 
d="M510 0h-405v700h395v-80h-310v-226h280v-80h-280v-234h320v-80zM383 783l-23 -48l-202 84l30 68z" />
    <glyph glyph-name="Eacute" unicode="&#xc9;" horiz-adv-x="575" 
d="M510 0h-405v700h395v-80h-310v-226h280v-80h-280v-234h320v-80zM423 887l30 -68l-202 -84l-23 48z" />
    <glyph glyph-name="Ecircumflex" unicode="&#xca;" horiz-adv-x="575" 
d="M510 0h-405v700h395v-80h-310v-226h280v-80h-280v-234h320v-80zM158 733l-29 45l171 104h4l174 -103l-33 -46l-143 76z" />
    <glyph glyph-name="Edieresis" unicode="&#xcb;" horiz-adv-x="575" 
d="M136 813q0 20 15.5 32.5t39.5 12.5q22 0 37 -12.5t15 -32.5q0 -21 -15 -34.5t-37 -13.5q-24 0 -39.5 13t-15.5 35zM368 813q0 20 16 32.5t40 12.5q22 0 36.5 -12.5t14.5 -32.5q0 -21 -14.5 -34.5t-36.5 -13.5q-24 0 -40 13.5t-16 34.5zM510 0h-405v700h395v-80h-310v-226
h280v-80h-280v-234h320v-80z" />
    <glyph glyph-name="Igrave" unicode="&#xcc;" horiz-adv-x="335" 
d="M210 0h-85v700h85v-700zM223 783l-23 -48l-202 84l30 68z" />
    <glyph glyph-name="Iacute" unicode="&#xcd;" horiz-adv-x="335" 
d="M210 0h-85v700h85v-700zM308 887l30 -68l-202 -84l-23 48z" />
    <glyph glyph-name="Icircumflex" unicode="&#xce;" horiz-adv-x="335" 
d="M22 733l-29 45l171 104h4l174 -103l-33 -46l-143 76zM210 0h-85v700h85v-700z" />
    <glyph glyph-name="Idieresis" unicode="&#xcf;" horiz-adv-x="335" 
d="M-2 813q0 20 15.5 32.5t39.5 12.5q22 0 37 -12.5t15 -32.5q0 -21 -15 -34.5t-37 -13.5q-24 0 -39.5 13t-15.5 35zM230 813q0 20 16 32.5t40 12.5q22 0 36.5 -12.5t14.5 -32.5q0 -21 -14.5 -34.5t-36.5 -13.5q-24 0 -40 13.5t-16 34.5zM210 0h-85v700h85v-700z" />
    <glyph glyph-name="Eth" unicode="&#xd0;" horiz-adv-x="754" 
d="M120 316h-110v75h110v309h12q43 0 85 1q86 2 94 2q102 0 179 -27.5t123 -76t68.5 -109t22.5 -131.5q0 -157 -105 -259q-104 -102 -296 -102q-42 0 -82 1q-39 1 -90 1h-11v316zM309 623q-18 0 -54.5 -1.5t-49.5 -1.5v-229h188v-75h-188v-236q26 0 50.5 -0.5t36.5 -1
t14 -0.5q145 0 227 77q81 78 81 204q0 118 -79 191t-226 73z" />
    <glyph glyph-name="Ntilde" unicode="&#xd1;" horiz-adv-x="795" 
d="M690 700v-700h-68l-437 550v-550h-80v700h68l437 -552v552h80zM256 761l-26 50q44 47 100 47q29 0 77 -20t73 -20q45 0 75 32l22 -50q-39 -52 -102 -52q-25 0 -76 20q-49 20 -77 20q-33 0 -66 -27z" />
    <glyph glyph-name="Ograve" unicode="&#xd2;" horiz-adv-x="814" 
d="M50 350q0 152 101 256t256 104q154 0 255 -101q102 -101 102 -259q0 -154 -102 -258q-102 -102 -255 -102t-256 101q-101 101 -101 259zM140 350q0 -118 77 -200q77 -80 190 -80q118 0 192 80q75 80 75 200t-77 200t-190 80q-115 0 -191 -79t-76 -201zM503 783l-23 -48
l-202 84l30 68z" />
    <glyph glyph-name="Oacute" unicode="&#xd3;" horiz-adv-x="814" 
d="M50 350q0 152 101 256t256 104q154 0 255 -101q102 -101 102 -259q0 -154 -102 -258q-102 -102 -255 -102t-256 101q-101 101 -101 259zM140 350q0 -118 77 -200q77 -80 190 -80q118 0 192 80q75 80 75 200t-77 200t-190 80q-115 0 -191 -79t-76 -201zM533 887l30 -68
l-202 -84l-23 48z" />
    <glyph glyph-name="Ocircumflex" unicode="&#xd4;" horiz-adv-x="814" 
d="M50 350q0 152 101 256t256 104q154 0 255 -101q102 -101 102 -259q0 -154 -102 -258q-102 -102 -255 -102t-256 101q-101 101 -101 259zM140 350q0 -118 77 -200q77 -80 190 -80q118 0 192 80q75 80 75 200t-77 200t-190 80q-115 0 -191 -79t-76 -201zM265 733l-29 45
l171 104h4l174 -103l-33 -46l-143 76z" />
    <glyph glyph-name="Otilde" unicode="&#xd5;" horiz-adv-x="814" 
d="M50 350q0 152 101 256t256 104q154 0 255 -101q102 -101 102 -259q0 -154 -102 -258q-102 -102 -255 -102t-256 101q-101 101 -101 259zM140 350q0 -118 77 -200q77 -80 190 -80q118 0 192 80q75 80 75 200t-77 200t-190 80q-115 0 -191 -79t-76 -201zM258 761l-26 50
q44 47 100 47q29 0 77 -20t73 -20q45 0 75 32l22 -50q-39 -52 -102 -52q-25 0 -76 20q-49 20 -77 20q-33 0 -66 -27z" />
    <glyph glyph-name="Odieresis" unicode="&#xd6;" horiz-adv-x="814" 
d="M50 350q0 152 101 256t256 104q154 0 255 -101q102 -101 102 -259q0 -154 -102 -258q-102 -102 -255 -102t-256 101q-101 101 -101 259zM140 350q0 -118 77 -200q77 -80 190 -80q118 0 192 80q75 80 75 200t-77 200t-190 80q-115 0 -191 -79t-76 -201zM236 813
q0 20 15.5 32.5t39.5 12.5q22 0 37 -12.5t15 -32.5q0 -21 -15 -34.5t-37 -13.5q-24 0 -39.5 13t-15.5 35zM468 813q0 20 16 32.5t40 12.5q22 0 36.5 -12.5t14.5 -32.5q0 -21 -14.5 -34.5t-36.5 -13.5q-24 0 -40 13.5t-16 34.5z" />
    <glyph glyph-name="multiply" unicode="&#xd7;" 
d="M246 360l-135 135l50 50l135 -136l135 136l49 -50l-135 -135l137 -136l-50 -50l-136 136l-137 -136l-49 50z" />
    <glyph glyph-name="Oslash" unicode="&#xd8;" horiz-adv-x="814" 
d="M50 350q0 152 101 256t256 104q134 0 231 -80l44 43l46 -47l-43 -42q79 -95 79 -234q0 -154 -102 -258q-102 -102 -255 -102q-143 0 -240 87l-45 -44l-47 48l46 45q-71 94 -71 224zM674 350q0 97 -53 171l-392 -383q74 -68 178 -68q118 0 192 80q75 80 75 200zM140 350
q0 -91 46 -161l390 381q-70 60 -169 60q-115 0 -191 -79t-76 -201z" />
    <glyph glyph-name="Ugrave" unicode="&#xd9;" horiz-adv-x="751" 
d="M571 700h85v-408q0 -151 -77 -226t-194 -75q-132 0 -211 79t-79 229v401h85v-385q0 -115 53.5 -179.5t151.5 -64.5q89 0 137.5 61t48.5 177v391zM458 783l-23 -48l-202 84l30 68z" />
    <glyph glyph-name="Uacute" unicode="&#xda;" horiz-adv-x="751" 
d="M571 700h85v-408q0 -151 -77 -226t-194 -75q-132 0 -211 79t-79 229v401h85v-385q0 -115 53.5 -179.5t151.5 -64.5q89 0 137.5 61t48.5 177v391zM498 887l30 -68l-202 -84l-23 48z" />
    <glyph glyph-name="Ucircumflex" unicode="&#xdb;" horiz-adv-x="751" 
d="M571 700h85v-408q0 -151 -77 -226t-194 -75q-132 0 -211 79t-79 229v401h85v-385q0 -115 53.5 -179.5t151.5 -64.5q89 0 137.5 61t48.5 177v391zM229 733l-29 45l171 104h4l174 -103l-33 -46l-143 76z" />
    <glyph glyph-name="Udieresis" unicode="&#xdc;" horiz-adv-x="751" 
d="M201 813q0 20 15.5 32.5t39.5 12.5q22 0 37 -12.5t15 -32.5q0 -21 -15 -34.5t-37 -13.5q-24 0 -39.5 13t-15.5 35zM433 813q0 20 16 32.5t40 12.5q22 0 36.5 -12.5t14.5 -32.5q0 -21 -14.5 -34.5t-36.5 -13.5q-24 0 -40 13.5t-16 34.5zM571 700h85v-408q0 -151 -77 -226
t-194 -75q-132 0 -211 79t-79 229v401h85v-385q0 -115 53.5 -179.5t151.5 -64.5q89 0 137.5 61t48.5 177v391z" />
    <glyph glyph-name="Yacute" unicode="&#xdd;" horiz-adv-x="604" 
d="M501 700h93l-251 -400v-300h-85v300l-248 400h98l196 -320zM428 887l30 -68l-202 -84l-23 48z" />
    <glyph glyph-name="Thorn" unicode="&#xde;" horiz-adv-x="597" 
d="M190 164v-164h-85v700h85v-105q25 0 50 1t48 1q138 0 198 -62q61 -61 61 -155q0 -92 -66 -156q-64 -64 -186 -64q-64 0 -105 4zM289 517q-30 0 -99 -3v-269q63 -5 102 -5q77 0 121 37.5t44 103.5q0 65 -42.5 100.5t-125.5 35.5z" />
    <glyph glyph-name="germandbls" unicode="&#xdf;" horiz-adv-x="546" 
d="M421 154q0 29 -19 53.5t-45.5 42t-53.5 35.5t-46 44.5t-19 58.5q0 62 47 101t47 80q0 29 -23 47.5t-57 18.5q-50 0 -73.5 -33t-23.5 -104v-500h-80v510q0 202 188 202q67 0 110 -37q44 -36 44 -90q0 -27 -9.5 -49t-23.5 -36.5t-28 -28t-23.5 -30.5t-9.5 -36q0 -47 64 -89
q27 -16 42 -26.5t36.5 -31t31 -46.5t9.5 -58q0 -69 -44 -116q-43 -46 -110 -46q-93 0 -143 65l27 61q44 -51 97 -51q37 0 62.5 24.5t25.5 64.5z" />
    <glyph glyph-name="agrave" unicode="&#xe0;" horiz-adv-x="460" 
d="M96 355l-21 64q67 41 150 41q91 0 132 -45t41 -139v-276h-76v58q-53 -65 -144 -65q-62 0 -100 37.5t-38 101.5q0 66 47 104.5t123 38.5q71 0 112 -29q0 76 -21 109t-81 33q-61 0 -124 -33zM206 65q67 0 116 58v57q-42 30 -101 30q-41 0 -68.5 -19.5t-27.5 -54.5
q0 -33 21.5 -52t59.5 -19zM300 565l-49 -34l-121 142l63 48z" />
    <glyph glyph-name="aacute" unicode="&#xe1;" horiz-adv-x="460" 
d="M96 355l-21 64q67 41 150 41q91 0 132 -45t41 -139v-276h-76v58q-53 -65 -144 -65q-62 0 -100 37.5t-38 101.5q0 66 47 104.5t123 38.5q71 0 112 -29q0 76 -21 109t-81 33q-61 0 -124 -33zM206 65q67 0 116 58v57q-42 30 -101 30q-41 0 -68.5 -19.5t-27.5 -54.5
q0 -33 21.5 -52t59.5 -19zM273 722l62 -48l-120 -143l-48 34z" />
    <glyph glyph-name="acircumflex" unicode="&#xe2;" horiz-adv-x="460" 
d="M96 355l-21 64q67 41 150 41q91 0 132 -45t41 -139v-276h-76v58q-53 -65 -144 -65q-62 0 -100 37.5t-38 101.5q0 66 47 104.5t123 38.5q71 0 112 -29q0 76 -21 109t-81 33q-61 0 -124 -33zM206 65q67 0 116 58v57q-42 30 -101 30q-41 0 -68.5 -19.5t-27.5 -54.5
q0 -33 21.5 -52t59.5 -19zM228 707h4l139 -133l-38 -48l-104 91l-104 -90l-38 47z" />
    <glyph glyph-name="atilde" unicode="&#xe3;" horiz-adv-x="460" 
d="M96 355l-21 64q67 41 150 41q91 0 132 -45t41 -139v-276h-76v58q-53 -65 -144 -65q-62 0 -100 37.5t-38 101.5q0 66 47 104.5t123 38.5q71 0 112 -29q0 76 -21 109t-81 33q-61 0 -124 -33zM206 65q67 0 116 58v57q-42 30 -101 30q-41 0 -68.5 -19.5t-27.5 -54.5
q0 -33 21.5 -52t59.5 -19zM99 557l-33 37q53 60 110 60q24 0 58 -22t55 -22q28 0 71 35l28 -41q-56 -59 -106 -59q-23 0 -57 22t-57 22q-26 0 -69 -32z" />
    <glyph glyph-name="adieresis" unicode="&#xe4;" horiz-adv-x="460" 
d="M96 355l-21 64q67 41 150 41q91 0 132 -45t41 -139v-276h-76v58q-53 -65 -144 -65q-62 0 -100 37.5t-38 101.5q0 66 47 104.5t123 38.5q71 0 112 -29q0 76 -21 109t-81 33q-61 0 -124 -33zM206 65q67 0 116 58v57q-42 30 -101 30q-41 0 -68.5 -19.5t-27.5 -54.5
q0 -33 21.5 -52t59.5 -19zM83 610q0 21 13 33.5t34 12.5q18 0 31 -13t13 -33q0 -23 -12.5 -36.5t-31.5 -13.5q-21 0 -34 13.5t-13 36.5zM286 610q0 20 14 33t34 13q18 0 31 -13t13 -33q0 -23 -12.5 -36.5t-31.5 -13.5q-21 0 -34.5 13.5t-13.5 36.5z" />
    <glyph glyph-name="aring" unicode="&#xe5;" horiz-adv-x="460" 
d="M96 355l-21 64q67 41 150 41q91 0 132 -45t41 -139v-276h-76v58q-53 -65 -144 -65q-62 0 -100 37.5t-38 101.5q0 66 47 104.5t123 38.5q71 0 112 -29q0 76 -21 109t-81 33q-61 0 -124 -33zM206 65q67 0 116 58v57q-42 30 -101 30q-41 0 -68.5 -19.5t-27.5 -54.5
q0 -33 21.5 -52t59.5 -19zM230 724q49 0 82.5 -32.5t33.5 -78.5t-33.5 -78t-82.5 -32q-48 0 -81 32t-33 78t33 78.5t81 32.5zM168 614q0 -28 18 -47t45 -19t45 19t18 47q0 27 -18 46t-45 19t-45 -19t-18 -46z" />
    <glyph glyph-name="ae" unicode="&#xe6;" horiz-adv-x="775" 
d="M225 460q101 0 142 -59q65 59 162 59q90 0 149 -58q60 -57 60 -148q0 -29 -5 -54h-335v-62q43 -73 146 -73q88 0 138 47l25 -63q-65 -59 -169 -59q-114 0 -181 70q-73 -67 -163 -67q-73 0 -113.5 36.5t-40.5 102.5t47 104.5t123 38.5q63 0 108 -14q3 64 -19.5 94
t-78.5 30q-61 0 -124 -33l-21 67q67 41 150 41zM398 276v-11h257q-3 56 -37.5 88t-92.5 32q-87 0 -129 -69q2 -32 2 -40zM206 68q66 0 112 55v73q-53 14 -97 14q-41 0 -68.5 -19.5t-27.5 -54.5q0 -30 22.5 -49t58.5 -19z" />
    <glyph glyph-name="ccedilla" unicode="&#xe7;" horiz-adv-x="488" 
d="M159 -171l24 39q35 -23 71 -23q25 0 40.5 9.5t15.5 26.5q0 39 -58 39h-6v72q-93 11 -148.5 74t-55.5 159q0 99 65 167t163 68q118 0 177 -59l-37 -63q-52 47 -129 47q-63 0 -109 -46q-45 -45 -45 -114q0 -73 46 -116q47 -44 116 -44q78 0 129 58l38 -58q-56 -72 -167 -75
v-33q101 -6 101 -80q0 -37 -33.5 -59.5t-92.5 -22.5q-55 0 -105 34z" />
    <glyph glyph-name="egrave" unicode="&#xe8;" horiz-adv-x="520" 
d="M427 112l25 -63q-65 -59 -169 -59q-110 0 -175 64q-66 64 -66 171q0 101 62 168q61 67 170 67q90 0 149 -58q60 -57 60 -148q0 -29 -5 -54h-346q5 -63 47.5 -99t109.5 -36q88 0 138 47zM270 385q-59 0 -97.5 -33t-45.5 -87h273q-3 56 -37.5 88t-92.5 32zM335 565l-49 -34
l-121 142l63 48z" />
    <glyph glyph-name="eacute" unicode="&#xe9;" horiz-adv-x="520" 
d="M427 112l25 -63q-65 -59 -169 -59q-110 0 -175 64q-66 64 -66 171q0 101 62 168q61 67 170 67q90 0 149 -58q60 -57 60 -148q0 -29 -5 -54h-346q5 -63 47.5 -99t109.5 -36q88 0 138 47zM270 385q-59 0 -97.5 -33t-45.5 -87h273q-3 56 -37.5 88t-92.5 32zM328 722l62 -48
l-120 -143l-48 34z" />
    <glyph glyph-name="ecircumflex" unicode="&#xea;" horiz-adv-x="520" 
d="M268 707h4l139 -133l-38 -48l-104 91l-104 -90l-38 47zM427 112l25 -63q-65 -59 -169 -59q-110 0 -175 64q-66 64 -66 171q0 101 62 168q61 67 170 67q90 0 149 -58q60 -57 60 -148q0 -29 -5 -54h-346q5 -63 47.5 -99t109.5 -36q88 0 138 47zM270 385q-59 0 -97.5 -33
t-45.5 -87h273q-3 56 -37.5 88t-92.5 32z" />
    <glyph glyph-name="edieresis" unicode="&#xeb;" horiz-adv-x="520" 
d="M427 112l25 -63q-65 -59 -169 -59q-110 0 -175 64q-66 64 -66 171q0 101 62 168q61 67 170 67q90 0 149 -58q60 -57 60 -148q0 -29 -5 -54h-346q5 -63 47.5 -99t109.5 -36q88 0 138 47zM270 385q-59 0 -97.5 -33t-45.5 -87h273q-3 56 -37.5 88t-92.5 32zM119 610
q0 21 13 33.5t34 12.5q18 0 31 -13t13 -33q0 -23 -12.5 -36.5t-31.5 -13.5q-21 0 -34 13.5t-13 36.5zM322 610q0 20 14 33t34 13q18 0 31 -13t13 -33q0 -23 -12.5 -36.5t-31.5 -13.5q-21 0 -34.5 13.5t-13.5 36.5z" />
    <glyph glyph-name="igrave" unicode="&#xec;" horiz-adv-x="268" 
d="M174 0h-80v450h80v-450zM176 565l-49 -34l-121 142l63 48z" />
    <glyph glyph-name="iacute" unicode="&#xed;" horiz-adv-x="268" 
d="M174 0h-80v450h80v-450zM184 722l62 -48l-120 -143l-48 34z" />
    <glyph glyph-name="icircumflex" unicode="&#xee;" horiz-adv-x="268" 
d="M133 707h4l139 -133l-38 -48l-104 91l-104 -90l-38 47zM174 0h-80v450h80v-450z" />
    <glyph glyph-name="idieresis" unicode="&#xef;" horiz-adv-x="268" 
d="M-13 610q0 21 13 33.5t34 12.5q18 0 31 -13t13 -33q0 -23 -12.5 -36.5t-31.5 -13.5q-21 0 -34 13.5t-13 36.5zM190 610q0 20 14 33t34 13q18 0 31 -13t13 -33q0 -23 -12.5 -36.5t-31.5 -13.5q-21 0 -34.5 13.5t-13.5 36.5zM174 0h-80v450h80v-450z" />
    <glyph glyph-name="eth" unicode="&#xf0;" horiz-adv-x="565" 
d="M324 566l-128 -54l-23 71l96 40q-48 42 -103 72l90 15q45 -24 84 -57l105 45l23 -71l-72 -30q60 -71 93 -160t33 -177q0 -126 -66 -198q-64 -72 -174 -72q-106 0 -174 66q-66 68 -66 169q0 102 66 168q67 67 174 67q42 0 78.5 -21.5t56.5 -57.5q-23 101 -93 185zM127 225
q0 -71 43 -115q44 -45 112 -45q72 0 115.5 55t39.5 145q-10 50 -53 85t-102 35q-68 0 -111 -45q-44 -44 -44 -115z" />
    <glyph glyph-name="ntilde" unicode="&#xf1;" horiz-adv-x="549" 
d="M152 0h-80v450h80v-55q25 28 65.5 45.5t81.5 17.5q187 0 187 -198v-260h-80v245q0 138 -127 138q-76 0 -127 -58v-325zM144 557l-33 37q53 60 110 60q24 0 58 -22t55 -22q28 0 71 35l28 -41q-56 -59 -106 -59q-23 0 -57 22t-57 22q-26 0 -69 -32z" />
    <glyph glyph-name="ograve" unicode="&#xf2;" horiz-adv-x="565" 
d="M108 56q-66 68 -66 169q0 102 66 168q67 67 174 67t173 -67q67 -66 67 -168t-67 -169q-66 -66 -173 -66q-106 0 -174 66zM127 225q0 -71 43 -115q44 -45 112 -45t111.5 44.5t43.5 115.5q0 69 -44 115q-43 45 -111 45t-111 -45q-44 -44 -44 -115zM339 565l-49 -34
l-121 142l63 48z" />
    <glyph glyph-name="oacute" unicode="&#xf3;" horiz-adv-x="565" 
d="M108 56q-66 68 -66 169q0 102 66 168q67 67 174 67t173 -67q67 -66 67 -168t-67 -169q-66 -66 -173 -66q-106 0 -174 66zM127 225q0 -71 43 -115q44 -45 112 -45t111.5 44.5t43.5 115.5q0 69 -44 115q-43 45 -111 45t-111 -45q-44 -44 -44 -115zM332 722l62 -48
l-120 -143l-48 34z" />
    <glyph glyph-name="ocircumflex" unicode="&#xf4;" horiz-adv-x="565" 
d="M281 707h4l139 -133l-38 -48l-104 91l-104 -90l-38 47zM108 56q-66 68 -66 169q0 102 66 168q67 67 174 67t173 -67q67 -66 67 -168t-67 -169q-66 -66 -173 -66q-106 0 -174 66zM127 225q0 -71 43 -115q44 -45 112 -45t111.5 44.5t43.5 115.5q0 69 -44 115
q-43 45 -111 45t-111 -45q-44 -44 -44 -115z" />
    <glyph glyph-name="otilde" unicode="&#xf5;" horiz-adv-x="565" 
d="M108 56q-66 68 -66 169q0 102 66 168q67 67 174 67t173 -67q67 -66 67 -168t-67 -169q-66 -66 -173 -66q-106 0 -174 66zM127 225q0 -71 43 -115q44 -45 112 -45t111.5 44.5t43.5 115.5q0 69 -44 115q-43 45 -111 45t-111 -45q-44 -44 -44 -115zM152 557l-33 37
q53 60 110 60q24 0 58 -22t55 -22q28 0 71 35l28 -41q-56 -59 -106 -59q-23 0 -57 22t-57 22q-26 0 -69 -32z" />
    <glyph glyph-name="odieresis" unicode="&#xf6;" horiz-adv-x="565" 
d="M108 56q-66 68 -66 169q0 102 66 168q67 67 174 67t173 -67q67 -66 67 -168t-67 -169q-66 -66 -173 -66q-106 0 -174 66zM127 225q0 -71 43 -115q44 -45 112 -45t111.5 44.5t43.5 115.5q0 69 -44 115q-43 45 -111 45t-111 -45q-44 -44 -44 -115zM139 610q0 21 13 33.5
t34 12.5q18 0 31 -13t13 -33q0 -23 -12.5 -36.5t-31.5 -13.5q-21 0 -34 13.5t-13 36.5zM342 610q0 20 14 33t34 13q18 0 31 -13t13 -33q0 -23 -12.5 -36.5t-31.5 -13.5q-21 0 -34.5 13.5t-13.5 36.5z" />
    <glyph glyph-name="divide" unicode="&#xf7;" 
d="M246 564q0 20 14 34t36 14q20 0 34.5 -14.5t14.5 -33.5q0 -21 -14 -36t-35 -15q-23 0 -36.5 14.5t-13.5 36.5zM246 157q0 19 14 33t36 14q20 0 34.5 -14t14.5 -33q0 -21 -14 -36t-35 -15q-23 0 -36.5 14.5t-13.5 36.5zM523 325h-454v70h454v-70z" />
    <glyph glyph-name="oslash" unicode="&#xf8;" horiz-adv-x="565" 
d="M42 225q0 102 66 168q67 67 174 67q91 0 153 -49l46 44l44 -49l-45 -43q42 -59 42 -138q0 -102 -67 -169q-66 -66 -173 -66q-85 0 -146 43l-50 -47l-45 51l46 44q-45 61 -45 144zM127 225q0 -50 21 -86l228 216q-41 30 -94 30q-68 0 -111 -45q-44 -44 -44 -115zM437 225
q0 41 -18 79l-224 -214q37 -25 87 -25q68 0 111.5 44.5t43.5 115.5z" />
    <glyph glyph-name="ugrave" unicode="&#xf9;" horiz-adv-x="540" 
d="M387 450h80v-450h-80v64q-63 -74 -159 -74q-79 0 -122.5 48.5t-43.5 143.5v268h80v-250q0 -135 116 -135q36 0 71.5 18.5t57.5 48.5v318zM324 565l-49 -34l-121 142l63 48z" />
    <glyph glyph-name="uacute" unicode="&#xfa;" horiz-adv-x="540" 
d="M387 450h80v-450h-80v64q-63 -74 -159 -74q-79 0 -122.5 48.5t-43.5 143.5v268h80v-250q0 -135 116 -135q36 0 71.5 18.5t57.5 48.5v318zM322 722l62 -48l-120 -143l-48 34z" />
    <glyph glyph-name="ucircumflex" unicode="&#xfb;" horiz-adv-x="540" 
d="M265 707h4l139 -133l-38 -48l-104 91l-104 -90l-38 47zM387 450h80v-450h-80v64q-63 -74 -159 -74q-79 0 -122.5 48.5t-43.5 143.5v268h80v-250q0 -135 116 -135q36 0 71.5 18.5t57.5 48.5v318z" />
    <glyph glyph-name="udieresis" unicode="&#xfc;" horiz-adv-x="540" 
d="M387 450h80v-450h-80v64q-63 -74 -159 -74q-79 0 -122.5 48.5t-43.5 143.5v268h80v-250q0 -135 116 -135q36 0 71.5 18.5t57.5 48.5v318zM121 610q0 21 13 33.5t34 12.5q18 0 31 -13t13 -33q0 -23 -12.5 -36.5t-31.5 -13.5q-21 0 -34 13.5t-13 36.5zM324 610q0 20 14 33
t34 13q18 0 31 -13t13 -33q0 -23 -12.5 -36.5t-31.5 -13.5q-21 0 -34.5 13.5t-13.5 36.5z" />
    <glyph glyph-name="yacute" unicode="&#xfd;" horiz-adv-x="491" 
d="M390 450h91l-180 -450q-49 -119 -85 -158q-38 -42 -87 -42q-44 0 -85 28l26 61q32 -15 50 -15q28 0 50.5 24t45.5 78l10 24l-216 450h96l132 -286q4 -7 27 -68q9 33 21 69zM293 722l62 -48l-120 -143l-48 34z" />
    <glyph glyph-name="thorn" unicode="&#xfe;" horiz-adv-x="556" 
d="M152 -200h-80v900h80v-298q59 58 153 58q96 0 151 -64q57 -63 57 -164q0 -103 -65 -173q-64 -69 -169 -69q-81 0 -127 31v-221zM282 385q-80 0 -130 -62v-223q53 -35 120 -35q71 0 113.5 45.5t42.5 118.5q0 71 -39 113.5t-107 42.5z" />
    <glyph glyph-name="ydieresis" unicode="&#xff;" horiz-adv-x="491" 
d="M390 450h91l-180 -450q-49 -119 -85 -158q-38 -42 -87 -42q-44 0 -85 28l26 61q32 -15 50 -15q28 0 50.5 24t45.5 78l10 24l-216 450h96l132 -286q4 -7 27 -68q9 33 21 69zM103 610q0 21 13 33.5t34 12.5q18 0 31 -13t13 -33q0 -23 -12.5 -36.5t-31.5 -13.5
q-21 0 -34 13.5t-13 36.5zM306 610q0 20 14 33t34 13q18 0 31 -13t13 -33q0 -23 -12.5 -36.5t-31.5 -13.5q-21 0 -34.5 13.5t-13.5 36.5z" />
    <glyph glyph-name="Amacron" unicode="&#x100;" horiz-adv-x="705" 
d="M101 0h-86l301 704h73l301 -704h-91l-90 212h-319zM476 292l-126 299l-126 -299h252zM504 770h-304v65h304v-65z" />
    <glyph glyph-name="amacron" unicode="&#x101;" horiz-adv-x="460" 
d="M96 355l-21 64q67 41 150 41q91 0 132 -45t41 -139v-276h-76v58q-53 -65 -144 -65q-62 0 -100 37.5t-38 101.5q0 66 47 104.5t123 38.5q71 0 112 -29q0 76 -21 109t-81 33q-61 0 -124 -33zM206 65q67 0 116 58v57q-42 30 -101 30q-41 0 -68.5 -19.5t-27.5 -54.5
q0 -33 21.5 -52t59.5 -19zM365 580h-264v65h264v-65z" />
    <glyph glyph-name="Abreve" unicode="&#x102;" horiz-adv-x="705" 
d="M101 0h-86l301 704h73l301 -704h-91l-90 212h-319zM476 292l-126 299l-126 -299h252zM177 838l36 42q59 -65 143 -65t140 65l31 -42q-26 -40 -72.5 -66.5t-98.5 -26.5q-60 0 -109 29q-47 29 -70 64z" />
    <glyph glyph-name="abreve" unicode="&#x103;" horiz-adv-x="460" 
d="M96 355l-21 64q67 41 150 41q91 0 132 -45t41 -139v-276h-76v58q-53 -65 -144 -65q-62 0 -100 37.5t-38 101.5q0 66 47 104.5t123 38.5q71 0 112 -29q0 76 -21 109t-81 33q-61 0 -124 -33zM206 65q67 0 116 58v57q-42 30 -101 30q-41 0 -68.5 -19.5t-27.5 -54.5
q0 -33 21.5 -52t59.5 -19zM79 640l37 41q51 -61 114 -61q66 0 115 60l29 -39q-62 -86 -147 -86q-93 0 -148 85z" />
    <glyph glyph-name="Aogonek" unicode="&#x104;" horiz-adv-x="705" 
d="M661 -126l24 -49q-29 -25 -86 -25q-54 0 -88 23t-34 69q0 41 32.5 71t86.5 43l-87 206h-319l-89 -212h-86l301 704h73l301 -704h-19q-47 -2 -80.5 -26t-33.5 -56q0 -26 18 -39.5t42 -13.5q25 0 44 9zM476 292l-126 299l-126 -299h252z" />
    <glyph glyph-name="aogonek" unicode="&#x105;" horiz-adv-x="460" 
d="M383 -126l24 -49q-29 -25 -86 -25q-54 0 -88 23t-34 69q0 42 33.5 72t89.5 43v51q-53 -65 -144 -65q-62 0 -100 37.5t-38 101.5q0 66 47 104.5t123 38.5q71 0 112 -29q0 76 -21 109t-81 33q-61 0 -124 -33l-21 64q67 41 150 41q91 0 132 -45t41 -139v-276q-47 0 -83 -24
q-36 -25 -36 -58q0 -26 18 -39.5t42 -13.5q25 0 44 9zM206 65q67 0 116 58v57q-42 30 -101 30q-41 0 -68.5 -19.5t-27.5 -54.5q0 -33 21.5 -52t59.5 -19z" />
    <glyph glyph-name="Cacute" unicode="&#x106;" horiz-adv-x="656" 
d="M592 132l34 -64q-35 -36 -95 -57t-126 -21q-157 0 -257 98q-98 100 -98 262q0 156 94 257q94 103 255 103q133 0 213 -68l-39 -64q-70 52 -173 52q-114 0 -187 -78q-73 -77 -73 -202t75 -203q77 -77 198 -77q102 0 179 62zM508 887l30 -68l-202 -84l-23 48z" />
    <glyph glyph-name="cacute" unicode="&#x107;" horiz-adv-x="488" 
d="M418 123l38 -58q-58 -75 -173 -75q-108 0 -175 64q-66 64 -66 171q0 99 65 167t163 68q118 0 177 -59l-37 -63q-52 47 -129 47q-63 0 -109 -46q-45 -45 -45 -114q0 -73 46 -116q47 -44 116 -44q78 0 129 58zM320 722l62 -48l-120 -143l-48 34z" />
    <glyph glyph-name="Ccircumflex" unicode="&#x108;" horiz-adv-x="656" 
d="M592 132l34 -64q-35 -36 -95 -57t-126 -21q-157 0 -257 98q-98 100 -98 262q0 156 94 257q94 103 255 103q133 0 213 -68l-39 -64q-70 52 -173 52q-114 0 -187 -78q-73 -77 -73 -202t75 -203q77 -77 198 -77q102 0 179 62zM245 733l-29 45l171 104h4l174 -103l-33 -46
l-143 76z" />
    <glyph glyph-name="ccircumflex" unicode="&#x109;" horiz-adv-x="488" 
d="M275 707h4l139 -133l-38 -48l-104 91l-104 -90l-38 47zM418 123l38 -58q-58 -75 -173 -75q-108 0 -175 64q-66 64 -66 171q0 99 65 167t163 68q118 0 177 -59l-37 -63q-52 47 -129 47q-63 0 -109 -46q-45 -45 -45 -114q0 -73 46 -116q47 -44 116 -44q78 0 129 58z" />
    <glyph glyph-name="Cdotaccent" unicode="&#x10a;" horiz-adv-x="656" 
d="M592 132l34 -64q-35 -36 -95 -57t-126 -21q-157 0 -257 98q-98 100 -98 262q0 156 94 257q94 103 255 103q133 0 213 -68l-39 -64q-70 52 -173 52q-114 0 -187 -78q-73 -77 -73 -202t75 -203q77 -77 198 -77q102 0 179 62zM325 817q0 23 16.5 37t40.5 14q22 0 38 -14
t16 -37q0 -24 -16 -39t-38 -15q-25 0 -41 15t-16 39z" />
    <glyph glyph-name="cdotaccent" unicode="&#x10b;" horiz-adv-x="488" 
d="M418 123l38 -58q-58 -75 -173 -75q-108 0 -175 64q-66 64 -66 171q0 99 65 167t163 68q118 0 177 -59l-37 -63q-52 47 -129 47q-63 0 -109 -46q-45 -45 -45 -114q0 -73 46 -116q47 -44 116 -44q78 0 129 58zM226 619q0 21 15 34.5t37 13.5q21 0 35 -13.5t14 -34.5
q0 -23 -14 -37.5t-35 -14.5q-22 0 -37 14.5t-15 37.5z" />
    <glyph glyph-name="Ccaron" unicode="&#x10c;" horiz-adv-x="656" 
d="M394 738h-4l-175 103l33 46l144 -81l143 81l30 -45zM592 132l34 -64q-35 -36 -95 -57t-126 -21q-157 0 -257 98q-98 100 -98 262q0 156 94 257q94 103 255 103q133 0 213 -68l-39 -64q-70 52 -173 52q-114 0 -187 -78q-73 -77 -73 -202t75 -203q77 -77 198 -77
q102 0 179 62z" />
    <glyph glyph-name="ccaron" unicode="&#x10d;" horiz-adv-x="488" 
d="M277 529h-4l-140 133l39 48l104 -103l104 102l37 -47zM418 123l38 -58q-58 -75 -173 -75q-108 0 -175 64q-66 64 -66 171q0 99 65 167t163 68q118 0 177 -59l-37 -63q-52 47 -129 47q-63 0 -109 -46q-45 -45 -45 -114q0 -73 46 -116q47 -44 116 -44q78 0 129 58z" />
    <glyph glyph-name="Dcaron" unicode="&#x10e;" horiz-adv-x="739" 
d="M339 738h-4l-175 103l33 46l144 -81l143 81l30 -45zM116 0h-11v700h12q43 0 85 1q86 2 94 2q102 0 179 -27.5t123 -76t68.5 -109t22.5 -131.5q0 -157 -105 -259q-104 -102 -296 -102q-42 0 -82 1q-39 1 -90 1zM294 623q-18 0 -54.5 -1.5t-49.5 -1.5v-540q26 0 50.5 -0.5
t36.5 -1t14 -0.5q145 0 227 77q81 78 81 204q0 118 -79 191t-226 73z" />
    <glyph glyph-name="dcaron" unicode="&#x10f;" horiz-adv-x="554" 
d="M482 0h-80v57q-60 -65 -143 -65q-99 0 -158 63q-59 64 -59 167q0 105 69 171q70 67 177 67q68 0 114 -32v272h80v-700zM274 67q74 0 128 60v223q-56 35 -111 35q-69 0 -117 -45q-47 -44 -47 -116t40.5 -114.5t106.5 -42.5zM571 700h78q8 -18 8 -38q0 -54 -24 -93.5
t-62 -59.5l-36 35q47 41 47 109q0 27 -11 47z" />
    <glyph glyph-name="Dcroat" unicode="&#x110;" horiz-adv-x="754" 
d="M120 316h-110v75h110v309h12q43 0 85 1q86 2 94 2q102 0 179 -27.5t123 -76t68.5 -109t22.5 -131.5q0 -157 -105 -259q-104 -102 -296 -102q-42 0 -82 1q-39 1 -90 1h-11v316zM309 623q-18 0 -54.5 -1.5t-49.5 -1.5v-229h188v-75h-188v-236q26 0 50.5 -0.5t36.5 -1
t14 -0.5q145 0 227 77q81 78 81 204q0 118 -79 191t-226 73z" />
    <glyph glyph-name="dslash" unicode="&#x111;" horiz-adv-x="554" 
d="M402 534h-157v65h157v101h80v-101h92v-65h-92v-534h-80v57q-60 -65 -143 -65q-99 0 -158 63q-59 64 -59 167q0 105 69 171q70 67 177 67q68 0 114 -32v106zM274 67q74 0 128 60v223q-56 35 -111 35q-69 0 -117 -45q-47 -44 -47 -116t40.5 -114.5t106.5 -42.5z" />
    <glyph glyph-name="Emacron" unicode="&#x112;" horiz-adv-x="575" 
d="M510 0h-405v700h395v-80h-310v-226h280v-80h-280v-234h320v-80zM454 770h-304v65h304v-65z" />
    <glyph glyph-name="emacron" unicode="&#x113;" horiz-adv-x="520" 
d="M427 112l25 -63q-65 -59 -169 -59q-110 0 -175 64q-66 64 -66 171q0 101 62 168q61 67 170 67q90 0 149 -58q60 -57 60 -148q0 -29 -5 -54h-346q5 -63 47.5 -99t109.5 -36q88 0 138 47zM270 385q-59 0 -97.5 -33t-45.5 -87h273q-3 56 -37.5 88t-92.5 32zM396 580h-264v65
h264v-65z" />
    <glyph glyph-name="Edotaccent" unicode="&#x116;" horiz-adv-x="575" 
d="M510 0h-405v700h395v-80h-310v-226h280v-80h-280v-234h320v-80zM250 817q0 23 16.5 37t40.5 14q22 0 38 -14t16 -37q0 -24 -16 -39t-38 -15q-25 0 -41 15t-16 39z" />
    <glyph glyph-name="edotaccent" unicode="&#x117;" horiz-adv-x="520" 
d="M427 112l25 -63q-65 -59 -169 -59q-110 0 -175 64q-66 64 -66 171q0 101 62 168q61 67 170 67q90 0 149 -58q60 -57 60 -148q0 -29 -5 -54h-346q5 -63 47.5 -99t109.5 -36q88 0 138 47zM270 385q-59 0 -97.5 -33t-45.5 -87h273q-3 56 -37.5 88t-92.5 32zM215 619
q0 21 15 34.5t37 13.5q21 0 35 -13.5t14 -34.5q0 -23 -14 -37.5t-35 -14.5q-22 0 -37 14.5t-15 37.5z" />
    <glyph glyph-name="Eogonek" unicode="&#x118;" horiz-adv-x="575" 
d="M409 0h-304v700h395v-80h-310v-226h280v-80h-280v-234h320v-80h-5q-47 -2 -80.5 -26t-33.5 -56q0 -26 18 -39.5t42 -13.5q25 0 44 9l24 -49q-29 -25 -86 -25q-54 0 -88 23t-34 69q0 73 98 108z" />
    <glyph glyph-name="eogonek" unicode="&#x119;" horiz-adv-x="520" 
d="M427 112l25 -63q-33 -30 -74 -43q-67 -43 -67 -88q0 -26 18.5 -39.5t42.5 -13.5t44 9l24 -49q-29 -25 -86 -25q-54 0 -88.5 23t-34.5 69q0 56 72 99q-2 0 -10 -0.5t-10 -0.5q-110 0 -175 64q-66 64 -66 171q0 101 62 168q61 67 170 67q90 0 149 -58q60 -57 60 -148
q0 -29 -5 -54h-346q5 -63 47.5 -99t109.5 -36q88 0 138 47zM270 385q-59 0 -97.5 -33t-45.5 -87h273q-3 56 -37.5 88t-92.5 32z" />
    <glyph glyph-name="Ecaron" unicode="&#x11a;" horiz-adv-x="575" 
d="M314 738h-4l-175 103l33 46l144 -81l143 81l30 -45zM510 0h-405v700h395v-80h-310v-226h280v-80h-280v-234h320v-80z" />
    <glyph glyph-name="ecaron" unicode="&#x11b;" horiz-adv-x="520" 
d="M275 529h-4l-140 133l39 48l104 -103l104 102l37 -47zM427 112l25 -63q-65 -59 -169 -59q-110 0 -175 64q-66 64 -66 171q0 101 62 168q61 67 170 67q90 0 149 -58q60 -57 60 -148q0 -29 -5 -54h-346q5 -63 47.5 -99t109.5 -36q88 0 138 47zM270 385q-59 0 -97.5 -33
t-45.5 -87h273q-3 56 -37.5 88t-92.5 32z" />
    <glyph glyph-name="Gcircumflex" unicode="&#x11c;" horiz-adv-x="727" 
d="M587 276h-189v80h269v-269q-45 -45 -119 -71q-75 -26 -143 -26q-163 0 -259 98t-96 262q0 153 95 257q94 103 249 103q134 0 220 -68l-37 -68q-62 56 -173 56q-117 0 -191 -77q-73 -76 -73 -203q0 -128 73 -204t194 -76q48 0 101 17q50 18 79 45v144zM245 733l-29 45
l171 104h4l174 -103l-33 -46l-143 76z" />
    <glyph glyph-name="gcircumflex" unicode="&#x11d;" horiz-adv-x="494" 
d="M10 -65q0 52 38 87t106 50q-11 14 -11 37t12 38q-48 19 -74.5 58t-26.5 90q0 70 50 117q51 48 134 48q64 0 114 -33l132 32l2 -65l-85 -21q21 -35 21 -78q0 -69 -51 -116q-50 -46 -133 -46q-23 0 -30 1q-5 -12 -5 -25q0 -18 9 -30q2 0 12.5 0.5t14.5 0.5q105 0 167 -37.5
t62 -107.5q0 -68 -62 -105.5t-167 -37.5q-106 0 -167.5 36.5t-61.5 106.5zM393 -65q0 37 -41 58.5t-113 21.5t-113 -21.5t-41 -58.5t41 -57.5t113 -20.5t113 20t41 58zM129 295q0 -42 30.5 -69.5t78.5 -27.5t78 27q31 27 31 70t-30 71q-31 29 -79 29t-78.5 -28.5
t-30.5 -71.5zM241 707h4l139 -133l-38 -48l-104 91l-104 -90l-38 47z" />
    <glyph glyph-name="Gbreve" unicode="&#x11e;" horiz-adv-x="727" 
d="M587 276h-189v80h269v-269q-45 -45 -119 -71q-75 -26 -143 -26q-163 0 -259 98t-96 262q0 153 95 257q94 103 249 103q134 0 220 -68l-37 -68q-62 56 -173 56q-117 0 -191 -77q-73 -76 -73 -203q0 -128 73 -204t194 -76q48 0 101 17q50 18 79 45v144zM226 838l36 42
q59 -65 143 -65t140 65l31 -42q-26 -40 -72.5 -66.5t-98.5 -26.5q-60 0 -109 29q-47 29 -70 64z" />
    <glyph glyph-name="gbreve" unicode="&#x11f;" horiz-adv-x="494" 
d="M10 -65q0 52 38 87t106 50q-11 14 -11 37t12 38q-48 19 -74.5 58t-26.5 90q0 70 50 117q51 48 134 48q64 0 114 -33l132 32l2 -65l-85 -21q21 -35 21 -78q0 -69 -51 -116q-50 -46 -133 -46q-23 0 -30 1q-5 -12 -5 -25q0 -18 9 -30q2 0 12.5 0.5t14.5 0.5q105 0 167 -37.5
t62 -107.5q0 -68 -62 -105.5t-167 -37.5q-106 0 -167.5 36.5t-61.5 106.5zM393 -65q0 37 -41 58.5t-113 21.5t-113 -21.5t-41 -58.5t41 -57.5t113 -20.5t113 20t41 58zM129 295q0 -42 30.5 -69.5t78.5 -27.5t78 27q31 27 31 70t-30 71q-31 29 -79 29t-78.5 -28.5
t-30.5 -71.5zM92 640l37 41q51 -61 114 -61q65 0 115 60l29 -39q-62 -86 -147 -86q-93 0 -148 85z" />
    <glyph glyph-name="Gdotaccent" unicode="&#x120;" horiz-adv-x="727" 
d="M587 276h-189v80h269v-269q-45 -45 -119 -71q-75 -26 -143 -26q-163 0 -259 98t-96 262q0 153 95 257q94 103 249 103q134 0 220 -68l-37 -68q-62 56 -173 56q-117 0 -191 -77q-73 -76 -73 -203q0 -128 73 -204t194 -76q48 0 101 17q50 18 79 45v144zM325 817
q0 23 16.5 37t40.5 14q22 0 38 -14t16 -37q0 -24 -16 -39t-38 -15q-25 0 -41 15t-16 39z" />
    <glyph glyph-name="gdotaccent" unicode="&#x121;" horiz-adv-x="494" 
d="M10 -65q0 52 38 87t106 50q-11 14 -11 37t12 38q-48 19 -74.5 58t-26.5 90q0 70 50 117q51 48 134 48q64 0 114 -33l132 32l2 -65l-85 -21q21 -35 21 -78q0 -69 -51 -116q-50 -46 -133 -46q-23 0 -30 1q-5 -12 -5 -25q0 -18 9 -30q2 0 12.5 0.5t14.5 0.5q105 0 167 -37.5
t62 -107.5q0 -68 -62 -105.5t-167 -37.5q-106 0 -167.5 36.5t-61.5 106.5zM393 -65q0 37 -41 58.5t-113 21.5t-113 -21.5t-41 -58.5t41 -57.5t113 -20.5t113 20t41 58zM129 295q0 -42 30.5 -69.5t78.5 -27.5t78 27q31 27 31 70t-30 71q-31 29 -79 29t-78.5 -28.5
t-30.5 -71.5zM189 619q0 21 15 34.5t37 13.5q21 0 35 -13.5t14 -34.5q0 -23 -14 -37.5t-35 -14.5q-22 0 -37 14.5t-15 37.5z" />
    <glyph glyph-name="Gcommaaccent" unicode="&#x122;" horiz-adv-x="727" 
d="M587 276h-189v80h269v-269q-45 -45 -119 -71q-75 -26 -143 -26q-163 0 -259 98t-96 262q0 153 95 257q94 103 249 103q134 0 220 -68l-37 -68q-62 56 -173 56q-117 0 -191 -77q-73 -76 -73 -203q0 -128 73 -204t194 -76q48 0 101 17q50 18 79 45v144zM351 -65l75 19
q29 -8 29 -49q0 -42 -29 -70.5t-74 -38.5l-23 36q46 18 46 62q0 30 -24 41z" />
    <glyph glyph-name="gcommaaccent" unicode="&#x123;" horiz-adv-x="494" 
d="M10 -65q0 52 38 87t106 50q-11 14 -11 37t12 38q-48 19 -74.5 58t-26.5 90q0 70 50 117q51 48 134 48q64 0 114 -33l132 32l2 -65l-85 -21q21 -35 21 -78q0 -69 -51 -116q-50 -46 -133 -46q-23 0 -30 1q-5 -12 -5 -25q0 -18 9 -30q2 0 12.5 0.5t14.5 0.5q105 0 167 -37.5
t62 -107.5q0 -68 -62 -105.5t-167 -37.5q-106 0 -167.5 36.5t-61.5 106.5zM393 -65q0 37 -41 58.5t-113 21.5t-113 -21.5t-41 -58.5t41 -57.5t113 -20.5t113 20t41 58zM129 295q0 -42 30.5 -69.5t78.5 -27.5t78 27q31 27 31 70t-30 71q-31 29 -79 29t-78.5 -28.5
t-30.5 -71.5zM285 562l-75 -19q-29 8 -29 49q0 42 29 70.5t74 38.5l23 -36q-46 -18 -46 -62q0 -31 24 -41z" />
    <glyph glyph-name="Hcircumflex" unicode="&#x124;" horiz-adv-x="765" 
d="M660 0h-85v317h-385v-317h-85v700h85v-303h385v303h85v-700zM238 733l-29 45l171 104h4l174 -103l-33 -46l-143 76z" />
    <glyph glyph-name="hcircumflex" unicode="&#x125;" horiz-adv-x="549" 
d="M152 0h-80v700h80v-302q60 60 147 60q187 0 187 -200v-258h-80v247q0 136 -126 136q-35 0 -70.5 -16t-57.5 -41v-326zM12 733l-29 45l171 104h4l174 -103l-33 -46l-143 76z" />
    <glyph glyph-name="Hbar" unicode="&#x126;" horiz-adv-x="775" 
d="M110 514h-85v75h85v111h85v-111h385v111h85v-111h85v-75h-85v-514h-85v317h-385v-317h-85v514zM195 514v-117h385v117h-385z" />
    <glyph glyph-name="hbar" unicode="&#x127;" horiz-adv-x="574" 
d="M97 520h-117v75h117v105h80v-105h162v-75h-162v-122q60 60 147 60q187 0 187 -200v-258h-80v247q0 136 -126 136q-35 0 -70.5 -16t-57.5 -41v-326h-80v520z" />
    <glyph glyph-name="Imacron" unicode="&#x12a;" horiz-adv-x="335" 
d="M322 770h-304v65h304v-65zM210 0h-85v700h85v-700z" />
    <glyph glyph-name="imacron" unicode="&#x12b;" horiz-adv-x="268" 
d="M174 0h-80v450h80v-450zM266 580h-264v65h264v-65z" />
    <glyph glyph-name="Iogonek" unicode="&#x12e;" horiz-adv-x="335" 
d="M195 -126l24 -49q-29 -25 -86 -25q-54 0 -88 23t-34 69q0 40 30.5 69t83.5 44v695h85v-700h-5q-47 -2 -80.5 -26t-33.5 -56q0 -26 18 -39.5t42 -13.5q25 0 44 9z" />
    <glyph glyph-name="iogonek" unicode="&#x12f;" horiz-adv-x="268" 
d="M158 -126l24 -49q-29 -25 -86 -25q-54 0 -88 23t-34 69q0 42 32.5 71.5t87.5 42.5v444h80v-450h-6q-47 -2 -80.5 -26t-33.5 -56q0 -26 18 -39.5t42 -13.5q25 0 44 9zM81 619q0 21 15 34.5t37 13.5q21 0 35 -13.5t14 -34.5q0 -23 -14 -37.5t-35 -14.5q-22 0 -37 14.5
t-15 37.5z" />
    <glyph glyph-name="Idot" unicode="&#x130;" horiz-adv-x="335" 
d="M112 817q0 23 16.5 37t40.5 14q22 0 38 -14t16 -37q0 -24 -16 -39t-38 -15q-25 0 -41 15t-16 39zM210 0h-85v700h85v-700z" />
    <glyph glyph-name="dotlessi" unicode="&#x131;" horiz-adv-x="268" 
d="M174 0h-80v450h80v-450z" />
    <glyph glyph-name="Jcircumflex" unicode="&#x134;" horiz-adv-x="374" 
d="M184 700h85v-541q0 -169 -153 -169q-69 0 -106 37l29 65q28 -22 66 -22q79 0 79 103v527zM76 733l-29 45l171 104h4l174 -103l-33 -46l-143 76z" />
    <glyph glyph-name="jcircumflex" unicode="&#x135;" horiz-adv-x="266" 
d="M137 707h4l139 -133l-38 -48l-104 91l-104 -90l-38 47zM98 450h80v-483q0 -175 -141 -175q-62 0 -100 29l23 64q28 -18 59 -18q79 0 79 106v477z" />
    <glyph glyph-name="Kcommaaccent" unicode="&#x136;" horiz-adv-x="653" 
d="M514 700h103l-312 -329l328 -371h-109l-317 365zM190 0h-85v700h85v-700zM271 -65l75 19q29 -8 29 -49q0 -42 -29 -70.5t-74 -38.5l-23 36q46 18 46 62q0 30 -24 41z" />
    <glyph glyph-name="kcommaaccent" unicode="&#x137;" horiz-adv-x="491" 
d="M355 450h102l-191 -209l215 -241h-109l-203 235zM152 0h-80v700h80v-700zM185 -65l75 19q29 -8 29 -49q0 -42 -29 -70.5t-74 -38.5l-23 36q46 18 46 62q0 30 -24 41z" />
    <glyph glyph-name="Lacute" unicode="&#x139;" horiz-adv-x="550" 
d="M535 0h-430v700h85v-620h345v-80zM408 887l30 -68l-202 -84l-23 48z" />
    <glyph glyph-name="lacute" unicode="&#x13a;" horiz-adv-x="290" 
d="M72 120v580h80v-544q0 -89 53 -89q26 0 57 20l18 -61q-43 -34 -106 -34q-102 0 -102 128zM265 887l30 -68l-202 -84l-23 48z" />
    <glyph glyph-name="Lcommaaccent" unicode="&#x13b;" horiz-adv-x="550" 
d="M261 -65l75 19q29 -8 29 -49q0 -42 -29 -70.5t-74 -38.5l-23 36q46 18 46 62q0 30 -24 41zM535 0h-430v700h85v-620h345v-80z" />
    <glyph glyph-name="lcommaaccent" unicode="&#x13c;" horiz-adv-x="290" 
d="M72 120v580h80v-544q0 -89 53 -89q26 0 57 20l18 -61q-43 -34 -106 -34q-102 0 -102 128zM118 -65l75 19q29 -8 29 -49q0 -42 -29 -70.5t-74 -38.5l-23 36q46 18 46 62q0 30 -24 41z" />
    <glyph glyph-name="Lcaron" unicode="&#x13d;" horiz-adv-x="550" 
d="M356 700h78q8 -18 8 -38q0 -54 -24 -93.5t-62 -59.5l-36 35q47 41 47 109q0 27 -11 47zM535 0h-430v700h85v-620h345v-80z" />
    <glyph glyph-name="lcaron" unicode="&#x13e;" horiz-adv-x="290" 
d="M72 120v580h80v-544q0 -89 53 -89q26 0 57 20l18 -61q-43 -34 -106 -34q-102 0 -102 128zM246 700h78q8 -18 8 -38q0 -54 -24 -93.5t-62 -59.5l-36 35q47 41 47 109q0 27 -11 47z" />
    <glyph glyph-name="Ldot" unicode="&#x13f;" horiz-adv-x="550" 
d="M368 374q0 21 16.5 37t40.5 16q21 0 37 -16t16 -37q0 -24 -15 -40.5t-38 -16.5q-24 0 -40.5 16.5t-16.5 40.5zM535 0h-430v700h85v-620h345v-80z" />
    <glyph glyph-name="ldot" unicode="&#x140;" horiz-adv-x="324" 
d="M72 120v580h80v-544q0 -89 53 -89q26 0 57 20l18 -61q-43 -34 -106 -34q-102 0 -102 128zM226 326q0 21 15 34.5t37 13.5q21 0 35 -13.5t14 -34.5q0 -23 -14 -37.5t-35 -14.5q-22 0 -37 14.5t-15 37.5z" />
    <glyph glyph-name="Lslash" unicode="&#x141;" horiz-adv-x="560" 
d="M115 263l-90 -44v83l90 43v355h85v-314l176 86v-82l-176 -86v-224h345v-80h-430v263z" />
    <glyph glyph-name="lslash" unicode="&#x142;" horiz-adv-x="320" 
d="M92 259l-77 -37v83l77 37v358h80v-320l105 51v-82l-105 -51v-142q0 -89 53 -89q26 0 57 20l18 -61q-43 -34 -106 -34q-102 0 -102 128v139z" />
    <glyph glyph-name="Nacute" unicode="&#x143;" horiz-adv-x="795" 
d="M690 700v-700h-68l-437 550v-550h-80v700h68l437 -552v552h80zM533 887l30 -68l-202 -84l-23 48z" />
    <glyph glyph-name="nacute" unicode="&#x144;" horiz-adv-x="549" 
d="M152 0h-80v450h80v-55q25 28 65.5 45.5t81.5 17.5q187 0 187 -198v-260h-80v245q0 138 -127 138q-76 0 -127 -58v-325zM329 722l62 -48l-120 -143l-48 34z" />
    <glyph glyph-name="Ncommaaccent" unicode="&#x145;" horiz-adv-x="795" 
d="M690 700v-700h-68l-437 550v-550h-80v700h68l437 -552v552h80zM346 -65l75 19q29 -8 29 -49q0 -42 -29 -70.5t-74 -38.5l-23 36q46 18 46 62q0 30 -24 41z" />
    <glyph glyph-name="ncommaaccent" unicode="&#x146;" horiz-adv-x="549" 
d="M152 0h-80v450h80v-55q25 28 65.5 45.5t81.5 17.5q187 0 187 -198v-260h-80v245q0 138 -127 138q-76 0 -127 -58v-325zM224 -65l75 19q29 -8 29 -49q0 -42 -29 -70.5t-74 -38.5l-23 36q46 18 46 62q0 30 -24 41z" />
    <glyph glyph-name="Ncaron" unicode="&#x147;" horiz-adv-x="795" 
d="M401 738h-4l-175 103l33 46l144 -81l143 81l30 -45zM690 700v-700h-68l-437 550v-550h-80v700h68l437 -552v552h80z" />
    <glyph glyph-name="ncaron" unicode="&#x148;" horiz-adv-x="549" 
d="M275 529h-4l-140 133l39 48l104 -103l104 102l37 -47zM152 0h-80v450h80v-55q25 28 65.5 45.5t81.5 17.5q187 0 187 -198v-260h-80v245q0 138 -127 138q-76 0 -127 -58v-325z" />
    <glyph glyph-name="Omacron" unicode="&#x14c;" horiz-adv-x="814" 
d="M50 350q0 152 101 256t256 104q154 0 255 -101q102 -101 102 -259q0 -154 -102 -258q-102 -102 -255 -102t-256 101q-101 101 -101 259zM140 350q0 -118 77 -200q77 -80 190 -80q118 0 192 80q75 80 75 200t-77 200t-190 80q-115 0 -191 -79t-76 -201zM564 770h-304v65
h304v-65z" />
    <glyph glyph-name="omacron" unicode="&#x14d;" horiz-adv-x="565" 
d="M108 56q-66 68 -66 169q0 102 66 168q67 67 174 67t173 -67q67 -66 67 -168t-67 -169q-66 -66 -173 -66q-106 0 -174 66zM127 225q0 -71 43 -115q44 -45 112 -45t111.5 44.5t43.5 115.5q0 69 -44 115q-43 45 -111 45t-111 -45q-44 -44 -44 -115zM419 580h-264v65h264v-65
z" />
    <glyph glyph-name="Ohungarumlaut" unicode="&#x150;" horiz-adv-x="814" 
d="M50 350q0 152 101 256t256 104q154 0 255 -101q102 -101 102 -259q0 -154 -102 -258q-102 -102 -255 -102t-256 101q-101 101 -101 259zM140 350q0 -118 77 -200q77 -80 190 -80q118 0 192 80q75 80 75 200t-77 200t-190 80q-115 0 -191 -79t-76 -201zM607 887l55 -51
l-179 -101l-33 35zM400 887l67 -36l-161 -116l-34 32z" />
    <glyph glyph-name="ohungarumlaut" unicode="&#x151;" horiz-adv-x="565" 
d="M108 56q-66 68 -66 169q0 102 66 168q67 67 174 67t173 -67q67 -66 67 -168t-67 -169q-66 -66 -173 -66q-106 0 -174 66zM127 225q0 -71 43 -115q44 -45 112 -45t111.5 44.5t43.5 115.5q0 69 -44 115q-43 45 -111 45t-111 -45q-44 -44 -44 -115zM426 716l59 -45
l-125 -140l-48 34zM260 723l58 -43l-113 -149l-48 34z" />
    <glyph glyph-name="OE" unicode="&#x152;" horiz-adv-x="1042" 
d="M977 0h-405v28q-71 -38 -167 -38q-157 0 -257 98q-98 100 -98 262q0 156 94 257q94 103 255 103q100 0 173 -40v30h395v-80h-310v-226h280v-80h-280v-234h320v-80zM413 70q91 0 159 46v462q-70 52 -172 52q-114 0 -187 -78q-73 -77 -73 -202t75 -203q77 -77 198 -77z" />
    <glyph glyph-name="oe" unicode="&#x153;" horiz-adv-x="837" 
d="M744 112l25 -63q-64 -59 -168 -59q-98 0 -161 51q-63 -51 -158 -51q-106 0 -174 66q-66 68 -66 169q0 102 66 168q67 67 174 67q94 0 156 -52q62 52 154 52q90 0 148 -58q60 -57 60 -148q0 -29 -5 -54h-345q4 -62 47 -98.5t110 -36.5q87 0 137 47zM282 65q66 0 107 37
q-29 53 -29 123q0 67 29 123q-43 37 -107 37q-68 0 -111 -45q-44 -44 -44 -115t43 -115q44 -45 112 -45zM587 385q-59 0 -97 -33t-45 -87h273q-4 56 -38.5 88t-92.5 32z" />
    <glyph glyph-name="Racute" unicode="&#x154;" horiz-adv-x="643" 
d="M190 280v-280h-85v700q48 0 101 1t87 1q249 0 249 -208q0 -78 -45 -130q-42 -51 -107 -68l233 -296h-104l-215 280h-114zM288 622q-10 0 -98 -2v-260h103q65 0 111 36q48 38 48 97q0 129 -164 129zM403 887l30 -68l-202 -84l-23 48z" />
    <glyph glyph-name="racute" unicode="&#x155;" horiz-adv-x="340" 
d="M152 0h-80v450h80v-53q40 61 113 61q47 0 70 -17l-28 -75q-29 17 -61 17q-61 0 -94 -64v-319zM243 722l62 -48l-120 -143l-48 34z" />
    <glyph glyph-name="Rcommaaccent" unicode="&#x156;" horiz-adv-x="643" 
d="M190 280v-280h-85v700q48 0 101 1t87 1q249 0 249 -208q0 -78 -45 -130q-42 -51 -107 -68l233 -296h-104l-215 280h-114zM288 622q-10 0 -98 -2v-260h103q65 0 111 36q48 38 48 97q0 129 -164 129zM266 -65l75 19q29 -8 29 -49q0 -42 -29 -70.5t-74 -38.5l-23 36
q46 18 46 62q0 30 -24 41z" />
    <glyph glyph-name="rcommaaccent" unicode="&#x157;" horiz-adv-x="340" 
d="M152 0h-80v450h80v-53q40 61 113 61q47 0 70 -17l-28 -75q-29 17 -61 17q-61 0 -94 -64v-319zM109 -65l75 19q29 -8 29 -49q0 -42 -29 -70.5t-74 -38.5l-23 36q46 18 46 62q0 30 -24 41z" />
    <glyph glyph-name="Rcaron" unicode="&#x158;" horiz-adv-x="643" 
d="M190 280v-280h-85v700q48 0 101 1t87 1q249 0 249 -208q0 -78 -45 -130q-42 -51 -107 -68l233 -296h-104l-215 280h-114zM288 622q-10 0 -98 -2v-260h103q65 0 111 36q48 38 48 97q0 129 -164 129zM294 738h-4l-175 103l33 46l144 -81l143 81l30 -45z" />
    <glyph glyph-name="rcaron" unicode="&#x159;" horiz-adv-x="340" 
d="M195 529h-4l-140 133l39 48l104 -103l104 102l37 -47zM152 0h-80v450h80v-53q40 61 113 61q47 0 70 -17l-28 -75q-29 17 -61 17q-61 0 -94 -64v-319z" />
    <glyph glyph-name="Sacute" unicode="&#x15a;" horiz-adv-x="549" 
d="M409 179q0 35 -19 61t-49 42.5t-66.5 31.5t-73 32.5t-66.5 39.5t-49 58t-19 83q0 77 57 130q58 53 154 53q59 0 111 -20t82 -53l-46 -64q-57 57 -142 57q-58 0 -92 -28t-34 -75q0 -35 19 -61t49 -42t66.5 -30.5t73 -31.5t66.5 -38.5t49 -58.5t19 -85q0 -86 -66 -138
q-64 -52 -162 -52q-69 0 -132 28t-89 77l49 58q29 -38 77 -60.5t96 -22.5q59 0 98 29.5t39 79.5zM411 887l30 -68l-202 -84l-23 48z" />
    <glyph glyph-name="sacute" unicode="&#x15b;" horiz-adv-x="430" 
d="M300 122q0 24 -25 40t-60.5 26.5t-71.5 24.5t-61 44.5t-25 75.5q0 57 42 92t111 35q99 0 155 -53l-38 -61q-50 44 -113 44q-32 0 -52 -16t-20 -40q0 -26 25 -42.5t60.5 -27t71.5 -24t61 -42.5t25 -72q0 -67 -50 -102q-49 -34 -124 -34q-53 0 -101 22q-49 23 -65 48l45 57
q20 -23 58 -40q40 -17 72 -17q35 0 57.5 16.5t22.5 45.5zM264 722l62 -48l-120 -143l-48 34z" />
    <glyph glyph-name="Scircumflex" unicode="&#x15c;" horiz-adv-x="549" 
d="M409 179q0 35 -19 61t-49 42.5t-66.5 31.5t-73 32.5t-66.5 39.5t-49 58t-19 83q0 77 57 130q58 53 154 53q59 0 111 -20t82 -53l-46 -64q-57 57 -142 57q-58 0 -92 -28t-34 -75q0 -35 19 -61t49 -42t66.5 -30.5t73 -31.5t66.5 -38.5t49 -58.5t19 -85q0 -86 -66 -138
q-64 -52 -162 -52q-69 0 -132 28t-89 77l49 58q29 -38 77 -60.5t96 -22.5q59 0 98 29.5t39 79.5zM128 733l-29 45l171 104h4l174 -103l-33 -46l-143 76z" />
    <glyph glyph-name="scircumflex" unicode="&#x15d;" horiz-adv-x="430" 
d="M300 122q0 24 -25 40t-60.5 26.5t-71.5 24.5t-61 44.5t-25 75.5q0 57 42 92t111 35q99 0 155 -53l-38 -61q-50 44 -113 44q-32 0 -52 -16t-20 -40q0 -26 25 -42.5t60.5 -27t71.5 -24t61 -42.5t25 -72q0 -67 -50 -102q-49 -34 -124 -34q-53 0 -101 22q-49 23 -65 48l45 57
q20 -23 58 -40q40 -17 72 -17q35 0 57.5 16.5t22.5 45.5zM215 707h4l139 -133l-38 -48l-104 91l-104 -90l-38 47z" />
    <glyph glyph-name="Scedilla" unicode="&#x15e;" horiz-adv-x="549" 
d="M152 -169l26 42q40 -28 74 -28q25 0 40.5 9.5t15.5 26.5q0 39 -58 39h-6v71q-62 6 -117 33q-55 28 -77 71l49 58q29 -38 77 -60.5t96 -22.5q59 0 98 29.5t39 79.5q0 35 -19 61t-49 42.5t-66.5 31.5t-73 32.5t-66.5 39.5t-49 58t-19 83q0 77 57 130q58 53 154 53
q59 0 111 -20t82 -53l-46 -64q-57 57 -142 57q-58 0 -92 -28t-34 -75q0 -35 19 -61t49 -42t66.5 -30.5t73 -31.5t66.5 -38.5t49 -58.5t19 -85q0 -81 -61 -133t-151 -56v-34q106 -6 106 -80q0 -37 -33 -59.5t-90 -22.5q-64 0 -118 36z" />
    <glyph glyph-name="scedilla" unicode="&#x15f;" horiz-adv-x="430" 
d="M94 -171l24 39q35 -23 71 -23q25 0 40.5 9.5t15.5 26.5q0 39 -58 39h-6v72q-44 6 -82.5 26t-53.5 42l45 57q20 -23 58 -40q40 -17 72 -17q35 0 57.5 16.5t22.5 45.5q0 24 -25 40t-60.5 26.5t-71.5 24.5t-61 44.5t-25 75.5q0 57 42 92t111 35q99 0 155 -53l-38 -61
q-50 44 -113 44q-32 0 -52 -16t-20 -40q0 -26 25 -42.5t60.5 -27t71.5 -24t61 -42.5t25 -72q0 -62 -44.5 -97.5t-116.5 -38.5v-33q101 -6 101 -80q0 -37 -33.5 -59.5t-92.5 -22.5q-55 0 -105 34z" />
    <glyph glyph-name="Scaron" unicode="&#x160;" horiz-adv-x="549" 
d="M409 179q0 35 -19 61t-49 42.5t-66.5 31.5t-73 32.5t-66.5 39.5t-49 58t-19 83q0 77 57 130q58 53 154 53q59 0 111 -20t82 -53l-46 -64q-57 57 -142 57q-58 0 -92 -28t-34 -75q0 -35 19 -61t49 -42t66.5 -30.5t73 -31.5t66.5 -38.5t49 -58.5t19 -85q0 -86 -66 -138
q-64 -52 -162 -52q-69 0 -132 28t-89 77l49 58q29 -38 77 -60.5t96 -22.5q59 0 98 29.5t39 79.5zM282 738h-4l-175 103l33 46l144 -81l143 81l30 -45z" />
    <glyph glyph-name="scaron" unicode="&#x161;" horiz-adv-x="430" 
d="M300 122q0 24 -25 40t-60.5 26.5t-71.5 24.5t-61 44.5t-25 75.5q0 57 42 92t111 35q99 0 155 -53l-38 -61q-50 44 -113 44q-32 0 -52 -16t-20 -40q0 -26 25 -42.5t60.5 -27t71.5 -24t61 -42.5t25 -72q0 -67 -50 -102q-49 -34 -124 -34q-53 0 -101 22q-49 23 -65 48l45 57
q20 -23 58 -40q40 -17 72 -17q35 0 57.5 16.5t22.5 45.5zM216 529h-4l-140 133l39 48l104 -103l104 102l37 -47z" />
    <glyph glyph-name="Tcedilla" unicode="&#x162;" horiz-adv-x="595" 
d="M184 -169l26 42q40 -28 74 -28q25 0 40.5 9.5t15.5 26.5q0 39 -58 39h-6v80h-21v620h-245v80h575v-80h-245v-620h-21v-43q106 -6 106 -80q0 -37 -33 -59.5t-90 -22.5q-64 0 -118 36z" />
    <glyph glyph-name="tcedilla" unicode="&#x163;" horiz-adv-x="353" 
d="M67 -171l24 39q35 -23 71 -23q25 0 40.5 9.5t15.5 26.5q0 39 -58 39h-6v79q-92 26 -92 172v404h80v-125h165v-75h-165v-196q0 -112 80 -112q39 0 71 25l25 -62q-47 -38 -115 -38h-6v-35q101 -6 101 -80q0 -37 -33.5 -59.5t-92.5 -22.5q-55 0 -105 34z" />
    <glyph glyph-name="Tcaron" unicode="&#x164;" horiz-adv-x="595" 
d="M298 738h-4l-175 103l33 46l144 -81l143 81l30 -45zM255 620h-245v80h575v-80h-245v-620h-85v620z" />
    <glyph glyph-name="tcaron" unicode="&#x165;" horiz-adv-x="353" 
d="M62 171v404h80v-125h165v-75h-165v-196q0 -112 80 -112q39 0 71 25l25 -62q-47 -38 -115 -38q-73 0 -107 44t-34 135zM246 700h78q8 -18 8 -38q0 -54 -24 -93.5t-62 -59.5l-36 35q47 41 47 109q0 27 -11 47z" />
    <glyph glyph-name="Umacron" unicode="&#x16a;" horiz-adv-x="751" 
d="M571 700h85v-408q0 -151 -77 -226t-194 -75q-132 0 -211 79t-79 229v401h85v-385q0 -115 53.5 -179.5t151.5 -64.5q89 0 137.5 61t48.5 177v391zM532 770h-304v65h304v-65z" />
    <glyph glyph-name="umacron" unicode="&#x16b;" horiz-adv-x="540" 
d="M387 450h80v-450h-80v64q-63 -74 -159 -74q-79 0 -122.5 48.5t-43.5 143.5v268h80v-250q0 -135 116 -135q36 0 71.5 18.5t57.5 48.5v318zM399 580h-264v65h264v-65z" />
    <glyph glyph-name="Ubreve" unicode="&#x16c;" horiz-adv-x="751" 
d="M571 700h85v-408q0 -151 -77 -226t-194 -75q-132 0 -211 79t-79 229v401h85v-385q0 -115 53.5 -179.5t151.5 -64.5q89 0 137.5 61t48.5 177v391zM198 838l36 42q59 -65 143 -65t140 65l31 -42q-26 -40 -72.5 -66.5t-98.5 -26.5q-60 0 -109 29q-47 29 -70 64z" />
    <glyph glyph-name="ubreve" unicode="&#x16d;" horiz-adv-x="540" 
d="M387 450h80v-450h-80v64q-63 -74 -159 -74q-79 0 -122.5 48.5t-43.5 143.5v268h80v-250q0 -135 116 -135q36 0 71.5 18.5t57.5 48.5v318zM119 640l37 41q51 -61 114 -61q66 0 115 60l29 -39q-62 -86 -147 -86q-93 0 -148 85z" />
    <glyph glyph-name="Uring" unicode="&#x16e;" horiz-adv-x="751" 
d="M375 888q58 0 92 -24.5t34 -71.5t-35 -73.5t-91 -26.5q-55 0 -89.5 26.5t-34.5 73.5t33.5 71.5t90.5 24.5zM311 792q0 -26 17.5 -40.5t47.5 -14.5q29 0 47 14.5t18 40.5q0 51 -65 51t-65 -51zM571 700h85v-408q0 -151 -77 -226t-194 -75q-132 0 -211 79t-79 229v401h85
v-385q0 -115 53.5 -179.5t151.5 -64.5q89 0 137.5 61t48.5 177v391z" />
    <glyph glyph-name="uring" unicode="&#x16f;" horiz-adv-x="540" 
d="M266 724q49 0 82.5 -32.5t33.5 -78.5t-33.5 -78t-82.5 -32q-48 0 -81 32t-33 78t33 78.5t81 32.5zM204 614q0 -28 18 -47t45 -19t45 19t18 47q0 27 -18 46t-45 19t-45 -19t-18 -46zM387 450h80v-450h-80v64q-63 -74 -159 -74q-79 0 -122.5 48.5t-43.5 143.5v268h80v-250
q0 -135 116 -135q36 0 71.5 18.5t57.5 48.5v318z" />
    <glyph glyph-name="Uhungarumlaut" unicode="&#x170;" horiz-adv-x="751" 
d="M571 700h85v-408q0 -151 -77 -226t-194 -75q-132 0 -211 79t-79 229v401h85v-385q0 -115 53.5 -179.5t151.5 -64.5q89 0 137.5 61t48.5 177v391zM562 887l55 -51l-179 -101l-33 35zM355 887l67 -36l-161 -116l-34 32z" />
    <glyph glyph-name="uhungarumlaut" unicode="&#x171;" horiz-adv-x="540" 
d="M387 450h80v-450h-80v64q-63 -74 -159 -74q-79 0 -122.5 48.5t-43.5 143.5v268h80v-250q0 -135 116 -135q36 0 71.5 18.5t57.5 48.5v318zM411 716l59 -45l-125 -140l-48 34zM245 723l58 -43l-113 -149l-48 34z" />
    <glyph glyph-name="Uogonek" unicode="&#x172;" horiz-adv-x="751" 
d="M571 700h85v-408q0 -122 -52.5 -196t-143.5 -96q-76 -36 -76 -82q0 -26 18 -39.5t42 -13.5t44 9l24 -49q-29 -25 -86 -25q-54 0 -88 23t-34 69q0 61 80 99q-131 0 -210 79t-79 229v401h85v-385q0 -115 53.5 -179.5t151.5 -64.5q89 0 137.5 61t48.5 177v391z" />
    <glyph glyph-name="uogonek" unicode="&#x173;" horiz-adv-x="540" 
d="M452 -126l24 -49q-29 -25 -86 -25q-54 0 -88 23t-34 69q0 41 32.5 71t86.5 43v58q-63 -74 -159 -74q-79 0 -122.5 48.5t-43.5 143.5v268h80v-250q0 -135 116 -135q36 0 71.5 18.5t57.5 48.5v318h80v-450h-5q-47 -2 -80.5 -26t-33.5 -56q0 -26 18 -39.5t42 -13.5t44 9z
" />
    <glyph glyph-name="Ydieresis" unicode="&#x178;" horiz-adv-x="604" 
d="M501 700h93l-251 -400v-300h-85v300l-248 400h98l196 -320zM132 813q0 20 15.5 32.5t39.5 12.5q22 0 37 -12.5t15 -32.5q0 -21 -15 -34.5t-37 -13.5q-24 0 -39.5 13t-15.5 35zM364 813q0 20 16 32.5t40 12.5q22 0 36.5 -12.5t14.5 -32.5q0 -21 -14.5 -34.5t-36.5 -13.5
q-24 0 -40 13.5t-16 34.5z" />
    <glyph glyph-name="Zacute" unicode="&#x179;" horiz-adv-x="635" 
d="M468 620h-408v80h525v-57l-430 -563h440v-80h-555v57zM448 887l30 -68l-202 -84l-23 48z" />
    <glyph glyph-name="zacute" unicode="&#x17a;" horiz-adv-x="485" 
d="M326 375h-266v75h380v-56l-282 -319h277v-75h-390v56zM297 722l62 -48l-120 -143l-48 34z" />
    <glyph glyph-name="Zdotaccent" unicode="&#x17b;" horiz-adv-x="635" 
d="M468 620h-408v80h525v-57l-430 -563h440v-80h-555v57zM260 817q0 23 16.5 37t40.5 14q22 0 38 -14t16 -37q0 -24 -16 -39t-38 -15q-25 0 -41 15t-16 39z" />
    <glyph glyph-name="zdotaccent" unicode="&#x17c;" horiz-adv-x="485" 
d="M326 375h-266v75h380v-56l-282 -319h277v-75h-390v56zM189 619q0 21 15 34.5t37 13.5q21 0 35 -13.5t14 -34.5q0 -23 -14 -37.5t-35 -14.5q-22 0 -37 14.5t-15 37.5z" />
    <glyph glyph-name="Zcaron" unicode="&#x17d;" horiz-adv-x="635" 
d="M324 738h-4l-175 103l33 46l144 -81l143 81l30 -45zM468 620h-408v80h525v-57l-430 -563h440v-80h-555v57z" />
    <glyph glyph-name="zcaron" unicode="&#x17e;" horiz-adv-x="485" 
d="M249 529h-4l-140 133l39 48l104 -103l104 102l37 -47zM326 375h-266v75h380v-56l-282 -319h277v-75h-390v56z" />
    <glyph glyph-name="longs" unicode="&#x17f;" horiz-adv-x="255" 
d="M162 0h-80v523q0 92 41 139.5t117 47.5q79 0 120 -40l-28 -61q-32 26 -79 26q-91 0 -91 -121v-514z" />
    <glyph glyph-name="uni018F" unicode="&#x18f;" horiz-adv-x="779" 
d="M61 397h589q-14 110 -88 171q-74 62 -190 62q-104 0 -177 -57l-34 64q85 73 230 73q158 0 254 -98q97 -97 97 -260q0 -161 -95 -262q-94 -100 -252 -100q-160 0 -254 112q-94 113 -80 295zM394 70q112 0 179 67q70 68 80 180h-504q4 -105 71 -176q66 -71 174 -71z" />
    <glyph glyph-name="florin" unicode="&#x192;" 
d="M377 514l-12 -64h144v-75h-157l-72 -408q-16 -92 -51.5 -133.5t-105.5 -41.5q-65 0 -100 29l22 64q29 -18 59 -18q41 0 64 26.5t32 81.5l71 400h-139v75h152l13 73q18 99 57.5 143t111.5 44q80 0 121 -40l-28 -61q-32 26 -79 26q-43 0 -67 -28.5t-36 -92.5z" />
    <glyph glyph-name="uni01DD" unicode="&#x1dd;" horiz-adv-x="520" 
d="M98 338l-25 62q66 60 174 60t169.5 -63.5t61.5 -171.5q0 -101 -62 -169q-61 -66 -167 -66q-91 0 -152 57q-60 57 -60 149q0 34 5 59h346q-3 58 -43 94t-104 36q-43 0 -82 -13t-61 -34zM253 65q57 0 96 35t44 90h-273q2 -60 37 -92.5t96 -32.5z" />
    <glyph glyph-name="Scommaaccent" unicode="&#x218;" horiz-adv-x="549" 
d="M409 179q0 35 -19 61t-49 42.5t-66.5 31.5t-73 32.5t-66.5 39.5t-49 58t-19 83q0 77 57 130q58 53 154 53q59 0 111 -20t82 -53l-46 -64q-57 57 -142 57q-58 0 -92 -28t-34 -75q0 -35 19 -61t49 -42t66.5 -30.5t73 -31.5t66.5 -38.5t49 -58.5t19 -85q0 -86 -66 -138
q-64 -52 -162 -52q-69 0 -132 28t-89 77l49 58q29 -38 77 -60.5t96 -22.5q59 0 98 29.5t39 79.5zM229 -65l75 19q29 -8 29 -49q0 -42 -29 -70.5t-74 -38.5l-23 36q46 18 46 62q0 30 -24 41z" />
    <glyph glyph-name="scommaaccent" unicode="&#x219;" horiz-adv-x="430" 
d="M300 122q0 24 -25 40t-60.5 26.5t-71.5 24.5t-61 44.5t-25 75.5q0 57 42 92t111 35q99 0 155 -53l-38 -61q-50 44 -113 44q-32 0 -52 -16t-20 -40q0 -26 25 -42.5t60.5 -27t71.5 -24t61 -42.5t25 -72q0 -67 -50 -102q-49 -34 -124 -34q-53 0 -101 22q-49 23 -65 48l45 57
q20 -23 58 -40q40 -17 72 -17q35 0 57.5 16.5t22.5 45.5zM170 -65l75 19q29 -8 29 -49q0 -42 -29 -70.5t-74 -38.5l-23 36q46 18 46 62q0 30 -24 41z" />
    <glyph glyph-name="Tcommaaccent" unicode="&#x21a;" horiz-adv-x="595" 
d="M255 620h-245v80h575v-80h-245v-620h-85v620zM246 -65l75 19q29 -8 29 -49q0 -42 -29 -70.5t-74 -38.5l-23 36q46 18 46 62q0 30 -24 41z" />
    <glyph glyph-name="tcommaaccent" unicode="&#x21b;" horiz-adv-x="353" 
d="M62 171v404h80v-125h165v-75h-165v-196q0 -112 80 -112q39 0 71 25l25 -62q-47 -38 -115 -38q-73 0 -107 44t-34 135zM133 -65l75 19q29 -8 29 -49q0 -42 -29 -70.5t-74 -38.5l-23 36q46 18 46 62q0 30 -24 41z" />
    <glyph glyph-name="uni0237" unicode="&#x237;" horiz-adv-x="266" 
d="M98 450h80v-483q0 -175 -141 -175q-62 0 -100 29l23 64q28 -18 59 -18q79 0 79 106v477z" />
    <glyph glyph-name="uni0259" unicode="&#x259;" horiz-adv-x="520" 
d="M98 338l-25 62q66 60 174 60t169.5 -63.5t61.5 -171.5q0 -101 -62 -169q-61 -66 -167 -66q-91 0 -152 57q-60 57 -60 149q0 34 5 59h346q-3 58 -43 94t-104 36q-43 0 -82 -13t-61 -34zM253 65q57 0 96 35t44 90h-273q2 -60 37 -92.5t96 -32.5z" />
    <glyph glyph-name="afii57929" unicode="&#x2bc;" horiz-adv-x="242" 
d="M86 630l67 40q29 -32 29 -82q0 -101 -85 -149l-37 35q47 33 47 97q0 38 -21 59z" />
    <glyph glyph-name="circumflex" unicode="&#x2c6;" horiz-adv-x="404" 
d="M201 707h4l139 -133l-38 -48l-104 91l-104 -90l-38 47z" />
    <glyph glyph-name="caron" unicode="&#x2c7;" horiz-adv-x="404" 
d="M204 529h-4l-140 133l39 48l104 -103l104 102l37 -47z" />
    <glyph glyph-name="breve" unicode="&#x2d8;" horiz-adv-x="415" 
d="M60 640l37 41q51 -61 114 -61q65 0 115 60l29 -39q-62 -86 -147 -86q-93 0 -148 85z" />
    <glyph glyph-name="dotaccent" unicode="&#x2d9;" horiz-adv-x="221" 
d="M60 619q0 21 15 34.5t37 13.5q21 0 35 -13.5t14 -34.5q0 -23 -14 -37.5t-35 -14.5q-22 0 -37 14.5t-15 37.5z" />
    <glyph glyph-name="ring" unicode="&#x2da;" horiz-adv-x="350" 
d="M174 724q49 0 82.5 -32.5t33.5 -78.5t-33.5 -78t-82.5 -32q-48 0 -81 32t-33 78t33 78.5t81 32.5zM112 614q0 -28 18 -47t45 -19t45 19t18 47q0 27 -18 46t-45 19t-45 -19t-18 -46z" />
    <glyph glyph-name="ogonek" unicode="&#x2db;" horiz-adv-x="328" 
d="M244 -126l24 -49q-29 -25 -86 -25q-54 0 -88 23t-34 69q0 58 61 92q62 33 138 32v-16q-47 0 -83 -24q-36 -25 -36 -58q0 -26 18 -39.5t42 -13.5t44 9z" />
    <glyph glyph-name="tilde" unicode="&#x2dc;" horiz-adv-x="442" 
d="M93 557l-33 37q52 60 110 60q24 0 58 -22t55 -22q28 0 71 35l28 -41q-56 -59 -106 -59q-23 0 -57 22t-57 22q-26 0 -69 -32z" />
    <glyph glyph-name="hungarumlaut" unicode="&#x2dd;" horiz-adv-x="448" 
d="M329 716l59 -45l-125 -140l-48 34zM163 723l58 -43l-113 -149l-48 34z" />
    <glyph glyph-name="gravecomb" unicode="&#x300;" horiz-adv-x="0" 
d="M-220 565l-49 -34l-121 142l63 48z" />
    <glyph glyph-name="acutecomb" unicode="&#x301;" horiz-adv-x="0" 
d="M-215 722l62 -48l-120 -143l-48 34z" />
    <glyph glyph-name="uni0394" unicode="&#x394;" horiz-adv-x="726" 
d="M696 0h-666l303 708h53zM569 80l-212 484l-204 -484h416z" />
    <glyph glyph-name="uni0394" unicode="&#x2206;" horiz-adv-x="726" 
d="M696 0h-666l303 708h53zM569 80l-212 484l-204 -484h416z" />
    <glyph glyph-name="uni03A9" unicode="&#x3a9;" horiz-adv-x="816" 
d="M354 0h-286v80h169q-74 26 -128 105q-53 80 -53 185q0 150 101 245t251 95q151 0 252 -95q100 -94 100 -245q0 -108 -54 -187q-53 -77 -128 -103h169v-80h-286v80q93 24 151 101q58 76 58 175q0 115 -73 194q-74 80 -189 80q-118 0 -190 -80t-72 -195q0 -95 57 -174
q58 -78 151 -101v-80z" />
    <glyph glyph-name="uni03A9" unicode="&#x2126;" horiz-adv-x="816" 
d="M354 0h-286v80h169q-74 26 -128 105q-53 80 -53 185q0 150 101 245t251 95q151 0 252 -95q100 -94 100 -245q0 -108 -54 -187q-53 -77 -128 -103h169v-80h-286v80q93 24 151 101q58 76 58 175q0 115 -73 194q-74 80 -189 80q-118 0 -190 -80t-72 -195q0 -95 57 -174
q58 -78 151 -101v-80z" />
    <glyph glyph-name="pi" unicode="&#x3c0;" horiz-adv-x="635" 
d="M140 375h-94v75h536v-75h-90v-229q0 -43 9 -61t32 -18t54 20l18 -61q-43 -34 -103 -34q-90 0 -90 118v265h-192v-61q0 -127 -22.5 -198.5t-60.5 -96.5t-101 -25l-6 78q50 -2 79 48q28 49 30 179z" />
    <glyph glyph-name="afii10023" unicode="&#x401;" horiz-adv-x="575" 
d="M139 813q0 20 15.5 32.5t39.5 12.5q22 0 37 -12.5t15 -32.5q0 -21 -15 -34.5t-37 -13.5q-24 0 -39.5 13t-15.5 35zM371 813q0 20 16 32.5t40 12.5q22 0 36.5 -12.5t14.5 -32.5q0 -21 -14.5 -34.5t-36.5 -13.5q-24 0 -40 13.5t-16 34.5zM510 0h-405v700h395v-80h-310v-226
h280v-80h-280v-234h320v-80z" />
    <glyph glyph-name="afii10051" unicode="&#x402;" horiz-adv-x="762" 
d="M712 204q0 -106 -45.5 -160t-128.5 -54q-31 0 -62 11.5t-43 25.5l29 65q28 -22 66 -22q99 0 99 132q0 141 -140 141q-33 0 -64 -9q-29 -9 -44 -17l-39 -22v-295h-85v620h-245v80h575v-80h-245v-247q76 50 163 50q209 0 209 -219z" />
    <glyph glyph-name="afii10052" unicode="&#x403;" horiz-adv-x="505" 
d="M190 0h-85v700h390v-80h-305v-620zM453 887l30 -68l-202 -84l-23 48z" />
    <glyph glyph-name="afii10053" unicode="&#x404;" horiz-adv-x="677" 
d="M138 397h345v-80h-347q11 -116 90 -182q80 -65 194 -65q104 0 189 64l33 -71q-91 -73 -229 -73q-163 0 -264 98q-99 98 -99 262q0 159 97 259q98 101 254 101q145 0 230 -73l-39 -64q-74 57 -177 57q-115 0 -189 -63q-75 -64 -88 -170z" />
    <glyph glyph-name="afii10054" unicode="&#x405;" horiz-adv-x="549" 
d="M409 179q0 35 -19 61t-49 42.5t-66.5 31.5t-73 32.5t-66.5 39.5t-49 58t-19 83q0 77 57 130q58 53 154 53q59 0 111 -20t82 -53l-46 -64q-57 57 -142 57q-58 0 -92 -28t-34 -75q0 -35 19 -61t49 -42t66.5 -30.5t73 -31.5t66.5 -38.5t49 -58.5t19 -85q0 -86 -66 -138
q-64 -52 -162 -52q-69 0 -132 28t-89 77l49 58q29 -38 77 -60.5t96 -22.5q59 0 98 29.5t39 79.5z" />
    <glyph glyph-name="afii10055" unicode="&#x406;" horiz-adv-x="335" 
d="M210 0h-85v700h85v-700z" />
    <glyph glyph-name="afii10056" unicode="&#x407;" horiz-adv-x="335" 
d="M43 813q0 20 13.5 32.5t34.5 12.5q19 0 32.5 -12.5t13.5 -32.5q0 -21 -13.5 -34.5t-32.5 -13.5q-21 0 -34.5 13.5t-13.5 34.5zM199 813q0 20 13.5 32.5t34.5 12.5q19 0 32.5 -12.5t13.5 -32.5q0 -21 -13.5 -34.5t-32.5 -13.5q-21 0 -34.5 13.5t-13.5 34.5zM210 0h-85v700
h85v-700z" />
    <glyph glyph-name="afii10057" unicode="&#x408;" horiz-adv-x="374" 
d="M184 700h85v-541q0 -169 -153 -169q-69 0 -106 37l29 65q28 -22 66 -22q79 0 79 103v527z" />
    <glyph glyph-name="afii10058" unicode="&#x409;" horiz-adv-x="1023" 
d="M536 0v620h-254l-12 -132q-12 -130 -31 -222.5t-41 -145.5t-51.5 -82t-57.5 -36t-64 -2l1 85q21 -3 36 3.5t34 30.5q21 25 38 75q40 112 58 366l10 140h419v-260q70 5 93 5q127 0 193 -56.5t66 -159.5q0 -110 -73 -170.5t-205 -60.5q-50 0 -87 1q-36 1 -72 1zM708 365
q-34 0 -87 -6v-278q81 -3 84 -3q178 0 178 149q0 67 -45 102.5t-130 35.5z" />
    <glyph glyph-name="afii10059" unicode="&#x40a;" horiz-adv-x="1052" 
d="M190 0h-85v700h85v-279h375v279h85v-275q70 5 93 5q127 0 193 -54.5t66 -154.5q0 -105 -73.5 -164t-204.5 -59q-40 0 -70 1t-63 1h-26v341h-375v-341zM650 344v-263q81 -3 84 -3q87 0 132.5 36t45.5 106q0 62 -45 96t-130 34q-35 0 -87 -6z" />
    <glyph glyph-name="afii10060" unicode="&#x40b;" horiz-adv-x="762" 
d="M255 620h-245v80h575v-80h-245v-247q71 50 168 50q94 0 149 -56.5t55 -167.5v-199h-85v177q0 166 -142 166q-71 0 -145 -48v-295h-85v620z" />
    <glyph glyph-name="afii10061" unicode="&#x40c;" horiz-adv-x="653" 
d="M514 700h103l-312 -329l328 -371h-109l-317 365zM190 0h-85v700h85v-700zM483 887l30 -68l-202 -84l-23 48z" />
    <glyph glyph-name="afii10062" unicode="&#x40e;" horiz-adv-x="666" 
d="M565 700h86l-242 -540q-37 -84 -77.5 -122t-96.5 -38q-54 0 -85 25l30 72q26 -18 54 -18q51 0 86 71l12 26l-317 524h96l262 -439zM159 860h80q24 -65 107 -65q88 0 103 65h80q-7 -56 -58.5 -90.5t-124.5 -34.5q-77 0 -127.5 34t-59.5 91z" />
    <glyph glyph-name="afii10145" unicode="&#x40f;" horiz-adv-x="750" 
d="M334 0h-229v700h85v-620h370v620h85v-700h-231v-155h-80v155z" />
    <glyph glyph-name="afii10017" unicode="&#x410;" horiz-adv-x="705" 
d="M101 0h-86l301 704h73l301 -704h-91l-90 212h-319zM476 292l-126 299l-126 -299h252z" />
    <glyph glyph-name="afii10018" unicode="&#x411;" horiz-adv-x="612" 
d="M105 0v700h396v-80h-311v-201q53 6 107 6q116 0 180.5 -55t64.5 -151q0 -107 -70.5 -165t-198.5 -58q-21 0 -95 2q-14 0 -31.5 0.5t-27 1t-14.5 0.5zM292 345q-46 0 -102 -6v-259q55 -4 96 -4q84 0 127.5 35.5t43.5 101.5q0 62 -42.5 97t-122.5 35z" />
    <glyph glyph-name="afii10019" unicode="&#x412;" horiz-adv-x="617" 
d="M105 1v698q139 4 192 4q114 0 169.5 -45.5t55.5 -127.5q0 -61 -32 -102t-88 -60v-2q68 -11 106.5 -54t38.5 -112q0 -100 -68 -151.5t-186 -51.5q-115 0 -188 4zM303 319h-113v-238q41 -4 108 -4q79 0 121.5 32.5t42.5 95.5q0 55 -41.5 84.5t-117.5 29.5zM295 623
q-30 0 -105 -3v-226h112q59 0 97 31.5t38 85.5q0 112 -142 112z" />
    <glyph glyph-name="afii10020" unicode="&#x413;" horiz-adv-x="505" 
d="M190 0h-85v700h390v-80h-305v-620z" />
    <glyph glyph-name="afii10021" unicode="&#x414;" horiz-adv-x="749" 
d="M95 -130h-80v210h75q33 42 68 163q36 121 47 317l7 140h412v-620h95v-210h-80v130h-544v-130zM294 620l-9 -125q-10 -155 -43 -272q-31 -110 -58 -143h355v540h-245z" />
    <glyph glyph-name="afii10022" unicode="&#x415;" horiz-adv-x="575" 
d="M510 0h-405v700h395v-80h-310v-226h280v-80h-280v-234h320v-80z" />
    <glyph glyph-name="afii10024" unicode="&#x416;" horiz-adv-x="934" 
d="M804 700h99l-283 -334l294 -366h-99l-288 365zM509 0h-85v700h85v-700zM20 0l294 365l-283 335h99l277 -335l-288 -365h-99z" />
    <glyph glyph-name="afii10025" unicode="&#x417;" horiz-adv-x="578" 
d="M269 -10q-73 0 -135.5 31t-93.5 79l47 57q33 -39 82.5 -63t94.5 -24q72 0 115.5 36t43.5 98q0 52 -36 83t-101 31h-81v80h75q46 0 81 33q35 35 35 85q0 54 -35 84t-92 30q-93 0 -159 -78l-50 56q36 48 94 75t124 27q93 0 148 -49.5t55 -136.5q0 -49 -26.5 -92.5
t-74.5 -67.5v-3q61 -12 94.5 -56.5t33.5 -108.5q0 -95 -70 -150q-70 -56 -169 -56z" />
    <glyph glyph-name="afii10026" unicode="&#x418;" horiz-adv-x="795" 
d="M605 560l-425 -560h-75v700h85v-560l425 560h75v-700h-85v560z" />
    <glyph glyph-name="afii10027" unicode="&#x419;" horiz-adv-x="795" 
d="M605 560l-425 -560h-75v700h85v-560l425 560h75v-700h-85v560zM217 860h80q24 -65 107 -65q88 0 103 65h80q-7 -56 -58.5 -90.5t-124.5 -34.5q-77 0 -127.5 34t-59.5 91z" />
    <glyph glyph-name="afii10028" unicode="&#x41a;" horiz-adv-x="653" 
d="M514 700h103l-312 -329l328 -371h-109l-317 365zM190 0h-85v700h85v-700z" />
    <glyph glyph-name="afii10029" unicode="&#x41b;" horiz-adv-x="726" 
d="M621 0h-85v620h-254l-12 -132q-12 -130 -31 -222.5t-41 -145.5t-51.5 -82t-57.5 -36t-64 -2l1 85q21 -3 36 3.5t34 30.5q21 25 38 75q40 112 58 366l10 140h419v-700z" />
    <glyph glyph-name="afii10030" unicode="&#x41c;" horiz-adv-x="892" 
d="M190 0h-85v700h86l263 -359l252 359h81v-700h-85v566l-248 -348h-13l-251 345v-563z" />
    <glyph glyph-name="afii10031" unicode="&#x41d;" horiz-adv-x="765" 
d="M660 0h-85v317h-385v-317h-85v700h85v-303h385v303h85v-700z" />
    <glyph glyph-name="afii10032" unicode="&#x41e;" horiz-adv-x="814" 
d="M50 350q0 152 101 256t256 104q154 0 255 -101q102 -101 102 -259q0 -154 -102 -258q-102 -102 -255 -102t-256 101q-101 101 -101 259zM140 350q0 -118 77 -200q77 -80 190 -80q118 0 192 80q75 80 75 200t-77 200t-190 80q-115 0 -191 -79t-76 -201z" />
    <glyph glyph-name="afii10033" unicode="&#x41f;" horiz-adv-x="760" 
d="M655 0h-85v620h-380v-620h-85v700h550v-700z" />
    <glyph glyph-name="afii10034" unicode="&#x420;" horiz-adv-x="597" 
d="M190 269v-269h-85v700q42 0 89 1t94 1q138 0 198 -62q61 -61 61 -155q0 -91 -66 -156q-64 -64 -186 -64q-64 0 -105 4zM296 622q-18 0 -106 -2v-270q63 -5 102 -5q77 0 121 37.5t44 103.5q0 65 -40.5 100.5t-120.5 35.5z" />
    <glyph glyph-name="afii10035" unicode="&#x421;" horiz-adv-x="656" 
d="M592 132l34 -64q-35 -36 -95 -57t-126 -21q-157 0 -257 98q-98 100 -98 262q0 156 94 257q94 103 255 103q133 0 213 -68l-39 -64q-70 52 -173 52q-114 0 -187 -78q-73 -77 -73 -202t75 -203q77 -77 198 -77q102 0 179 62z" />
    <glyph glyph-name="afii10036" unicode="&#x422;" horiz-adv-x="595" 
d="M255 620h-245v80h575v-80h-245v-620h-85v620z" />
    <glyph glyph-name="afii10037" unicode="&#x423;" horiz-adv-x="666" 
d="M565 700h86l-242 -540q-37 -84 -77.5 -122t-96.5 -38q-54 0 -85 25l30 72q26 -18 54 -18q51 0 86 71l12 26l-317 524h96l262 -439z" />
    <glyph glyph-name="afii10038" unicode="&#x424;" horiz-adv-x="834" 
d="M458 -8h-85v92h-1q-151 0 -242 73q-90 73 -90 203t90 202q89 72 243 74v72h85v-72q155 -2 245 -74q91 -73 91 -202t-92 -203q-91 -73 -241 -73h-3v-92zM459 557h-1v-395h2q116 0 180 51t64 147q0 93 -64.5 145t-180.5 52zM130 360q0 -95 64.5 -146.5t177.5 -51.5h1v395
q-114 0 -178.5 -52.5t-64.5 -144.5z" />
    <glyph glyph-name="afii10039" unicode="&#x425;" horiz-adv-x="664" 
d="M534 700h101l-248 -344l257 -356h-101l-212 291l-211 -291h-100l257 356l-246 344h100l203 -280z" />
    <glyph glyph-name="afii10040" unicode="&#x426;" horiz-adv-x="775" 
d="M665 0h-560v700h85v-620h375v620h85v-620h95v-210h-80v130z" />
    <glyph glyph-name="afii10041" unicode="&#x427;" horiz-adv-x="650" 
d="M460 700h85v-700h-85v306q-75 -54 -185 -54q-93 0 -151 54q-59 54 -59 169v225h85v-202q0 -166 147 -166q84 0 163 53v315z" />
    <glyph glyph-name="afii10042" unicode="&#x428;" horiz-adv-x="995" 
d="M890 0h-785v700h85v-620h265v620h85v-620h265v620h85v-700z" />
    <glyph glyph-name="afii10043" unicode="&#x429;" horiz-adv-x="1015" 
d="M905 0h-800v700h85v-620h265v620h85v-620h265v620h85v-620h95v-210h-80v130z" />
    <glyph glyph-name="afii10044" unicode="&#x42a;" horiz-adv-x="669" 
d="M172 620h-167v80h252v-260q70 5 98 5q130 0 197 -56.5t67 -159.5q0 -110 -74.5 -170.5t-208.5 -60.5q-51 0 -89 1t-75 1v620zM349 365q-40 0 -92 -6v-278q81 -3 89 -3q89 0 136 37.5t47 111.5q0 67 -47 102.5t-133 35.5z" />
    <glyph glyph-name="afii10045" unicode="&#x42b;" horiz-adv-x="845" 
d="M740 0h-85v700h85v-700zM277 365q-35 0 -87 -6v-278q81 -3 84 -3q178 0 178 149q0 67 -45 102.5t-130 35.5zM105 700h85v-260q70 5 93 5q127 0 193 -56.5t66 -159.5q0 -110 -73 -170.5t-205 -60.5q-50 0 -87 1q-36 1 -72 1v700z" />
    <glyph glyph-name="afii10046" unicode="&#x42c;" horiz-adv-x="602" 
d="M282 365q-39 0 -92 -6v-278q81 -3 89 -3q89 0 136 37.5t47 111.5q0 67 -47 102.5t-133 35.5zM105 700h85v-260q70 5 98 5q130 0 197 -56.5t67 -159.5q0 -110 -74.5 -170.5t-208.5 -60.5q-51 0 -89 1t-75 1v700z" />
    <glyph glyph-name="afii10047" unicode="&#x42d;" horiz-adv-x="677" 
d="M540 317h-347v80h346q-13 108 -89 170.5t-194 62.5q-104 0 -177 -57l-33 64q82 73 230 73q156 0 254 -98q97 -97 97 -260q0 -161 -98 -262q-97 -100 -261 -100q-142 0 -233 73l37 71q85 -64 194 -64q112 0 187 66q77 68 87 181z" />
    <glyph glyph-name="afii10048" unicode="&#x42e;" horiz-adv-x="1078" 
d="M190 0h-85v700h85v-303h151q15 137 108 225q94 88 232 88q152 0 250 -101q97 -100 97 -259q0 -155 -98 -258q-98 -102 -249 -102q-138 0 -235 91q-96 91 -106 236h-150v-317zM429 350q0 -119 72 -200q74 -80 182 -80q119 0 186 79q69 79 69 201t-71 201q-70 79 -184 79
q-110 0 -182 -79t-72 -201z" />
    <glyph glyph-name="afii10049" unicode="&#x42f;" horiz-adv-x="623" 
d="M518 0h-85v260h-131l-181 -260h-96l194 275q-62 25 -100 76.5t-38 119.5q0 101 69 166q69 66 204 66q4 0 84 -2q40 -1 80 -1v-700zM292 340h141v280q-69 3 -95 3q-78 0 -122.5 -40.5t-44.5 -106.5q0 -54 36 -91q36 -38 85 -45z" />
    <glyph glyph-name="afii10065" unicode="&#x430;" horiz-adv-x="460" 
d="M96 355l-21 64q67 41 150 41q91 0 132 -45t41 -139v-276h-76v58q-53 -65 -144 -65q-62 0 -100 37.5t-38 101.5q0 66 47 104.5t123 38.5q71 0 112 -29q0 76 -21 109t-81 33q-61 0 -124 -33zM206 65q67 0 116 58v57q-42 30 -101 30q-41 0 -68.5 -19.5t-27.5 -54.5
q0 -33 21.5 -52t59.5 -19z" />
    <glyph glyph-name="afii10066" unicode="&#x431;" horiz-adv-x="552" 
d="M420 710l43 -63q-24 -33 -58 -45q-37 -13 -84 -20q-46 -7 -87 -25q-102 -47 -114 -217h2q22 47 71.5 76t106.5 29q96 0 152.5 -61t56.5 -163q0 -96 -65 -164q-64 -67 -166 -67q-110 0 -174 75q-64 74 -64 205q0 292 167 363q38 17 88 25q39 7 56 11t36.5 14t32.5 27z
M125 255q0 -86 42 -138t109 -52q65 0 106 44q42 43 42 108q0 69 -38.5 111t-105.5 42q-61 0 -102 -34q-43 -35 -53 -81z" />
    <glyph glyph-name="afii10067" unicode="&#x432;" horiz-adv-x="494" 
d="M72 0v450q5 0 14 0.5t26 1t31 0.5q74 2 92 2q194 0 194 -116q0 -40 -25 -68.5t-65 -34.5v-2q105 -19 105 -106q0 -131 -207 -131q-10 0 -88 2q-15 0 -33 0.5t-28 1t-16 0.5zM248 202h-96v-138q72 -3 92 -3q115 0 115 72q0 69 -111 69zM241 389q-29 0 -89 -3v-134h101
q41 0 66 19t25 51q0 67 -103 67z" />
    <glyph glyph-name="afii10068" unicode="&#x433;" horiz-adv-x="362" 
d="M152 0h-80v450h285v-75h-205v-375z" />
    <glyph glyph-name="afii10069" unicode="&#x434;" horiz-adv-x="539" 
d="M85 -110h-75v185h56q25 31 44 100.5t25 155.5l7 119h307v-375h75v-185h-75v110h-364v-110zM217 375l-5 -75q-6 -75 -24 -137t-37 -88h218v300h-152z" />
    <glyph glyph-name="afii10070" unicode="&#x435;" horiz-adv-x="520" 
d="M427 112l25 -63q-65 -59 -169 -59q-110 0 -175 64q-66 64 -66 171q0 101 62 168q61 67 170 67q90 0 149 -58q60 -57 60 -148q0 -29 -5 -54h-346q5 -63 47.5 -99t109.5 -36q88 0 138 47zM270 385q-59 0 -97.5 -33t-45.5 -87h273q-3 56 -37.5 88t-92.5 32z" />
    <glyph glyph-name="afii10072" unicode="&#x436;" horiz-adv-x="679" 
d="M553 450h99l-163 -217l175 -233h-99l-167 233zM378 0h-80v450h80v-450zM15 0l172 233l-163 217h100l154 -217l-165 -233h-98z" />
    <glyph glyph-name="afii10073" unicode="&#x437;" horiz-adv-x="462" 
d="M221 -10q-51 0 -108 17q-55 18 -78 44l41 60q27 -22 64.5 -35.5t68.5 -13.5q52 0 85 20.5t33 53.5q0 28 -23.5 43t-64.5 15h-76v65h71q34 0 56 18.5t22 45.5q0 30 -26 47.5t-70 17.5q-71 0 -135 -50l-31 62q27 28 75.5 44t102.5 16q80 0 124.5 -32t44.5 -89
q0 -78 -79 -106v-2q44 -5 69 -34.5t25 -71.5q0 -62 -52.5 -98.5t-138.5 -36.5z" />
    <glyph glyph-name="afii10074" unicode="&#x438;" horiz-adv-x="565" 
d="M412 335l-260 -335h-80v450h80v-335l260 335h80v-450h-80v335z" />
    <glyph glyph-name="afii10075" unicode="&#x439;" horiz-adv-x="565" 
d="M412 335l-260 -335h-80v450h80v-335l260 335h80v-450h-80v335zM136 680h75q6 -79 77 -79q67 0 73 79h75q0 -61 -41.5 -100.5t-106.5 -39.5q-71 0 -111.5 38.5t-40.5 101.5z" />
    <glyph glyph-name="afii10076" unicode="&#x43a;" horiz-adv-x="498" 
d="M361 450h105l-197 -215l216 -235h-111l-203 230zM152 0h-80v450h80v-450z" />
    <glyph glyph-name="afii10077" unicode="&#x43b;" horiz-adv-x="532" 
d="M460 0h-80v370h-158l-5 -76q-8 -93 -23.5 -154.5t-40 -92t-51.5 -42t-66 -11.5l-6 78q11 -1 23 3.5t26.5 19.5t26 40t21 70.5t12.5 104.5l8 140h313v-450z" />
    <glyph glyph-name="afii10078" unicode="&#x43c;" horiz-adv-x="626" 
d="M152 0h-80v450h73l173 -223l164 223h71v-450h-80v328l-156 -209h-3l-162 209v-328z" />
    <glyph glyph-name="afii10079" unicode="&#x43d;" horiz-adv-x="555" 
d="M482 0h-80v190h-250v-190h-80v450h80v-185h250v185h80v-450z" />
    <glyph glyph-name="afii10080" unicode="&#x43e;" horiz-adv-x="565" 
d="M108 56q-66 68 -66 169q0 102 66 168q67 67 174 67t173 -67q67 -66 67 -168t-67 -169q-66 -66 -173 -66q-106 0 -174 66zM127 225q0 -71 43 -115q44 -45 112 -45t111.5 44.5t43.5 115.5q0 69 -44 115q-43 45 -111 45t-111 -45q-44 -44 -44 -115z" />
    <glyph glyph-name="afii10081" unicode="&#x43f;" horiz-adv-x="550" 
d="M477 0h-80v375h-245v-375h-80v450h405v-450z" />
    <glyph glyph-name="afii10082" unicode="&#x440;" horiz-adv-x="556" 
d="M152 -200h-80v650h80v-53q24 28 66 45.5t87 17.5q96 0 151 -64q57 -63 57 -164q0 -103 -65 -173q-64 -69 -169 -69q-81 0 -127 31v-221zM282 385q-80 0 -130 -62v-223q53 -35 120 -35q71 0 113.5 45.5t42.5 118.5q0 71 -39 113.5t-107 42.5z" />
    <glyph glyph-name="afii10083" unicode="&#x441;" horiz-adv-x="488" 
d="M418 123l38 -58q-58 -75 -173 -75q-108 0 -175 64q-66 64 -66 171q0 99 65 167t163 68q118 0 177 -59l-37 -63q-52 47 -129 47q-63 0 -109 -46q-45 -45 -45 -114q0 -73 46 -116q47 -44 116 -44q78 0 129 58z" />
    <glyph glyph-name="afii10084" unicode="&#x442;" horiz-adv-x="440" 
d="M180 370h-165v80h410v-80h-165v-370h-80v370z" />
    <glyph glyph-name="afii10085" unicode="&#x443;" horiz-adv-x="491" 
d="M390 450h91l-180 -450q-49 -119 -85 -158q-38 -42 -87 -42q-44 0 -85 28l26 61q32 -15 50 -15q28 0 50.5 24t45.5 78l10 24l-216 450h96l132 -286q4 -7 27 -68q9 33 21 69z" />
    <glyph glyph-name="afii10086" unicode="&#x444;" horiz-adv-x="675" 
d="M377 -200h-80v190h-11q-113 0 -179 66q-65 67 -65 169q0 97 66 166t177 69h12v240h80v-240h13q110 0 176 -67t66 -168q0 -105 -64 -170q-63 -65 -178 -65h-13v-190zM127 225q0 -73 43.5 -116.5t118.5 -43.5h8v320h-13q-73 0 -115 -44.5t-42 -115.5zM390 385h-13v-320h9
q76 0 118.5 43.5t42.5 116.5q0 66 -42 113t-115 47z" />
    <glyph glyph-name="afii10087" unicode="&#x445;" horiz-adv-x="507" 
d="M379 450h93l-161 -217l171 -233h-98l-132 182l-134 -182h-93l170 229l-160 221h98l122 -170z" />
    <glyph glyph-name="afii10088" unicode="&#x446;" horiz-adv-x="562" 
d="M472 0h-400v450h80v-375h240v375h80v-375h75v-185h-75v110z" />
    <glyph glyph-name="afii10089" unicode="&#x447;" horiz-adv-x="482" 
d="M330 450h80v-450h-80v175q-52 -33 -125 -33q-160 0 -160 172v136h85v-127q0 -106 97 -106q63 0 103 28v205z" />
    <glyph glyph-name="afii10090" unicode="&#x448;" horiz-adv-x="715" 
d="M642 0h-570v450h80v-375h165v375h80v-375h165v375h80v-450z" />
    <glyph glyph-name="afii10091" unicode="&#x449;" horiz-adv-x="732" 
d="M642 0h-570v450h80v-375h165v375h80v-375h165v375h80v-375h75v-185h-75v110z" />
    <glyph glyph-name="afii10092" unicode="&#x44a;" horiz-adv-x="509" 
d="M134 375h-129v75h209v-135h82q92 0 135 -41.5t43 -113.5q0 -68 -45 -114t-143 -46h-152v375zM281 240h-67v-165h66q109 0 109 82q0 83 -108 83z" />
    <glyph glyph-name="afii10093" unicode="&#x44b;" horiz-adv-x="642" 
d="M217 0h-145v450h80v-135h74q92 0 135 -41.5t43 -113.5q0 -68 -45 -114q-43 -46 -142 -46zM570 0h-80v450h80v-450zM211 240h-59v-165h58q57 0 83 20t26 62q0 83 -108 83z" />
    <glyph glyph-name="afii10094" unicode="&#x44c;" horiz-adv-x="447" 
d="M224 0h-152v450h80v-135h82q92 0 135 -41.5t43 -113.5q0 -68 -45 -114t-143 -46zM219 240h-67v-165h66q109 0 109 82q0 83 -108 83z" />
    <glyph glyph-name="afii10095" unicode="&#x44d;" horiz-adv-x="489" 
d="M364 196h-222v65h221q-9 60 -50.5 92t-105.5 32q-83 0 -138 -49l-34 60q29 29 77 46.5t94 17.5q108 0 173 -64q67 -64 67 -171q0 -99 -65 -167t-163 -68q-122 0 -181 57l38 59q46 -41 138 -41q63 0 103 34.5t48 96.5z" />
    <glyph glyph-name="afii10096" unicode="&#x44e;" horiz-adv-x="760" 
d="M157 0h-85v450h85v-180h98q14 86 75.5 138t151.5 52q106 0 170 -67q65 -67 65 -168t-66 -169q-65 -66 -169 -66q-95 0 -156 55t-72 145h-97v-190zM342 225q0 -69 40 -112t103 -43t102.5 42.5t39.5 112.5q0 69 -39 112t-103 43q-63 0 -103 -43t-40 -112z" />
    <glyph glyph-name="afii10097" unicode="&#x44f;" horiz-adv-x="482" 
d="M269 450h140v-450h-80v150h-87l-110 -150h-97l130 170q-41 9 -69 44.5t-28 85.5q0 69 50 109.5t151 40.5zM153 298q0 -32 25 -52.5t59 -20.5h92v150h-73q-51 0 -77 -21t-26 -56z" />
    <glyph glyph-name="afii10071" unicode="&#x451;" horiz-adv-x="520" 
d="M427 112l25 -63q-65 -59 -169 -59q-110 0 -175 64q-66 64 -66 171q0 101 62 168q61 67 170 67q90 0 149 -58q60 -57 60 -148q0 -29 -5 -54h-346q5 -63 47.5 -99t109.5 -36q88 0 138 47zM270 385q-59 0 -97.5 -33t-45.5 -87h273q-3 56 -37.5 88t-92.5 32zM121 610
q0 21 13 33.5t34 12.5q18 0 31 -13t13 -33q0 -23 -12.5 -36.5t-31.5 -13.5q-21 0 -34 13.5t-13 36.5zM324 610q0 20 14 33t34 13q18 0 31 -13t13 -33q0 -23 -12.5 -36.5t-31.5 -13.5q-21 0 -34.5 13.5t-13.5 36.5z" />
    <glyph glyph-name="afii10099" unicode="&#x452;" horiz-adv-x="596" 
d="M135 460h-130v65h130v175h80v-175h180v-65h-180v-152q60 60 147 60q187 0 187 -197q0 -122 -46 -220q-46 -100 -127 -151h-87q88 62 133.5 155t45.5 196q0 142 -126 142q-36 0 -70.5 -16t-56.5 -41v-236h-80v460z" />
    <glyph glyph-name="afii10100" unicode="&#x453;" horiz-adv-x="362" 
d="M152 0h-80v450h285v-75h-205v-375zM282 722l62 -48l-120 -143l-48 34z" />
    <glyph glyph-name="afii10101" unicode="&#x454;" horiz-adv-x="489" 
d="M124 261h222v-65h-222q9 -62 53.5 -96.5t109.5 -34.5q86 0 132 41l33 -59q-60 -57 -176 -57q-103 0 -169 66q-65 68 -65 169q0 107 66 171q67 64 175 64q46 0 93.5 -17.5t76.5 -46.5l-33 -60q-55 49 -139 49q-63 0 -105 -32.5t-52 -91.5z" />
    <glyph glyph-name="afii10102" unicode="&#x455;" horiz-adv-x="430" 
d="M300 122q0 24 -25 40t-60.5 26.5t-71.5 24.5t-61 44.5t-25 75.5q0 57 42 92t111 35q99 0 155 -53l-38 -61q-50 44 -113 44q-32 0 -52 -16t-20 -40q0 -26 25 -42.5t60.5 -27t71.5 -24t61 -42.5t25 -72q0 -67 -50 -102q-49 -34 -124 -34q-53 0 -101 22q-49 23 -65 48l45 57
q20 -23 58 -40q40 -17 72 -17q35 0 57.5 16.5t22.5 45.5z" />
    <glyph glyph-name="afii10103" unicode="&#x456;" horiz-adv-x="268" 
d="M174 0h-80v450h80v-450zM84 619q0 21 15 34.5t37 13.5q21 0 35 -13.5t14 -34.5q0 -23 -14 -37.5t-35 -14.5q-22 0 -37 14.5t-15 37.5z" />
    <glyph glyph-name="afii10104" unicode="&#x457;" horiz-adv-x="293" 
d="M35 608q0 18 13 30t31 12q16 0 28 -12t12 -30t-12 -31t-28 -13q-19 0 -31.5 12t-12.5 32zM175 608q0 18 12.5 30t30.5 12q16 0 28 -12t12 -30q0 -20 -12 -32t-28 -12q-18 0 -30.5 12t-12.5 32zM186 0h-80v450h80v-450z" />
    <glyph glyph-name="afii10105" unicode="&#x458;" horiz-adv-x="273" 
d="M98 450h80v-483q0 -175 -141 -175q-62 0 -100 29l23 64q28 -18 59 -18q79 0 79 106v477zM87 619q0 21 15 34.5t37 13.5q21 0 35 -13.5t14 -34.5q0 -23 -14 -37.5t-35 -14.5q-22 0 -37 14.5t-15 37.5z" />
    <glyph glyph-name="afii10106" unicode="&#x459;" horiz-adv-x="742" 
d="M519 0h-139v370h-158l-5 -76q-8 -93 -23.5 -154.5t-40 -92t-51.5 -42t-66 -11.5l-6 78q11 -1 23 3.5t26.5 19.5t26 40t21 70.5t12.5 104.5l8 140h313v-135h69q92 0 135 -41.5t43 -113.5q0 -68 -45 -114t-143 -46zM514 240h-54v-165h53q109 0 109 82q0 83 -108 83z" />
    <glyph glyph-name="afii10107" unicode="&#x45a;" horiz-adv-x="764" 
d="M152 0h-80v450h80v-175h250v175h80v-145h69q178 0 178 -150q0 -71 -46.5 -113t-140.5 -42h-140v200h-250v-200zM536 230h-54v-155h53q58 0 83.5 18.5t25.5 58.5q0 41 -25.5 59.5t-82.5 18.5z" />
    <glyph glyph-name="afii10108" unicode="&#x45b;" horiz-adv-x="596" 
d="M135 460h-130v65h130v175h80v-175h180v-65h-180v-152q60 60 147 60q187 0 187 -200v-168h-80v157q0 136 -127 136q-36 0 -70.5 -16t-56.5 -41v-236h-80v460z" />
    <glyph glyph-name="afii10109" unicode="&#x45c;" horiz-adv-x="498" 
d="M361 450h105l-197 -215l216 -235h-111l-203 230zM152 0h-80v450h80v-450zM303 722l62 -48l-120 -143l-48 34z" />
    <glyph glyph-name="afii10110" unicode="&#x45e;" horiz-adv-x="491" 
d="M390 450h91l-180 -450q-49 -119 -85 -158q-38 -42 -87 -42q-44 0 -85 28l26 61q32 -15 50 -15q28 0 50.5 24t45.5 78l10 24l-216 450h96l132 -286q4 -7 27 -68q9 33 21 69zM101 680h75q6 -79 77 -79q67 0 73 79h75q0 -61 -41.5 -100.5t-106.5 -39.5q-71 0 -111.5 38.5
t-40.5 101.5z" />
    <glyph glyph-name="afii10193" unicode="&#x45f;" horiz-adv-x="540" 
d="M232 0h-160v450h80v-375h235v375h80v-450h-160v-125h-75v125z" />
    <glyph glyph-name="afii10146" unicode="&#x462;" horiz-adv-x="639" 
d="M142 700h85v-100h157v-80h-157v-100q70 5 98 5q264 0 264 -206q0 -108 -73 -164.5t-210 -56.5q-51 0 -89 1t-75 1v520h-132v80h132v100zM319 345q-39 0 -92 -6v-258q81 -3 89 -3q183 0 183 139q0 128 -180 128z" />
    <glyph glyph-name="afii10194" unicode="&#x463;" horiz-adv-x="506" 
d="M134 375h-129v75h129v250h80v-250h150v-75h-150v-90h79q178 0 178 -146q0 -139 -187 -139h-150v375zM292 210h-78v-135h78q50 0 72 16.5t22 51.5q0 67 -94 67z" />
    <glyph glyph-name="afii10147" unicode="&#x472;" horiz-adv-x="814" 
d="M50 350q0 152 101 256t256 104q154 0 255 -101q102 -101 102 -259q0 -154 -102 -258q-102 -102 -255 -102t-256 101q-101 101 -101 259zM287 357q-72 0 -142 -62q17 -99 90 -162q74 -63 172 -63q110 0 184 71q73 70 81 182q-71 -47 -137 -47q-54 0 -127 40
q-74 41 -121 41zM541 351q31 0 67 15.5t61 37.5q-16 100 -90 163t-172 63q-108 0 -182 -70q-74 -71 -84 -181q77 53 147 53q53 0 129 -41q74 -40 124 -40z" />
    <glyph glyph-name="afii10195" unicode="&#x473;" horiz-adv-x="575" 
d="M109 56q-67 66 -67 169t67 169t178 66q109 0 177 -66t68 -169t-68 -169t-177 -66q-111 0 -178 66zM203 227q-43 0 -79 -37q10 -62 55 -98.5t108 -36.5q67 0 112 39t52 107q-41 -33 -82 -33q-34 0 -87 29q-53 30 -79 30zM379 223q39 0 71 32q-9 65 -54 102.5t-109 37.5
q-65 0 -111 -40t-53 -108q43 35 84 35q35 0 91 -30q56 -29 81 -29z" />
    <glyph glyph-name="afii10148" unicode="&#x474;" horiz-adv-x="659" 
d="M547 504l-184 -508h-63l-295 704h91l238 -575l148 427q36 104 77 136q40 31 120 10l-13 -75q-44 17 -67 -10q-21 -24 -52 -109z" />
    <glyph glyph-name="afii10196" unicode="&#x475;" horiz-adv-x="485" 
d="M393 288l-116 -292h-58l-214 454h94l114 -243q20 -45 37 -98q13 42 33 100l49 128q31 82 67 107q35 24 106 3l-13 -74q-32 15 -51.5 -3.5t-47.5 -81.5z" />
    <glyph glyph-name="afii10050" unicode="&#x490;" horiz-adv-x="505" 
d="M190 0h-85v700h310v125h80v-205h-305v-620z" />
    <glyph glyph-name="afii10098" unicode="&#x491;" horiz-adv-x="362" 
d="M152 0h-80v450h210v105h75v-180h-205v-375z" />
    <glyph glyph-name="uni1E9E" unicode="&#x1e9e;" horiz-adv-x="644" 
d="M499 173q0 46 -43 96q-20 24 -50 46q-31 25 -56 42q-18 13 -65 44l135 191q-36 38 -102 38q-60 0 -94 -36t-34 -106v-490h-85v488q0 111 57.5 167.5t159.5 56.5q119 0 202 -98l-137 -185q202 -124 202 -266q0 -75 -53 -123q-52 -48 -118 -48q-93 0 -161 62l38 66
q22 -18 31 -25q31 -23 73 -23q41 0 70.5 28.5t29.5 74.5z" />
    <glyph glyph-name="uni2010" unicode="&#x2010;" horiz-adv-x="389" 
d="M314 235h-239v75h239v-75z" />
    <glyph glyph-name="uni2011" unicode="&#x2011;" horiz-adv-x="389" 
d="M314 235h-239v75h239v-75z" />
    <glyph glyph-name="figuredash" unicode="&#x2012;" horiz-adv-x="594" 
d="M504 319h-414v70h414v-70z" />
    <glyph glyph-name="endash" unicode="&#x2013;" horiz-adv-x="594" 
d="M504 235h-414v70h414v-70z" />
    <glyph glyph-name="emdash" unicode="&#x2014;" horiz-adv-x="804" 
d="M714 235h-624v70h624v-70z" />
    <glyph glyph-name="afii00208" unicode="&#x2015;" horiz-adv-x="804" 
d="M714 235h-624v70h624v-70z" />
    <glyph glyph-name="quoteleft" unicode="&#x2018;" horiz-adv-x="239" 
d="M161 552l-67 -41q-29 32 -29 82q0 102 85 150l37 -36q-47 -32 -47 -96q0 -38 21 -59z" />
    <glyph glyph-name="quoteright" unicode="&#x2019;" horiz-adv-x="239" 
d="M78 700l67 40q29 -32 29 -82q0 -101 -85 -149l-37 35q47 33 47 97q0 38 -21 59z" />
    <glyph glyph-name="quotesinglbase" unicode="&#x201a;" horiz-adv-x="239" 
d="M78 35l67 40q29 -32 29 -82q0 -101 -85 -149l-37 35q47 33 47 97q0 38 -21 59z" />
    <glyph glyph-name="quotedblleft" unicode="&#x201c;" horiz-adv-x="384" 
d="M306 552l-67 -41q-29 32 -29 82q0 102 85 150l37 -36q-47 -32 -47 -96q0 -38 21 -59zM161 552l-67 -41q-29 32 -29 82q0 102 85 150l37 -36q-47 -32 -47 -96q0 -38 21 -59z" />
    <glyph glyph-name="quotedblright" unicode="&#x201d;" horiz-adv-x="384" 
d="M223 700l67 40q29 -32 29 -82q0 -101 -85 -149l-37 35q47 33 47 97q0 38 -21 59zM78 700l67 40q29 -32 29 -82q0 -101 -85 -149l-37 35q47 33 47 97q0 38 -21 59z" />
    <glyph glyph-name="quotedblbase" unicode="&#x201e;" horiz-adv-x="384" 
d="M223 35l67 40q29 -32 29 -82q0 -101 -85 -149l-37 35q47 33 47 97q0 38 -21 59zM78 35l67 40q29 -32 29 -82q0 -101 -85 -149l-37 35q47 33 47 97q0 38 -21 59z" />
    <glyph glyph-name="dagger" unicode="&#x2020;" horiz-adv-x="459" 
d="M192 410h-152v70h152v220h75v-220h152v-70h-152v-510h-75v510z" />
    <glyph glyph-name="daggerdbl" unicode="&#x2021;" horiz-adv-x="459" 
d="M192 410h-152v70h152v220h75v-220h152v-70h-152v-190h152v-70h-152v-250h-75v250h-152v70h152v190z" />
    <glyph glyph-name="bullet" unicode="&#x2022;" horiz-adv-x="230" 
d="M114 348q35 0 60.5 -25t25.5 -60t-25.5 -60t-60.5 -25q-34 0 -59 25t-25 60t25 60t59 25z" />
    <glyph glyph-name="ellipsis" unicode="&#x2026;" horiz-adv-x="850" 
d="M670 54q0 21 16.5 37t40.5 16q21 0 37 -16t16 -37q0 -24 -15 -40.5t-38 -16.5q-24 0 -40.5 16.5t-16.5 40.5zM370 54q0 21 16.5 37t40.5 16q21 0 37 -16t16 -37q0 -24 -15 -40.5t-38 -16.5q-24 0 -40.5 16.5t-16.5 40.5zM70 54q0 21 16.5 37t40.5 16q21 0 37 -16t16 -37
q0 -24 -15 -40.5t-38 -16.5q-24 0 -40.5 16.5t-16.5 40.5z" />
    <glyph glyph-name="perthousand" unicode="&#x2030;" horiz-adv-x="1300" 
d="M941 41q-52 48 -52 123t51 122q53 47 132 47t131 -47q52 -46 52 -122q0 -75 -52 -123q-53 -47 -131 -47t-131 47zM964 164q0 -46 31.5 -75.5t76.5 -29.5q46 0 77 29.5t31 75.5q0 45 -31 74.5t-77 29.5t-77 -29.5t-31 -74.5zM206 -10l-47 33l514 687l46 -34zM97 414
q-52 48 -52 123t51 122q53 47 132 47t131 -47q52 -46 52 -122q0 -75 -52 -123q-53 -47 -131 -47t-131 47zM120 537q0 -46 31.5 -75.5t76.5 -29.5q46 0 77 29.5t31 75.5q0 45 -31 74.5t-77 29.5t-77 -29.5t-31 -74.5zM518 41q-52 48 -52 123t51 122q53 47 132 47t131 -47
q52 -46 52 -122q0 -75 -52 -123q-53 -47 -131 -47t-131 47zM541 164q0 -46 31.5 -75.5t76.5 -29.5q46 0 77 29.5t31 75.5q0 45 -31 74.5t-77 29.5t-77 -29.5t-31 -74.5z" />
    <glyph glyph-name="guilsinglleft" unicode="&#x2039;" horiz-adv-x="340" 
d="M284 77l-54 -47l-185 218v4l188 216l52 -46l-148 -172z" />
    <glyph glyph-name="guilsinglright" unicode="&#x203a;" horiz-adv-x="340" 
d="M295 252v-4l-185 -218l-54 47l147 173l-148 172l52 46z" />
    <glyph glyph-name="fraction" unicode="&#x2044;" horiz-adv-x="200" 
d="M-133 -10l-47 33l514 687l46 -34z" />
    <glyph glyph-name="uni2070" unicode="&#x2070;" horiz-adv-x="384" 
d="M40 525q0 80 40.5 129.5t111.5 49.5q72 0 112 -51q40 -50 40 -128q0 -80 -40 -129.5t-111 -49.5q-72 0 -112.5 49t-40.5 130zM115 525q0 -119 78 -119q76 0 76 119t-77 119t-77 -119z" />
    <glyph glyph-name="uni2074" unicode="&#x2074;" horiz-adv-x="353" 
d="M274 350h-65v79h-194v46l168 225h67l-163 -216h122v91h65v-91h59v-55h-59v-79z" />
    <glyph glyph-name="uni2075" unicode="&#x2075;" horiz-adv-x="337" 
d="M65 512l22 188h208v-55h-159l-13 -82q21 7 49 7q58 0 93 -28.5t35 -77.5q0 -55 -39 -87.5t-102 -32.5q-100 0 -137 58l37 38q30 -41 88 -41q36 0 57.5 17t21.5 45q0 27 -25 43t-67 16q-45 0 -69 -8z" />
    <glyph glyph-name="uni2076" unicode="&#x2076;" horiz-adv-x="380" 
d="M37 480q0 91 70 155t169 70l14 -48q-67 -8 -114.5 -44t-62.5 -91q36 45 104 45q58 0 93 -29.5t35 -77.5q0 -50 -42 -83t-103 -33q-77 0 -120 37.5t-43 98.5zM112 471q1 -31 24.5 -51.5t63.5 -20.5q30 0 50 17.5t20 41.5q0 27 -19.5 43t-54.5 16q-55 0 -84 -46z" />
    <glyph glyph-name="uni2077" unicode="&#x2077;" horiz-adv-x="313" 
d="M214 640h-197v60h278v-42l-157 -308h-76z" />
    <glyph glyph-name="uni2078" unicode="&#x2078;" horiz-adv-x="393" 
d="M190 555h14q25 0 43 13.5t18 33.5q0 22 -19.5 35t-49.5 13t-49 -13.5t-19 -34.5q0 -20 18.5 -33.5t43.5 -13.5zM203 505h-11q-32 0 -54.5 -15t-22.5 -37q0 -24 22 -39t59 -15q36 0 59 15t23 39t-21 38t-54 14zM45 441q0 33 20 56t55 32v2q-28 9 -45 31t-17 52
q0 41 38.5 66t99.5 25t100 -25t39 -66q0 -60 -66 -83v-1q36 -6 57.5 -28.5t21.5 -55.5q0 -47 -41.5 -74.5t-109.5 -27.5q-67 0 -109.5 26.5t-42.5 70.5z" />
    <glyph glyph-name="uni2079" unicode="&#x2079;" horiz-adv-x="380" 
d="M343 561q0 -95 -68 -154q-67 -58 -176 -63l-10 50q75 7 125 44q50 38 53 89q-35 -50 -104 -50q-57 0 -92.5 31t-35.5 79q0 52 41 85q42 33 104 33q78 0 120.5 -38.5t42.5 -105.5zM268 574q-2 34 -25 55t-63 21q-30 0 -50 -17t-20 -41q0 -28 20 -46.5t54 -18.5q58 0 84 47
z" />
    <glyph glyph-name="uni207A" unicode="&#x207a;" horiz-adv-x="360" 
d="M151 502h-106v55h106v105h55v-105h109v-55h-109v-105h-55v105z" />
    <glyph glyph-name="uni207B" unicode="&#x207b;" horiz-adv-x="360" 
d="M315 502h-270v55h270v-55z" />
    <glyph glyph-name="uni207C" unicode="&#x207c;" horiz-adv-x="360" 
d="M315 432h-270v55h270v-55zM315 572h-270v55h270v-55z" />
    <glyph glyph-name="uni207D" unicode="&#x207d;" horiz-adv-x="212" 
d="M202 348l-41 -41q-65 35 -98 92.5t-33 123.5q0 131 132 215l37 -40q-99 -68 -99 -175q0 -111 102 -175z" />
    <glyph glyph-name="uni207E" unicode="&#x207e;" horiz-adv-x="212" 
d="M10 697l41 41q65 -35 98 -92.5t33 -123.5q0 -132 -132 -215l-37 40q99 66 99 175t-102 175z" />
    <glyph glyph-name="uni2080" unicode="&#x2080;" horiz-adv-x="384" 
d="M40 175q0 80 40.5 129.5t111.5 49.5q72 0 112 -51q40 -50 40 -128q0 -80 -40 -129.5t-111 -49.5q-72 0 -112.5 49t-40.5 130zM115 175q0 -119 78 -119q76 0 76 119t-77 119t-77 -119z" />
    <glyph glyph-name="uni2081" unicode="&#x2081;" horiz-adv-x="252" 
d="M49 232l-27 48l105 71h50v-351h-70v269z" />
    <glyph glyph-name="uni2082" unicode="&#x2082;" horiz-adv-x="349" 
d="M319 0h-284v51l25 16l29 19q12 10 27 20q22 16 29 21q1 1 21.5 19t27.5 25q33 40 33 68q0 25 -16 40t-45 15q-25 0 -45 -16.5t-24 -41.5l-59 21q7 44 44 70.5t91 26.5q61 0 94.5 -29.5t33.5 -77.5q0 -66 -72 -121q-52 -42 -102 -66h192v-60z" />
    <glyph glyph-name="uni2083" unicode="&#x2083;" horiz-adv-x="350" 
d="M169 -6q-107 0 -144 70l41 38q12 -23 38 -36.5t54 -13.5q35 0 56 14.5t21 38.5q0 21 -19 34t-52 13h-34v50h30q26 0 44 14.5t18 36.5q0 21 -17 33t-46 12q-57 0 -89 -45l-34 38q36 64 137 64q57 0 90.5 -23.5t33.5 -64.5q0 -65 -74 -84v-1q40 -3 63.5 -26.5t23.5 -56.5
q0 -47 -40 -76t-101 -29z" />
    <glyph glyph-name="uni2084" unicode="&#x2084;" horiz-adv-x="353" 
d="M274 0h-65v79h-194v46l168 225h67l-163 -216h122v91h65v-91h59v-55h-59v-79z" />
    <glyph glyph-name="uni2085" unicode="&#x2085;" horiz-adv-x="337" 
d="M65 162l22 188h208v-55h-159l-13 -82q21 7 49 7q58 0 93 -28.5t35 -77.5q0 -55 -39 -87.5t-102 -32.5q-100 0 -137 58l37 38q30 -41 88 -41q36 0 57.5 17t21.5 45q0 27 -25 43t-67 16q-45 0 -69 -8z" />
    <glyph glyph-name="uni2086" unicode="&#x2086;" horiz-adv-x="380" 
d="M37 130q0 91 70 155t169 70l14 -48q-67 -8 -114.5 -44t-62.5 -91q36 45 104 45q58 0 93 -29.5t35 -77.5q0 -50 -42 -83t-103 -33q-77 0 -120 37.5t-43 98.5zM112 121q1 -31 24.5 -51.5t63.5 -20.5q30 0 50 17.5t20 41.5q0 27 -19.5 43t-54.5 16q-55 0 -84 -46z" />
    <glyph glyph-name="uni2087" unicode="&#x2087;" horiz-adv-x="313" 
d="M214 290h-197v60h278v-42l-157 -308h-76z" />
    <glyph glyph-name="uni2088" unicode="&#x2088;" horiz-adv-x="393" 
d="M190 205h14q25 0 43 13.5t18 33.5q0 22 -19.5 35t-49.5 13t-49 -13.5t-19 -34.5q0 -20 18.5 -33.5t43.5 -13.5zM203 155h-11q-32 0 -54.5 -15t-22.5 -37q0 -24 22 -39t59 -15q36 0 59 15t23 39t-21 38t-54 14zM45 91q0 33 20 56t55 32v2q-28 9 -45 31t-17 52
q0 41 38.5 66t99.5 25t100 -25t39 -66q0 -60 -66 -83v-1q36 -6 57.5 -28.5t21.5 -55.5q0 -47 -41.5 -74.5t-109.5 -27.5q-67 0 -109.5 26.5t-42.5 70.5z" />
    <glyph glyph-name="uni2089" unicode="&#x2089;" horiz-adv-x="380" 
d="M343 211q0 -95 -68 -154q-67 -58 -176 -63l-10 50q75 7 125 44q50 38 53 89q-35 -50 -104 -50q-57 0 -92.5 31t-35.5 79q0 52 41 85q42 33 104 33q78 0 120.5 -38.5t42.5 -105.5zM268 224q-2 34 -25 55t-63 21q-30 0 -50 -17t-20 -41q0 -28 20 -46.5t54 -18.5q58 0 84 47
z" />
    <glyph glyph-name="uni208A" unicode="&#x208a;" horiz-adv-x="360" 
d="M151 152h-106v55h106v105h55v-105h109v-55h-109v-105h-55v105z" />
    <glyph glyph-name="uni208B" unicode="&#x208b;" horiz-adv-x="360" 
d="M315 152h-270v55h270v-55z" />
    <glyph glyph-name="uni208C" unicode="&#x208c;" horiz-adv-x="360" 
d="M315 82h-270v55h270v-55zM315 222h-270v55h270v-55z" />
    <glyph glyph-name="uni208D" unicode="&#x208d;" horiz-adv-x="212" 
d="M202 -2l-41 -41q-65 35 -98 92.5t-33 123.5q0 131 132 215l37 -40q-99 -68 -99 -175q0 -111 102 -175z" />
    <glyph glyph-name="uni208E" unicode="&#x208e;" horiz-adv-x="212" 
d="M10 347l41 41q65 -35 98 -92.5t33 -123.5q0 -132 -132 -215l-37 40q99 66 99 175t-102 175z" />
    <glyph glyph-name="Euro" unicode="&#x20ac;" 
d="M104 410h-86l26 65h74q32 107 117 171t207 64q80 0 135 -29l-31 -73q-45 22 -104 22q-79 0 -140 -41t-90 -114h299l-24 -65h-292q-5 -35 -5 -60q0 -24 3 -45h266l-21 -65h-230q29 -79 95 -124.5t153 -45.5q62 0 96 18l14 -77q-40 -21 -117 -21q-126 0 -215 67t-121 183
h-94l25 65h58q-2 38 -2 45q0 36 4 60z" />
    <glyph glyph-name="uni20B4" unicode="&#x20b4;" horiz-adv-x="600" 
d="M326 412h-253v65h305q16 20 16 69q0 37 -23.5 60.5t-69.5 23.5q-80 0 -133 -52l-41 60q61 72 177 72q80 0 129 -42.5t49 -109.5q0 -49 -26 -81h71v-65h-112q-23 -23 -71 -56q-44 -29 -66 -49h249v-65h-308q-29 -32 -29 -75q0 -44 35.5 -70.5t89.5 -26.5q89 0 145 69
l43 -54q-65 -95 -200 -95q-77 0 -136 44q-57 44 -57 120q0 47 30 88h-67v65h114q22 22 70 54q49 33 69 51z" />
    <glyph glyph-name="uni20B6" unicode="&#x20b6;" horiz-adv-x="600" 
d="M125 308h-106v65h106v327q42 0 89 1t94 1q259 0 259 -199q0 -90 -65.5 -142.5t-186.5 -52.5h-105v-105h173v-65h-173v-138h-85v138h-106v65h106v105zM316 622q-18 0 -106 -2v-247h102q165 0 165 124q0 125 -161 125z" />
    <glyph glyph-name="uni20B6" unicode="&#x20cf;" horiz-adv-x="600" 
d="M125 308h-106v65h106v327q42 0 89 1t94 1q259 0 259 -199q0 -90 -65.5 -142.5t-186.5 -52.5h-105v-105h173v-65h-173v-138h-85v138h-106v65h106v105zM316 622q-18 0 -106 -2v-247h102q165 0 165 124q0 125 -161 125z" />
    <glyph glyph-name="uni20B6" unicode="&#x20ce;" horiz-adv-x="600" 
d="M125 308h-106v65h106v327q42 0 89 1t94 1q259 0 259 -199q0 -90 -65.5 -142.5t-186.5 -52.5h-105v-105h173v-65h-173v-138h-85v138h-106v65h106v105zM316 622q-18 0 -106 -2v-247h102q165 0 165 124q0 125 -161 125z" />
    <glyph glyph-name="uni20B6" unicode="&#x20cd;" horiz-adv-x="600" 
d="M125 308h-106v65h106v327q42 0 89 1t94 1q259 0 259 -199q0 -90 -65.5 -142.5t-186.5 -52.5h-105v-105h173v-65h-173v-138h-85v138h-106v65h106v105zM316 622q-18 0 -106 -2v-247h102q165 0 165 124q0 125 -161 125z" />
    <glyph glyph-name="uni20B6" unicode="&#x20cc;" horiz-adv-x="600" 
d="M125 308h-106v65h106v327q42 0 89 1t94 1q259 0 259 -199q0 -90 -65.5 -142.5t-186.5 -52.5h-105v-105h173v-65h-173v-138h-85v138h-106v65h106v105zM316 622q-18 0 -106 -2v-247h102q165 0 165 124q0 125 -161 125z" />
    <glyph glyph-name="uni20B6" unicode="&#x20cb;" horiz-adv-x="600" 
d="M125 308h-106v65h106v327q42 0 89 1t94 1q259 0 259 -199q0 -90 -65.5 -142.5t-186.5 -52.5h-105v-105h173v-65h-173v-138h-85v138h-106v65h106v105zM316 622q-18 0 -106 -2v-247h102q165 0 165 124q0 125 -161 125z" />
    <glyph glyph-name="uni20B6" unicode="&#x20ca;" horiz-adv-x="600" 
d="M125 308h-106v65h106v327q42 0 89 1t94 1q259 0 259 -199q0 -90 -65.5 -142.5t-186.5 -52.5h-105v-105h173v-65h-173v-138h-85v138h-106v65h106v105zM316 622q-18 0 -106 -2v-247h102q165 0 165 124q0 125 -161 125z" />
    <glyph glyph-name="uni20B6" unicode="&#x20c9;" horiz-adv-x="600" 
d="M125 308h-106v65h106v327q42 0 89 1t94 1q259 0 259 -199q0 -90 -65.5 -142.5t-186.5 -52.5h-105v-105h173v-65h-173v-138h-85v138h-106v65h106v105zM316 622q-18 0 -106 -2v-247h102q165 0 165 124q0 125 -161 125z" />
    <glyph glyph-name="uni20B6" unicode="&#x20c8;" horiz-adv-x="600" 
d="M125 308h-106v65h106v327q42 0 89 1t94 1q259 0 259 -199q0 -90 -65.5 -142.5t-186.5 -52.5h-105v-105h173v-65h-173v-138h-85v138h-106v65h106v105zM316 622q-18 0 -106 -2v-247h102q165 0 165 124q0 125 -161 125z" />
    <glyph glyph-name="uni20B6" unicode="&#x20c7;" horiz-adv-x="600" 
d="M125 308h-106v65h106v327q42 0 89 1t94 1q259 0 259 -199q0 -90 -65.5 -142.5t-186.5 -52.5h-105v-105h173v-65h-173v-138h-85v138h-106v65h106v105zM316 622q-18 0 -106 -2v-247h102q165 0 165 124q0 125 -161 125z" />
    <glyph glyph-name="uni20B6" unicode="&#x20c6;" horiz-adv-x="600" 
d="M125 308h-106v65h106v327q42 0 89 1t94 1q259 0 259 -199q0 -90 -65.5 -142.5t-186.5 -52.5h-105v-105h173v-65h-173v-138h-85v138h-106v65h106v105zM316 622q-18 0 -106 -2v-247h102q165 0 165 124q0 125 -161 125z" />
    <glyph glyph-name="uni20B6" unicode="&#x20c5;" horiz-adv-x="600" 
d="M125 308h-106v65h106v327q42 0 89 1t94 1q259 0 259 -199q0 -90 -65.5 -142.5t-186.5 -52.5h-105v-105h173v-65h-173v-138h-85v138h-106v65h106v105zM316 622q-18 0 -106 -2v-247h102q165 0 165 124q0 125 -161 125z" />
    <glyph glyph-name="uni20B6" unicode="&#x20c4;" horiz-adv-x="600" 
d="M125 308h-106v65h106v327q42 0 89 1t94 1q259 0 259 -199q0 -90 -65.5 -142.5t-186.5 -52.5h-105v-105h173v-65h-173v-138h-85v138h-106v65h106v105zM316 622q-18 0 -106 -2v-247h102q165 0 165 124q0 125 -161 125z" />
    <glyph glyph-name="uni20B6" unicode="&#x20c3;" horiz-adv-x="600" 
d="M125 308h-106v65h106v327q42 0 89 1t94 1q259 0 259 -199q0 -90 -65.5 -142.5t-186.5 -52.5h-105v-105h173v-65h-173v-138h-85v138h-106v65h106v105zM316 622q-18 0 -106 -2v-247h102q165 0 165 124q0 125 -161 125z" />
    <glyph glyph-name="uni20B6" unicode="&#x20c2;" horiz-adv-x="600" 
d="M125 308h-106v65h106v327q42 0 89 1t94 1q259 0 259 -199q0 -90 -65.5 -142.5t-186.5 -52.5h-105v-105h173v-65h-173v-138h-85v138h-106v65h106v105zM316 622q-18 0 -106 -2v-247h102q165 0 165 124q0 125 -161 125z" />
    <glyph glyph-name="uni20B6" unicode="&#x20c1;" horiz-adv-x="600" 
d="M125 308h-106v65h106v327q42 0 89 1t94 1q259 0 259 -199q0 -90 -65.5 -142.5t-186.5 -52.5h-105v-105h173v-65h-173v-138h-85v138h-106v65h106v105zM316 622q-18 0 -106 -2v-247h102q165 0 165 124q0 125 -161 125z" />
    <glyph glyph-name="uni20B6" unicode="&#x20c0;" horiz-adv-x="600" 
d="M125 308h-106v65h106v327q42 0 89 1t94 1q259 0 259 -199q0 -90 -65.5 -142.5t-186.5 -52.5h-105v-105h173v-65h-173v-138h-85v138h-106v65h106v105zM316 622q-18 0 -106 -2v-247h102q165 0 165 124q0 125 -161 125z" />
    <glyph glyph-name="uni20B6" unicode="&#x20bf;" horiz-adv-x="600" 
d="M125 308h-106v65h106v327q42 0 89 1t94 1q259 0 259 -199q0 -90 -65.5 -142.5t-186.5 -52.5h-105v-105h173v-65h-173v-138h-85v138h-106v65h106v105zM316 622q-18 0 -106 -2v-247h102q165 0 165 124q0 125 -161 125z" />
    <glyph glyph-name="uni20B6" unicode="&#x20be;" horiz-adv-x="600" 
d="M125 308h-106v65h106v327q42 0 89 1t94 1q259 0 259 -199q0 -90 -65.5 -142.5t-186.5 -52.5h-105v-105h173v-65h-173v-138h-85v138h-106v65h106v105zM316 622q-18 0 -106 -2v-247h102q165 0 165 124q0 125 -161 125z" />
    <glyph glyph-name="uni20B6" unicode="&#x20bd;" horiz-adv-x="600" 
d="M125 308h-106v65h106v327q42 0 89 1t94 1q259 0 259 -199q0 -90 -65.5 -142.5t-186.5 -52.5h-105v-105h173v-65h-173v-138h-85v138h-106v65h106v105zM316 622q-18 0 -106 -2v-247h102q165 0 165 124q0 125 -161 125z" />
    <glyph glyph-name="uni20B6" unicode="&#x20bc;" horiz-adv-x="600" 
d="M125 308h-106v65h106v327q42 0 89 1t94 1q259 0 259 -199q0 -90 -65.5 -142.5t-186.5 -52.5h-105v-105h173v-65h-173v-138h-85v138h-106v65h106v105zM316 622q-18 0 -106 -2v-247h102q165 0 165 124q0 125 -161 125z" />
    <glyph glyph-name="uni20B6" unicode="&#x20bb;" horiz-adv-x="600" 
d="M125 308h-106v65h106v327q42 0 89 1t94 1q259 0 259 -199q0 -90 -65.5 -142.5t-186.5 -52.5h-105v-105h173v-65h-173v-138h-85v138h-106v65h106v105zM316 622q-18 0 -106 -2v-247h102q165 0 165 124q0 125 -161 125z" />
    <glyph glyph-name="uni20B6" unicode="&#x20ba;" horiz-adv-x="600" 
d="M125 308h-106v65h106v327q42 0 89 1t94 1q259 0 259 -199q0 -90 -65.5 -142.5t-186.5 -52.5h-105v-105h173v-65h-173v-138h-85v138h-106v65h106v105zM316 622q-18 0 -106 -2v-247h102q165 0 165 124q0 125 -161 125z" />
    <glyph glyph-name="uni20B6" unicode="&#x20b9;" horiz-adv-x="600" 
d="M125 308h-106v65h106v327q42 0 89 1t94 1q259 0 259 -199q0 -90 -65.5 -142.5t-186.5 -52.5h-105v-105h173v-65h-173v-138h-85v138h-106v65h106v105zM316 622q-18 0 -106 -2v-247h102q165 0 165 124q0 125 -161 125z" />
    <glyph glyph-name="uni20B6" unicode="&#x20b7;" horiz-adv-x="600" 
d="M125 308h-106v65h106v327q42 0 89 1t94 1q259 0 259 -199q0 -90 -65.5 -142.5t-186.5 -52.5h-105v-105h173v-65h-173v-138h-85v138h-106v65h106v105zM316 622q-18 0 -106 -2v-247h102q165 0 165 124q0 125 -161 125z" />
    <glyph glyph-name="afii61352" unicode="&#x2116;" horiz-adv-x="1176" 
d="M670 700v-700h-68l-417 550v-550h-80v700h68l417 -552v552h80zM792 366q-52 48 -52 123t51 122q53 47 132 47t131 -47q52 -46 52 -122q0 -75 -52 -123q-53 -47 -131 -47t-131 47zM815 489q0 -46 31.5 -75.5t76.5 -29.5q46 0 77 29.5t31 75.5q0 45 -31 74.5t-77 29.5
t-77 -29.5t-31 -74.5zM1071 185h-296v75h296v-75z" />
    <glyph glyph-name="trademark" unicode="&#x2122;" horiz-adv-x="847" 
d="M456 385h-76v315h69l133 -140l126 140h66v-315h-75v219l-119 -132h-2l-122 132v-219zM136 627h-121v73h318v-73h-122v-242h-75v242z" />
    <glyph glyph-name="arrowleft" unicode="&#x2190;" horiz-adv-x="643" 
d="M40 273l283 282l56 -56l-186 -186h410v-80h-411l187 -187l-56 -56z" />
    <glyph glyph-name="arrowup" unicode="&#x2191;" horiz-adv-x="645" 
d="M282 409l-186 -186l-56 57l282 283l283 -283l-56 -57l-187 187v-410h-80v409z" />
    <glyph glyph-name="arrowright" unicode="&#x2192;" horiz-adv-x="643" 
d="M449 313l-186 186l57 56l283 -282l-283 -283l-57 56l187 187h-410v80h409z" />
    <glyph glyph-name="arrowdown" unicode="&#x2193;" horiz-adv-x="645" 
d="M322 -20l-282 283l56 56l186 -186v410h80v-411l187 187l56 -56z" />
    <glyph glyph-name="partialdiff" unicode="&#x2202;" horiz-adv-x="588" 
d="M42 202q0 106 70 182t178 76q61 0 106 -26t64 -65q0 117 -65.5 188.5t-194.5 80.5l12 72q158 -6 245.5 -96.5t87.5 -248.5q0 -157 -76 -266q-75 -109 -209 -109q-96 0 -158 60q-60 62 -60 152zM127 209q0 -60 39 -102t103 -42q77 0 126 67q50 68 59 159q-55 94 -160 94
q-70 0 -119 -52q-48 -53 -48 -124z" />
    <glyph glyph-name="product" unicode="&#x220f;" horiz-adv-x="880" 
d="M775 -200h-85v820h-500v-820h-85v900h670v-900z" />
    <glyph glyph-name="summation" unicode="&#x2211;" horiz-adv-x="635" 
d="M40 -143l300 393l-300 393v57h555v-80h-435l278 -370l-283 -370h440v-80h-555v57z" />
    <glyph glyph-name="minus" unicode="&#x2212;" 
d="M523 325h-454v70h454v-70z" />
    <glyph glyph-name="uni2215" unicode="&#x2215;" horiz-adv-x="335" 
d="M33 -208l-63 23l333 895l62 -23z" />
    <glyph glyph-name="radical" unicode="&#x221a;" horiz-adv-x="603" 
d="M111 370h-106v80h161l168 -315l131 565h278v-80h-208l-148 -624h-68z" />
    <glyph glyph-name="infinity" unicode="&#x221e;" horiz-adv-x="746" 
d="M547 183q-94 0 -175 102q-39 -52 -77 -77t-88 -25q-62 0 -109 43q-48 44 -48 115q0 65 44 112q45 48 116 48q46 0 83.5 -25.5t78.5 -78.5q39 53 78.5 78.5t95.5 25.5q68 0 109 -45.5t41 -118.5q0 -61 -41 -108q-40 -46 -108 -46zM532 431q-33 0 -60 -21t-60 -67
q35 -47 64 -68.5t63 -21.5q37 0 59.5 25.5t22.5 60.5q0 40 -24 66t-65 26zM215 253q35 0 61 20t56 64q-36 50 -61.5 72t-54.5 22q-41 0 -66 -25.5t-25 -64.5t26.5 -63.5t63.5 -24.5z" />
    <glyph glyph-name="integral" unicode="&#x222b;" horiz-adv-x="330" 
d="M162 514v-531q0 -90 -27.5 -136.5t-91.5 -52.5q-15 -2 -47 0q-46 4 -75 27l22 64q29 -18 59 -18q44 0 62 29.5t18 91.5v535q0 84 35 131t100 53q24 3 49 0q58 -4 94 -37l-28 -61q-28 22 -64 24q-35 2 -54 -8q-52 -22 -52 -111z" />
    <glyph glyph-name="approxequal" unicode="&#x2248;" 
d="M86 217l-36 51q68 72 136 72q42 0 118 -36q78 -35 114 -35q46 0 91 45l32 -55q-63 -60 -124 -60q-40 0 -116 35q-75 36 -111 36q-48 0 -104 -53zM86 397l-36 51q67 72 136 72q42 0 118 -36q78 -35 114 -35q46 0 91 45l32 -55q-63 -60 -124 -60q-40 0 -116 35
q-75 36 -111 36q-48 0 -104 -53z" />
    <glyph glyph-name="notequal" unicode="&#x2260;" 
d="M278 415h-209v70h235l84 225l62 -23l-75 -202h148v-70h-174l-41 -110h215v-70h-241l-91 -245l-63 23l83 222h-142v70h168z" />
    <glyph glyph-name="lessequal" unicode="&#x2264;" 
d="M497 -11l-440 266v74l440 -263v-77zM497 256v-87l-440 266v34l440 264v-87l-329 -194z" />
    <glyph glyph-name="greaterequal" unicode="&#x2265;" 
d="M95 66l439 263v-74l-439 -266v77zM534 469v-34l-439 -266v87l329 196l-329 194v87z" />
    <glyph glyph-name="lozenge" unicode="&#x25ca;" horiz-adv-x="478" 
d="M270 -4h-63l-167 253l168 267h63l167 -256zM239 437l-118 -187l118 -179l118 189z" />
    <glyph glyph-name="spade" unicode="&#x2660;" horiz-adv-x="632" 
d="M316 510q88 -55 172 -151t84 -160q0 -44 -31 -74t-86 -30q-79 0 -131 72q29 -120 107 -167h-230q74 53 105 164q-51 -69 -129 -69q-55 0 -86 30t-31 75q0 63 84 159t172 151z" />
    <glyph glyph-name="club" unicode="&#x2663;" horiz-adv-x="612" 
d="M177 381q0 53 38 91t91 38t91 -38t38 -91q0 -3 -2 -19q51 -5 84 -41q35 -38 35 -87q0 -53 -38 -91t-91 -38q-66 0 -104 53q31 -114 102 -158h-230q62 43 100 156q-41 -51 -102 -51q-53 0 -91 38t-38 91q0 50 34 87q33 36 84 41q-1 4 -1 19z" />
    <glyph glyph-name="heart" unicode="&#x2665;" horiz-adv-x="649" 
d="M325 0q-95 72 -179 181q-86 113 -86 189q0 56 31.5 93t89.5 37q88 0 144 -104q54 104 143 104q57 0 89 -36.5t32 -92.5q0 -76 -86 -189q-87 -113 -178 -182z" />
    <glyph glyph-name="diamond" unicode="&#x2666;" horiz-adv-x="583" 
d="M523 249q-109 -109 -232 -268q-102 134 -231 268q106 110 231 269q124 -158 232 -269z" />
    <glyph glyph-name="uniF350" unicode="&#xf350;" horiz-adv-x="590" 
d="M98 0h-86l246 528h74l246 -528h-91l-64 140h-261zM387 220l-94 206l-95 -206h189z" />
    <glyph glyph-name="uniF351" unicode="&#xf351;" horiz-adv-x="521" 
d="M84 0v525h347v-80h-262v-125q29 4 92 4q98 0 151 -40.5t53 -116.5q0 -171 -222 -171q-17 0 -91 2q-15 0 -31 0.5t-24.5 1t-12.5 0.5zM252 245q-50 0 -83 -4v-162q75 -3 83 -3q128 0 128 87q0 82 -128 82z" />
    <glyph glyph-name="uniF352" unicode="&#xf352;" horiz-adv-x="524" 
d="M84 1v523q113 4 177 4q95 0 141.5 -34.5t46.5 -95.5q0 -45 -26 -78t-71 -45v-1q116 -17 116 -121q0 -76 -57 -116t-155 -40q-112 0 -172 4zM267 228h-98v-147q28 -4 93 -4q121 0 121 79q0 72 -116 72zM260 448q-34 0 -91 -3v-142h96q43 0 71 20t28 53q0 72 -104 72z" />
    <glyph glyph-name="uniF353" unicode="&#xf353;" horiz-adv-x="427" 
d="M169 0h-85v525h333v-80h-248v-445z" />
    <glyph glyph-name="uniF354" unicode="&#xf354;" horiz-adv-x="621" 
d="M91 -95h-80v175h63q27 30 55 118q29 88 36 222l6 105h349v-445h78v-175h-80v95h-427v-95zM253 445l-8 -83q-8 -103 -31 -179.5t-47 -102.5h268v365h-182z" />
    <glyph glyph-name="uniF355" unicode="&#xf355;" horiz-adv-x="488" 
d="M432 0h-348v525h340v-80h-255v-140h230v-80h-230v-145h263v-80z" />
    <glyph glyph-name="uniF356" unicode="&#xf356;" horiz-adv-x="784" 
d="M656 525h104l-223 -249l231 -276h-103l-223 274zM435 0h-85v525h85v-525zM15 0l232 274l-223 251h104l215 -251l-224 -274h-104z" />
    <glyph glyph-name="uniF357" unicode="&#xf357;" horiz-adv-x="495" 
d="M234 -9q-66 0 -121.5 25t-81.5 62l47 57q61 -64 156 -64q57 0 88.5 22t31.5 61q0 73 -108 73h-78v80h74q36 0 62.5 21.5t26.5 51.5q0 35 -25 53.5t-69 18.5q-89 0 -140 -57l-49 57q65 80 191 80q80 0 128.5 -38.5t48.5 -104.5q0 -39 -20 -70.5t-55 -45.5v-3q46 -8 72 -42
t26 -82q0 -71 -56 -113t-149 -42z" />
    <glyph glyph-name="uniF358" unicode="&#xf358;" horiz-adv-x="656" 
d="M487 390l-328 -390h-75v525h85v-390l328 390h75v-525h-85v390z" />
    <glyph glyph-name="uniF359" unicode="&#xf359;" horiz-adv-x="656" 
d="M487 390l-328 -390h-75v525h85v-390l328 390h75v-525h-85v390zM175 680h75q0 -65 77 -65q73 0 73 65h75q0 -59 -39.5 -92t-108.5 -33q-74 0 -113 32.5t-39 92.5z" />
    <glyph glyph-name="uniF35A" unicode="&#xf35a;" horiz-adv-x="554" 
d="M415 525h111l-246 -245l259 -280h-116l-247 274zM169 0h-85v525h85v-525z" />
    <glyph glyph-name="uniF35B" unicode="&#xf35b;" horiz-adv-x="601" 
d="M517 0h-85v445h-192l-10 -99q-22 -227 -80 -296q-27 -34 -57.5 -45t-73.5 -5l2 82q31 -4 58 24q17 20 30 54q33 90 45 260l8 105h355v-525z" />
    <glyph glyph-name="uniF35C" unicode="&#xf35c;" horiz-adv-x="740" 
d="M169 0h-85v525h86l207 -251l198 251h81v-525h-85v396l-194 -240h-12l-196 237v-393z" />
    <glyph glyph-name="uniF35D" unicode="&#xf35d;" horiz-adv-x="640" 
d="M556 0h-85v228h-302v-228h-85v525h85v-217h302v217h85v-525z" />
    <glyph glyph-name="uniF35E" unicode="&#xf35e;" horiz-adv-x="655" 
d="M40 262q0 116 81 192q81 78 207 78q124 0 205 -75q82 -75 82 -195q0 -119 -82 -195q-80 -76 -205 -76q-124 0 -207 75q-81 75 -81 196zM130 262q0 -80 57 -136q56 -55 141 -55q90 0 143 54q54 54 54 137q0 84 -57 136q-56 54 -140 54q-85 0 -142 -54q-56 -53 -56 -136z
" />
    <glyph glyph-name="uniF35F" unicode="&#xf35f;" horiz-adv-x="639" 
d="M555 0h-85v445h-301v-445h-85v525h471v-525z" />
    <glyph glyph-name="uniF360" unicode="&#xf360;" horiz-adv-x="499" 
d="M169 178v-178h-85v525q35 0 76 1t81 1q112 0 165 -46.5t53 -128.5q0 -79 -55.5 -128t-153.5 -49q-40 0 -81 3zM249 447q-22 0 -80 -2v-186q47 -4 78 -4q57 0 89.5 26t32.5 71q0 95 -120 95z" />
    <glyph glyph-name="uniF361" unicode="&#xf361;" horiz-adv-x="542" 
d="M481 114l33 -64q-28 -27 -78 -43t-105 -16q-131 0 -211 74t-80 197q0 116 76 192q76 78 211 78q109 0 176 -52l-39 -64q-62 36 -137 36q-88 0 -143 -52q-54 -52 -54 -138t57 -139q56 -52 152 -52q83 0 142 43z" />
    <glyph glyph-name="uniF362" unicode="&#xf362;" horiz-adv-x="492" 
d="M203 445h-195v80h476v-80h-196v-445h-85v445z" />
    <glyph glyph-name="uniF363" unicode="&#xf363;" horiz-adv-x="546" 
d="M449 525h87l-197 -401q-31 -64 -67.5 -94t-84.5 -30q-41 0 -69 20l30 72q22 -13 43 -13q35 0 61 48l10 18l-251 380h106l189 -296z" />
    <glyph glyph-name="uniF364" unicode="&#xf364;" horiz-adv-x="690" 
d="M386 -6h-85v60q-124 0 -197 57.5t-73 158.5q0 100 73 157q74 58 197 59v45h85v-45q127 -1 200 -57.5t73 -158.5q0 -100 -75 -159q-74 -57 -197 -57h-1v-60zM569 270q0 61 -49 99t-134 39v-277q86 0 134.5 37.5t48.5 101.5zM121 270q0 -63 48.5 -101t131.5 -38v277
q-83 -1 -131.5 -39.5t-48.5 -98.5z" />
    <glyph glyph-name="uniF365" unicode="&#xf365;" horiz-adv-x="550" 
d="M424 525h105l-199 -258l207 -267h-105l-158 202l-156 -202h-106l207 267l-198 258h106l149 -194z" />
    <glyph glyph-name="uniF366" unicode="&#xf366;" horiz-adv-x="648" 
d="M545 0h-461v525h85v-445h292v445h85v-445h79v-175h-80v95z" />
    <glyph glyph-name="uniF367" unicode="&#xf367;" horiz-adv-x="548" 
d="M379 525h85v-525h-85v219q-55 -37 -146 -37q-75 0 -127 40t-52 127v176h85v-146q0 -117 112 -117q72 0 128 35v228z" />
    <glyph glyph-name="uniF368" unicode="&#xf368;" horiz-adv-x="822" 
d="M738 0h-654v525h85v-445h199v445h85v-445h200v445h85v-525z" />
    <glyph glyph-name="uniF369" unicode="&#xf369;" horiz-adv-x="840" 
d="M737 0h-653v525h85v-445h199v445h85v-445h200v445h85v-445h79v-175h-80v95z" />
    <glyph glyph-name="uniF36A" unicode="&#xf36a;" horiz-adv-x="553" 
d="M137 445h-132v80h217v-183q44 3 74 3q109 0 163.5 -43.5t54.5 -124.5q0 -84 -62 -131.5t-174 -47.5q-45 0 -78 1q-32 1 -63 1v445zM290 265q-29 0 -68 -3v-182q56 -2 71 -2q131 0 131 97q0 90 -134 90z" />
    <glyph glyph-name="uniF36B" unicode="&#xf36b;" horiz-adv-x="706" 
d="M622 0h-85v525h85v-525zM233 265q-25 0 -64 -3v-182q54 -2 62 -2q131 0 131 97q0 90 -129 90zM84 525h85v-183q42 3 71 3q104 0 158 -44t54 -124q0 -83 -61.5 -131t-169.5 -48q-44 0 -75 1t-62 1v525z" />
    <glyph glyph-name="uniF36C" unicode="&#xf36c;" horiz-adv-x="500" 
d="M236 265q-28 0 -67 -3v-182q54 -2 65 -2q137 0 137 97q0 90 -135 90zM84 525h85v-183q42 3 74 3q107 0 162.5 -44t55.5 -124q0 -84 -62.5 -131.5t-174.5 -47.5q-44 0 -77 1q-32 1 -63 1v525z" />
    <glyph glyph-name="uniF36D" unicode="&#xf36d;" horiz-adv-x="557" 
d="M430 228h-273v80h272q-14 70 -67 107.5t-138 37.5q-98 0 -157 -41l-34 64q75 57 195 57q129 0 209 -74q81 -74 81 -196q0 -124 -82 -197q-82 -74 -217 -74q-122 0 -193 55l37 71q65 -46 166 -46q84 0 137.5 41t63.5 115z" />
    <glyph glyph-name="uniF36E" unicode="&#xf36e;" horiz-adv-x="871" 
d="M169 0h-85v525h85v-217h112q13 99 87 162t184 63q126 0 203 -74q76 -73 76 -196q0 -119 -77 -196q-76 -75 -202 -75q-112 0 -186 64q-75 65 -86 172h-111v-228zM368 263q0 -84 52 -137q53 -54 134 -54q86 0 136 54q51 54 51 137q0 85 -52 137q-51 53 -135 53
q-81 0 -134 -53q-52 -52 -52 -137z" />
    <glyph glyph-name="uniF36F" unicode="&#xf36f;" horiz-adv-x="534" 
d="M450 0h-85v180h-112l-134 -180h-101l149 197q-47 21 -75 59.5t-28 88.5q0 82 59 132.5t167 50.5q13 0 89 -2q38 -1 71 -1v-525zM245 260h120v185q-51 3 -83 3q-61 0 -94.5 -27t-33.5 -71q0 -34 26.5 -59t64.5 -31z" />
    <glyph glyph-name="uniF371" unicode="&#xf371;" horiz-adv-x="488" 
d="M119 654q0 19 14 31t34 12q18 0 30.5 -12.5t12.5 -30.5q0 -20 -12.5 -33t-30.5 -13q-21 0 -34.5 12.5t-13.5 33.5zM297 654q0 18 13.5 30.5t32.5 12.5q18 0 31 -12.5t13 -30.5q0 -20 -12.5 -33t-31.5 -13t-32.5 13t-13.5 33zM432 0h-348v525h340v-80h-255v-140h230v-80
h-230v-145h263v-80z" />
    <glyph glyph-name="uniF372" unicode="&#xf372;" horiz-adv-x="630" 
d="M590 158q0 -83 -37.5 -124.5t-107.5 -41.5q-28 0 -55 9.5t-37 21.5l28 65q22 -16 53 -16q71 0 71 82q0 88 -103 88q-26 0 -50 -7q-29 -8 -33 -11q-9 -4 -31 -16v-208h-85v445h-195v80h476v-80h-196v-155q69 32 130 32q81 0 126.5 -41t45.5 -123z" />
    <glyph glyph-name="uniF373" unicode="&#xf373;" horiz-adv-x="427" 
d="M169 0h-85v525h333v-80h-248v-445zM313 766l49 -61l-135 -125l-40 44z" />
    <glyph glyph-name="uniF374" unicode="&#xf374;" horiz-adv-x="558" 
d="M128 306h273v-80h-274q12 -74 69 -114t145 -40q92 0 159 46l32 -71q-71 -55 -190 -55q-138 0 -220 73t-82 198q0 120 81 195t209 75q120 0 194 -57l-38 -64q-59 41 -153 41q-181 0 -205 -147z" />
    <glyph glyph-name="uniF375" unicode="&#xf375;" horiz-adv-x="485" 
d="M355 143q0 30 -31 50t-75.5 33.5t-89 30t-75.5 50t-31 82.5q0 65 51 104t148 39q47 0 102 -20q57 -20 81 -47l-39 -63q-27 21 -69.5 35.5t-78.5 14.5q-49 0 -77 -18t-28 -49q0 -48 106 -79q39 -10 68 -21t61.5 -30t49.5 -49t17 -68q0 -66 -56 -107q-55 -40 -141 -40
q-67 0 -126 22q-59 23 -88 61l49 58q27 -27 74.5 -44t95.5 -17q44 0 73 19.5t29 52.5z" />
    <glyph glyph-name="uniF376" unicode="&#xf376;" horiz-adv-x="281" 
d="M183 0h-85v525h85v-525z" />
    <glyph glyph-name="uniF377" unicode="&#xf377;" horiz-adv-x="297" 
d="M38 653q0 18 12.5 30t30.5 12q16 0 28 -12t12 -30t-12 -31t-28 -13q-18 0 -30.5 12t-12.5 32zM177 653q0 18 13 30t31 12q16 0 28 -12t12 -30t-12 -31t-28 -13q-19 0 -31.5 12t-12.5 32zM191 0h-85v525h85v-525z" />
    <glyph glyph-name="uniF378" unicode="&#xf378;" horiz-adv-x="315" 
d="M146 525h85v-402q0 -131 -132 -131q-62 0 -93 31l29 65q22 -16 52 -16q59 0 59 65v388z" />
    <glyph glyph-name="uniF379" unicode="&#xf379;" horiz-adv-x="839" 
d="M432 0v445h-190l-11 -99q-24 -226 -82 -296q-27 -34 -57 -45t-73 -5l2 85q32 -5 58 23q17 20 30 53q32 86 45 259l8 105h355v-183q42 3 70 3q104 0 158 -44t54 -124q0 -84 -61 -131.5t-170 -47.5q-44 0 -75 1t-61 1zM580 265q-26 0 -63 -3v-182q50 -2 61 -2q131 0 131 97
q0 90 -129 90z" />
    <glyph glyph-name="uniF37A" unicode="&#xf37a;" horiz-adv-x="870" 
d="M169 0h-85v525h85v-200h294v200h85v-196q42 3 70 3q104 0 158.5 -42.5t54.5 -118.5q0 -80 -61.5 -126.5t-169.5 -46.5q-44 0 -76 1q-31 1 -61 1v245h-294v-245zM548 249v-169q54 -2 62 -2q131 0 131 91q0 40 -34 62t-95 22q-33 0 -64 -4z" />
    <glyph glyph-name="uniF37B" unicode="&#xf37b;" horiz-adv-x="630" 
d="M203 445h-195v80h476v-80h-196v-161q52 33 132 33q78 0 124 -42t46 -126v-149h-85v126q0 111 -104 111q-64 0 -113 -31v-206h-85v445z" />
    <glyph glyph-name="uniF37C" unicode="&#xf37c;" horiz-adv-x="554" 
d="M415 525h111l-246 -245l259 -280h-116l-247 274zM169 0h-85v525h85v-525zM343 766l49 -61l-135 -125l-40 44z" />
    <glyph glyph-name="uniF37E" unicode="&#xf37e;" horiz-adv-x="546" 
d="M449 525h87l-197 -401q-31 -64 -67.5 -94t-84.5 -30q-41 0 -69 20l30 72q22 -13 43 -13q35 0 61 48l10 18l-251 380h106l189 -296zM128 680h75q0 -65 77 -65q73 0 73 65h75q0 -59 -39.5 -92t-108.5 -33q-74 0 -113 32.5t-39 92.5z" />
    <glyph glyph-name="uniF37F" unicode="&#xf37f;" horiz-adv-x="631" 
d="M275 0h-191v525h85v-445h293v445h85v-525h-192v-115h-80v115z" />
    <glyph glyph-name="uniF381" unicode="&#xf381;" horiz-adv-x="515" 
d="M99 387h-94v70h94v68h85v-68h130v-70h-130v-65q42 3 74 3q218 0 218 -158q0 -83 -61 -126t-176 -43q-44 0 -77 1q-32 1 -63 1v387zM251 250q-28 0 -67 -3v-172q54 -2 65 -2q137 0 137 92q0 85 -135 85z" />
    <glyph glyph-name="uniF389" unicode="&#xf389;" horiz-adv-x="655" 
d="M40 262q0 116 81 192q81 78 207 78q124 0 205 -75q82 -75 82 -195q0 -119 -82 -195q-80 -76 -205 -76q-124 0 -207 75q-81 75 -81 196zM224 268q-48 0 -92 -39q12 -69 66 -114q56 -44 130 -44q73 0 124.5 38t66.5 101q-40 -28 -83 -28q-45 0 -112 43t-100 43zM443 257
q43 0 80 33q-11 73 -65 117q-54 45 -130 45q-71 0 -123 -38t-69 -101q44 30 89 30q48 0 115 -43t103 -43z" />
    <glyph glyph-name="uniF38A" unicode="&#xf38a;" horiz-adv-x="541" 
d="M455 369l-149 -371h-64l-241 527h96l180 -410l108 290q32 85 69 110q39 27 107 9v-69q-35 10 -59.5 -10.5t-46.5 -75.5z" />
    <glyph glyph-name="uniF393" unicode="&#xf393;" horiz-adv-x="432" 
d="M169 0h-85v525h258v90h80v-170h-253v-445z" />
    <glyph glyph-name="uniF3CF" unicode="&#xf3cf;" horiz-adv-x="976" 
d="M555 525v-525h-68l-323 386v-386h-80v525h68l323 -387v387h80zM763 499q69 0 113 -36.5t44 -95.5t-44 -96t-113 -37t-112.5 37t-43.5 96t43.5 95.5t112.5 36.5zM682 367q0 -30 23.5 -49t57.5 -19q36 0 59 19t23 49t-23 48.5t-59 18.5q-35 0 -58 -18.5t-23 -48.5zM890 116
h-253v75h253v-75z" />
    <glyph glyph-name="uniF3D0" unicode="&#xf3d0;" horiz-adv-x="420" 
d="M60 680h75q0 -65 77 -65q73 0 73 65h75q0 -59 -39.5 -92t-108.5 -33q-74 0 -113 32.5t-39 92.5z" />
    <glyph glyph-name="uniF400" unicode="&#xf400;" horiz-adv-x="0" 
d="M-215 722l62 -48l-120 -143l-48 34z" />
    <glyph glyph-name="uniF401" unicode="&#xf401;" horiz-adv-x="0" 
d="M-299 887l30 -68l-202 -84l-23 48z" />
    <glyph glyph-name="uniF406" unicode="&#xf406;" horiz-adv-x="470" 
d="M60 838l36 42q57 -65 143 -65q84 0 140 65l31 -42q-26 -40 -72.5 -66.5t-98.5 -26.5q-60 0 -109 29q-47 29 -70 64z" />
    <glyph glyph-name="uniF407" unicode="&#xf407;" horiz-adv-x="361" 
d="M60 -169l26 42q40 -28 74 -28q25 0 40.5 9.5t15.5 26.5q0 39 -58 39h-6v80h43v-43q106 -6 106 -80q0 -37 -33 -59.5t-90 -22.5q-64 0 -118 36z" />
    <glyph glyph-name="uniF408" unicode="&#xf408;" horiz-adv-x="469" 
d="M89 733l-29 45l171 104h4l174 -103l-33 -46l-143 76z" />
    <glyph glyph-name="uniF409" unicode="&#xf409;" horiz-adv-x="246" 
d="M82 -65l75 19q29 -8 29 -49q0 -42 -29 -70.5t-74 -38.5l-23 36q46 18 46 62q0 30 -24 41z" />
    <glyph glyph-name="uniF40A" unicode="&#xf40a;" horiz-adv-x="242" 
d="M86 718l67 40q29 -32 29 -82q0 -101 -85 -149l-37 35q47 33 47 97q0 38 -21 59z" />
    <glyph glyph-name="uniF40B" unicode="&#xf40b;" horiz-adv-x="231" 
d="M60 817q0 23 16.5 37t40.5 14q22 0 38 -14t16 -37q0 -24 -16 -39t-38 -15q-25 0 -41 15t-16 39z" />
    <glyph glyph-name="uniF40C" unicode="&#xf40c;" horiz-adv-x="370" 
d="M184 888q58 0 92 -24.5t34 -71.5t-35 -73.5t-91 -26.5q-55 0 -89.5 26.5t-34.5 73.5t33.5 71.5t90.5 24.5zM120 792q0 -26 17.5 -40.5t47.5 -14.5q29 0 47 14.5t18 40.5q0 51 -65 51t-65 -51z" />
    <glyph glyph-name="uniF40D" unicode="&#xf40d;" horiz-adv-x="467" 
d="M86 761l-26 50q44 47 100 47q29 0 77 -20t73 -20q45 0 75 32l22 -50q-39 -52 -102 -52q-25 0 -76 20q-49 20 -77 20q-33 0 -66 -27z" />
    <glyph glyph-name="uniF40E" unicode="&#xf40e;" horiz-adv-x="328" 
d="M244 -126l24 -49q-29 -25 -86 -25q-54 0 -88 23t-34 69q0 58 61 92q62 33 138 32v-16q-47 0 -83 -24q-36 -25 -36 -58q0 -26 18 -39.5t42 -13.5t44 9z" />
    <glyph glyph-name="uniF410" unicode="&#xf410;" horiz-adv-x="0" 
d="M-309 783l-23 -48l-202 84l30 68z" />
    <glyph glyph-name="uniF416" unicode="&#xf416;" horiz-adv-x="246" 
d="M82 -65l75 19q29 -8 29 -49q0 -42 -29 -70.5t-74 -38.5l-23 36q46 18 46 62q0 30 -24 41z" />
    <glyph glyph-name="uniF418" unicode="&#xf418;" horiz-adv-x="242" 
d="M86 524l67 40q29 -32 29 -82q0 -101 -85 -149l-37 35q47 33 47 97q0 38 -21 59z" />
    <glyph glyph-name="uniF447" unicode="&#xf447;" horiz-adv-x="492" 
d="M136 -171l24 39q35 -23 71 -23q25 0 40.5 9.5t15.5 26.5q0 39 -58 39h-6v80h-20v445h-195v80h476v-80h-196v-445h-22v-43q101 -6 101 -80q0 -37 -33.5 -59.5t-92.5 -22.5q-55 0 -105 34z" />
    <glyph glyph-name="uniF44E" unicode="&#xf44e;" horiz-adv-x="623" 
d="M53 307h453q-10 68 -63 106.5t-134 38.5q-83 0 -142 -41l-33 64q74 57 184 57q127 0 204 -74q76 -73 76 -196q0 -122 -77 -197q-77 -74 -202 -74q-133 0 -206 85q-73 86 -60 231zM318 71q86 0 135.5 41.5t55.5 114.5h-368q2 -66 49 -111q50 -45 128 -45z" />
    <glyph glyph-name="uniF639" unicode="&#xf639;" 
d="M523 350q0 -170 -56.5 -264t-168.5 -94q-114 0 -172 96q-57 97 -57 262q0 164 56 261q57 97 171 97q115 0 170 -97q57 -96 57 -261zM298 67q73 0 106.5 70t33.5 213q0 142 -34.5 212.5t-107.5 70.5q-142 0 -142 -283t144 -283z" />
    <glyph glyph-name="uniF63A" unicode="&#xf63a;" 
d="M511 0h-427v65q136 133 200 212q113 142 113 238q0 50 -30.5 81.5t-83.5 31.5q-46 0 -80.5 -29.5t-44.5 -82.5l-68 28q12 75 67.5 119.5t132.5 44.5q92 0 142 -53t50 -124q0 -135 -129 -287q-59 -68 -93 -102q-30 -30 -72 -67h323v-75z" />
    <glyph glyph-name="uniF63B" unicode="&#xf63b;" 
d="M289 -10q-74 0 -129.5 31t-82.5 89l46 57q24 -46 68 -71.5t95 -25.5q63 0 100.5 35t37.5 91t-39.5 89t-103.5 33h-55v80h50q49 0 84 34q37 34 37 87q0 52 -30.5 81.5t-83.5 29.5q-95 0 -144 -87l-45 55q24 53 75.5 82.5t119.5 29.5q88 0 140.5 -48t52.5 -129
q0 -58 -28 -102t-81 -66v-3q62 -10 99 -57t37 -112q0 -92 -62 -148q-61 -55 -158 -55z" />
    <glyph glyph-name="uniF63C" unicode="&#xf63c;" 
d="M452 0h-80v175h-323v57l290 468h92l-277 -445h218v195h80v-195h97v-80h-97v-175z" />
    <glyph glyph-name="uniF63D" unicode="&#xf63d;" 
d="M135 348l44 352h316v-80h-246l-26 -189q24 7 56 7q97 0 159 -60q62 -59 62 -157q0 -105 -66 -168t-162 -63q-62 0 -117 28t-84 78l46 59q24 -39 67.5 -62t89.5 -23q60 0 100 42q41 43 41 106q0 64 -47 106q-46 42 -123 42q-63 0 -110 -18z" />
    <glyph glyph-name="uniF63E" unicode="&#xf63e;" 
d="M60 248q0 90 30.5 173t81.5 141q105 119 228 148l33 -61q-99 -25 -179 -107q-77 -80 -100 -204q50 93 165 93q87 0 143 -60q57 -60 57 -155q0 -98 -65 -163q-64 -63 -151 -63q-113 0 -178 74q-65 76 -65 184zM145 248q0 -75 41 -127q40 -51 116 -51q56 0 94 41
q38 43 38 99q0 65 -37.5 105.5t-104.5 40.5q-53 0 -92.5 -31t-54.5 -77z" />
    <glyph glyph-name="uniF63F" unicode="&#xf63f;" 
d="M416 620h-323v80h420v-52l-258 -648h-88z" />
    <glyph glyph-name="uniF640" unicode="&#xf640;" 
d="M284 400h26q45 0 78 34q34 34 34 81q0 52 -36 83.5t-91 31.5q-54 0 -89 -32t-35 -83q0 -47 33 -81q34 -34 80 -34zM309 320h-22q-57 0 -98 -35q-40 -34 -40 -89t41.5 -90.5t105.5 -35.5q67 0 107.5 34.5t40.5 91.5q-1 56 -39 90t-96 34zM64 181q0 63 36 111.5t96 65.5v3
q-48 16 -79 62.5t-31 103.5q0 81 60 132q62 51 150 51t150 -51q61 -51 61 -132q0 -53 -31.5 -98.5t-83.5 -66.5v-3q60 -10 98.5 -57.5t38.5 -114.5q0 -92 -67 -144q-68 -53 -165 -53q-99 0 -166 52t-67 139z" />
    <glyph glyph-name="uniF641" unicode="&#xf641;" 
d="M529 447q0 -193 -99 -316q-97 -121 -251 -141l-27 63q119 23 193 102t90 201q-47 -87 -158 -87q-92 0 -150 61q-59 62 -59 154q0 99 68 162q67 64 155 64q113 0 175 -74q63 -74 63 -189zM444 447q0 77 -39 130t-113 53q-58 0 -98 -42q-41 -41 -41 -98q0 -62 39.5 -104
t104.5 -42q54 0 93 29t54 74z" />
    <glyph glyph-name="uniF643" unicode="&#xf643;" 
d="M107 66q-71 77 -71 184q0 106 71 183t189 77t189 -77t71 -183q0 -107 -71 -184q-70 -76 -189 -76t-189 76zM121 250q0 -76 48 -128t127 -52q81 0 127 52q48 52 48 128q0 77 -48 128q-48 52 -127 52t-127 -52q-48 -51 -48 -128z" />
    <glyph glyph-name="uniF644" unicode="&#xf644;" 
d="M161 334l-27 71l162 103h55v-508h-85v405z" />
    <glyph glyph-name="uniF645" unicode="&#xf645;" 
d="M511 0h-427v60q313 129 313 261q0 50 -29.5 80t-81.5 30q-47 0 -84.5 -28t-51.5 -78l-53 49q17 62 72 99q56 38 119 38q92 0 140.5 -47t48.5 -125q0 -96 -81 -172q-65 -62 -127 -87h242v-80z" />
    <glyph glyph-name="uniF646" unicode="&#xf646;" horiz-adv-x="532" 
d="M247 -210q-74 0 -129.5 31t-82.5 89l46 57q24 -46 68 -71.5t95 -25.5q63 0 100.5 35t37.5 91t-39.5 89t-103.5 33h-55v80h50q49 0 84 34q37 34 37 87q0 52 -30.5 81.5t-83.5 29.5q-95 0 -144 -87l-45 55q24 53 75.5 82.5t119.5 29.5q88 0 140.5 -48t52.5 -129
q0 -58 -28 -102t-81 -66v-3q62 -10 99 -57t37 -112q0 -91 -62 -147t-158 -56z" />
    <glyph glyph-name="uniF647" unicode="&#xf647;" 
d="M452 -200h-80v200h-323v57l277 443h92l-264 -420h218v195h80v-195h97v-80h-97v-200z" />
    <glyph glyph-name="uniF648" unicode="&#xf648;" 
d="M135 148l44 352h316v-80h-246l-26 -189q24 7 56 7q97 0 159 -60q62 -59 62 -157q0 -105 -66 -168t-162 -63q-62 0 -117 28t-84 78l46 59q24 -39 67.5 -62t89.5 -23q60 0 100 42q41 43 41 106q0 64 -47 106q-46 42 -123 42q-63 0 -110 -18z" />
    <glyph glyph-name="uniF649" unicode="&#xf649;" 
d="M60 248q0 90 30.5 173t81.5 141q105 119 228 148l33 -61q-99 -25 -179 -107q-77 -80 -100 -204q50 93 165 93q87 0 143 -60q57 -60 57 -155q0 -98 -65 -163q-64 -63 -151 -63q-113 0 -178 74q-65 76 -65 184zM145 248q0 -75 41 -127q40 -51 116 -51q56 0 94 41
q38 43 38 99q0 65 -37.5 105.5t-104.5 40.5q-53 0 -92.5 -31t-54.5 -77z" />
    <glyph glyph-name="uniF64A" unicode="&#xf64a;" 
d="M416 420h-323v80h420v-52l-258 -648h-88z" />
    <glyph glyph-name="uniF64B" unicode="&#xf64b;" 
d="M284 400h26q45 0 78 34q34 34 34 81q0 52 -36 83.5t-91 31.5q-54 0 -89 -32t-35 -83q0 -47 33 -81q34 -34 80 -34zM309 320h-22q-57 0 -98 -35q-40 -34 -40 -89t41.5 -90.5t105.5 -35.5q67 0 107.5 34.5t40.5 91.5q-1 56 -39 90t-96 34zM64 181q0 63 36 111.5t96 65.5v3
q-48 16 -79 62.5t-31 103.5q0 81 60 132q62 51 150 51t150 -51q61 -51 61 -132q0 -53 -31.5 -98.5t-83.5 -66.5v-3q60 -10 98.5 -57.5t38.5 -114.5q0 -92 -67 -144q-68 -53 -165 -53q-99 0 -166 52t-67 139z" />
    <glyph glyph-name="uniF64C" unicode="&#xf64c;" 
d="M529 247q0 -193 -99 -315q-97 -122 -251 -142l-27 63q119 23 193 102t90 201q-47 -87 -158 -87q-92 0 -150 61q-59 62 -59 154q0 99 68 162q67 64 155 64q113 0 175 -74q63 -74 63 -189zM444 247q0 77 -39 130t-113 53q-58 0 -98 -42q-41 -41 -41 -98q0 -62 39.5 -104
t104.5 -42q54 0 93 29t54 74z" />
    <glyph glyph-name="uniF66D" unicode="&#xf66d;" horiz-adv-x="590" 
d="M98 0h-86l246 528h74l246 -528h-91l-64 140h-261zM387 220l-94 206l-95 -206h189zM147 685l37 41q51 -61 114 -61q66 0 115 60l29 -39q-62 -86 -147 -86q-93 0 -148 85z" />
    <glyph glyph-name="uniF66E" unicode="&#xf66e;" horiz-adv-x="590" 
d="M98 0h-86l246 528h74l246 -528h-91l-64 140h-261zM387 220l-94 206l-95 -206h189zM427 625h-264v65h264v-65z" />
    <glyph glyph-name="uniF66F" unicode="&#xf66f;" horiz-adv-x="590" 
d="M547 -126l24 -49q-29 -25 -86 -25q-54 0 -88 23t-34 69q0 41 33 71t88 43l-61 134h-261l-64 -140h-86l246 528h74l246 -528h-16q-47 0 -83 -24q-36 -25 -36 -58q0 -26 18 -39.5t42 -13.5q25 0 44 9zM387 220l-94 206l-95 -206h189z" />
    <glyph glyph-name="uniF671" unicode="&#xf671;" horiz-adv-x="542" 
d="M481 114l33 -64q-28 -27 -78 -43t-105 -16q-131 0 -211 74t-80 197q0 116 76 192q76 78 211 78q109 0 176 -52l-39 -64q-62 36 -137 36q-88 0 -143 -52q-54 -52 -54 -138t57 -139q56 -52 152 -52q83 0 142 43zM379 766l49 -61l-135 -125l-40 44z" />
    <glyph glyph-name="uniF672" unicode="&#xf672;" horiz-adv-x="542" 
d="M314 579h-4l-145 118l39 48l109 -89l109 88l37 -47zM481 114l33 -64q-28 -27 -78 -43t-105 -16q-131 0 -211 74t-80 197q0 116 76 192q76 78 211 78q109 0 176 -52l-39 -64q-62 36 -137 36q-88 0 -143 -52q-54 -52 -54 -138t57 -139q56 -52 152 -52q83 0 142 43z" />
    <glyph glyph-name="uniF673" unicode="&#xf673;" horiz-adv-x="542" 
d="M312 742h4l149 -118l-38 -48l-113 89l-115 -88l-38 47zM481 114l33 -64q-28 -27 -78 -43t-105 -16q-131 0 -211 74t-80 197q0 116 76 192q76 78 211 78q109 0 176 -52l-39 -64q-62 36 -137 36q-88 0 -143 -52q-54 -52 -54 -138t57 -139q56 -52 152 -52q83 0 142 43z" />
    <glyph glyph-name="uniF674" unicode="&#xf674;" horiz-adv-x="542" 
d="M481 114l33 -64q-28 -27 -78 -43t-105 -16q-131 0 -211 74t-80 197q0 116 76 192q76 78 211 78q109 0 176 -52l-39 -64q-62 36 -137 36q-88 0 -143 -52q-54 -52 -54 -138t57 -139q56 -52 152 -52q83 0 142 43zM258 664q0 21 15 34.5t37 13.5q21 0 35 -13.5t14 -34.5
q0 -23 -14 -37.5t-35 -14.5q-22 0 -37 14.5t-15 37.5z" />
    <glyph glyph-name="uniF675" unicode="&#xf675;" horiz-adv-x="611" 
d="M278 579h-4l-145 118l39 48l109 -89l109 88l37 -47zM94 0h-10v525h10q37 0 74 1t79 1q165 0 244 -72q80 -71 80 -187q0 -120 -86 -195q-85 -75 -244 -75q-34 0 -69 1q-34 1 -78 1zM246 447q-7 0 -77 -2v-365q19 0 37 -0.5t27 -1t11 -0.5q112 0 174.5 51t62.5 139
q0 85 -60 132t-175 47z" />
    <glyph glyph-name="uniF676" unicode="&#xf676;" horiz-adv-x="621" 
d="M93 229h-85v75h85v221h10q36 0 75 1t89 1q158 0 235 -73q79 -73 79 -186q0 -116 -84 -193q-83 -77 -231 -77q-46 0 -83 1t-80 1h-10v229zM269 447q-13 0 -91 -3v-140h151v-75h-151v-149q18 0 37.5 -0.5t29.5 -1t15 -0.5q109 0 170 51t61 139q0 84 -58 131.5t-164 47.5z
" />
    <glyph glyph-name="uniF678" unicode="&#xf678;" horiz-adv-x="488" 
d="M258 579h-4l-145 118l39 48l109 -89l109 88l37 -47zM432 0h-348v525h340v-80h-255v-140h230v-80h-230v-145h263v-80z" />
    <glyph glyph-name="uniF679" unicode="&#xf679;" horiz-adv-x="488" 
d="M432 0h-348v525h340v-80h-255v-140h230v-80h-230v-145h263v-80zM202 664q0 21 15 34.5t37 13.5q21 0 35 -13.5t14 -34.5q0 -23 -14 -37.5t-35 -14.5q-22 0 -37 14.5t-15 37.5z" />
    <glyph glyph-name="uniF67A" unicode="&#xf67a;" horiz-adv-x="488" 
d="M432 0h-348v525h340v-80h-255v-140h230v-80h-230v-145h263v-80zM383 625h-264v65h264v-65z" />
    <glyph glyph-name="uniF67C" unicode="&#xf67c;" horiz-adv-x="488" 
d="M328 0h-244v525h340v-80h-255v-140h230v-80h-230v-145h263v-80h-8q-47 -2 -80.5 -26t-33.5 -56q0 -26 18 -39.5t42 -13.5t44 9l24 -49q-29 -25 -86 -25q-54 0 -88 23t-34 69q0 73 98 108z" />
    <glyph glyph-name="uniF67D" unicode="&#xf67d;" horiz-adv-x="601" 
d="M473 203h-148v75h228v-214q-38 -34 -99 -53q-63 -20 -117 -20q-138 0 -217 73q-80 74 -80 198q0 116 79 192q79 78 207 78q108 0 184 -52l-37 -67q-56 39 -137 39q-92 0 -149 -51t-57 -139q0 -86 57 -139q58 -52 152 -52q86 0 134 39v93zM165 685l37 41q51 -61 114 -61
q66 0 115 60l29 -39q-62 -86 -147 -86q-93 0 -148 85z" />
    <glyph glyph-name="uniF67E" unicode="&#xf67e;" horiz-adv-x="601" 
d="M473 203h-148v75h228v-214q-38 -34 -99 -53q-63 -20 -117 -20q-138 0 -217 73q-80 74 -80 198q0 116 79 192q79 78 207 78q108 0 184 -52l-37 -67q-56 39 -137 39q-92 0 -149 -51t-57 -139q0 -86 57 -139q58 -52 152 -52q86 0 134 39v93zM322 742h4l149 -118l-38 -48
l-113 89l-115 -88l-38 47z" />
    <glyph glyph-name="uniF67F" unicode="&#xf67f;" horiz-adv-x="601" 
d="M473 203h-148v75h228v-214q-38 -34 -99 -53q-63 -20 -117 -20q-138 0 -217 73q-80 74 -80 198q0 116 79 192q79 78 207 78q108 0 184 -52l-37 -67q-56 39 -137 39q-92 0 -149 -51t-57 -139q0 -86 57 -139q58 -52 152 -52q86 0 134 39v93zM277 -65l75 19q29 -8 29 -49
q0 -42 -29 -70.5t-74 -38.5l-23 36q46 18 46 62q0 30 -24 41z" />
    <glyph glyph-name="uniF680" unicode="&#xf680;" horiz-adv-x="601" 
d="M473 203h-148v75h228v-214q-38 -34 -99 -53q-63 -20 -117 -20q-138 0 -217 73q-80 74 -80 198q0 116 79 192q79 78 207 78q108 0 184 -52l-37 -67q-56 39 -137 39q-92 0 -149 -51t-57 -139q0 -86 57 -139q58 -52 152 -52q86 0 134 39v93zM268 664q0 21 15 34.5t37 13.5
q21 0 35 -13.5t14 -34.5q0 -23 -14 -37.5t-35 -14.5q-22 0 -37 14.5t-15 37.5z" />
    <glyph glyph-name="uniF681" unicode="&#xf681;" horiz-adv-x="640" 
d="M84 382h-54v75h54v68h85v-68h302v68h85v-68h54v-75h-54v-382h-85v228h-302v-228h-85v382zM169 382v-74h302v74h-302z" />
    <glyph glyph-name="uniF682" unicode="&#xf682;" horiz-adv-x="640" 
d="M318 742h4l149 -118l-38 -48l-113 89l-115 -88l-38 47zM556 0h-85v228h-302v-228h-85v525h85v-217h302v217h85v-525z" />
    <glyph glyph-name="uniF685" unicode="&#xf685;" horiz-adv-x="281" 
d="M272 625h-264v65h264v-65zM183 0h-85v525h85v-525z" />
    <glyph glyph-name="uniF686" unicode="&#xf686;" horiz-adv-x="281" 
d="M162 -126l24 -49q-29 -25 -86 -25q-54 0 -88 23t-34 69q0 42 32.5 71.5t87.5 42.5v519h85v-525h-6q-47 0 -83 -24q-36 -25 -36 -58q0 -26 18 -39.5t42 -13.5t44 9z" />
    <glyph glyph-name="uniF688" unicode="&#xf688;" horiz-adv-x="315" 
d="M181 742h4l149 -118l-38 -48l-113 89l-115 -88l-38 47zM146 525h85v-402q0 -131 -132 -131q-62 0 -93 31l29 65q22 -16 52 -16q59 0 59 65v388z" />
    <glyph glyph-name="uniF689" unicode="&#xf689;" horiz-adv-x="554" 
d="M415 525h111l-246 -245l259 -280h-116l-247 274zM169 0h-85v525h85v-525zM216 -65l75 19q29 -8 29 -49q0 -42 -29 -70.5t-74 -38.5l-23 36q46 18 46 62q0 30 -24 41z" />
    <glyph glyph-name="uniF68A" unicode="&#xf68a;" horiz-adv-x="459" 
d="M441 0h-357v525h85v-440h272v-85zM278 766l49 -61l-135 -125l-40 44z" />
    <glyph glyph-name="uniF68B" unicode="&#xf68b;" horiz-adv-x="459" 
d="M301 525h78q8 -18 8 -38q0 -54 -24 -93.5t-62 -59.5l-36 35q47 41 47 109q0 27 -11 47zM441 0h-357v525h85v-440h272v-85z" />
    <glyph glyph-name="uniF68C" unicode="&#xf68c;" horiz-adv-x="459" 
d="M441 0h-357v525h85v-440h272v-85zM216 -65l75 19q29 -8 29 -49q0 -42 -29 -70.5t-74 -38.5l-23 36q46 18 46 62q0 30 -24 41z" />
    <glyph glyph-name="uniF68D" unicode="&#xf68d;" horiz-adv-x="459" 
d="M302 299q0 21 16.5 37t40.5 16q21 0 37 -16t16 -37q0 -24 -15 -40.5t-38 -16.5q-24 0 -40.5 16.5t-16.5 40.5zM441 0h-357v525h85v-440h272v-85z" />
    <glyph glyph-name="uniF68E" unicode="&#xf68e;" horiz-adv-x="656" 
d="M572 525v-525h-69l-339 386v-386h-80v525h68l340 -387v387h80zM403 766l49 -61l-135 -125l-40 44z" />
    <glyph glyph-name="uniF68F" unicode="&#xf68f;" horiz-adv-x="656" 
d="M329 579h-4l-145 118l39 48l109 -89l109 88l37 -47zM572 525v-525h-69l-339 386v-386h-80v525h68l340 -387v387h80z" />
    <glyph glyph-name="uniF690" unicode="&#xf690;" horiz-adv-x="656" 
d="M572 525v-525h-69l-339 386v-386h-80v525h68l340 -387v387h80zM271 -65l75 19q29 -8 29 -49q0 -42 -29 -70.5t-74 -38.5l-23 36q46 18 46 62q0 30 -24 41z" />
    <glyph glyph-name="uniF692" unicode="&#xf692;" horiz-adv-x="655" 
d="M40 262q0 116 81 192q81 78 207 78q124 0 205 -75q82 -75 82 -195q0 -119 -82 -195q-80 -76 -205 -76q-124 0 -207 75q-81 75 -81 196zM130 262q0 -80 57 -136q56 -55 141 -55q90 0 143 54q54 54 54 137q0 84 -57 136q-56 54 -140 54q-85 0 -142 -54q-56 -53 -56 -136z
M472 761l59 -45l-142 -134l-37 29zM306 768l58 -43l-119 -143l-42 28z" />
    <glyph glyph-name="uniF693" unicode="&#xf693;" horiz-adv-x="655" 
d="M40 262q0 116 81 192q81 78 207 78q124 0 205 -75q82 -75 82 -195q0 -119 -82 -195q-80 -76 -205 -76q-124 0 -207 75q-81 75 -81 196zM130 262q0 -80 57 -136q56 -55 141 -55q90 0 143 54q54 54 54 137q0 84 -57 136q-56 54 -140 54q-85 0 -142 -54q-56 -53 -56 -136z
M460 625h-264v65h264v-65z" />
    <glyph glyph-name="uniF695" unicode="&#xf695;" horiz-adv-x="534" 
d="M169 190v-190h-85v525q35 0 74 1t82 1q216 0 216 -166q0 -60 -31 -99t-81 -52l170 -210h-108l-149 190h-88zM244 447q-27 0 -75 -2v-175h81q49 0 82.5 25t33.5 65q0 87 -122 87zM318 766l49 -61l-135 -125l-40 44z" />
    <glyph glyph-name="uniF696" unicode="&#xf696;" horiz-adv-x="534" 
d="M169 190v-190h-85v525q35 0 74 1t82 1q216 0 216 -166q0 -60 -31 -99t-81 -52l170 -210h-108l-149 190h-88zM244 447q-27 0 -75 -2v-175h81q49 0 82.5 25t33.5 65q0 87 -122 87zM243 579h-4l-145 118l39 48l109 -89l109 88l37 -47z" />
    <glyph glyph-name="uniF697" unicode="&#xf697;" horiz-adv-x="534" 
d="M169 190v-190h-85v525q35 0 74 1t82 1q216 0 216 -166q0 -60 -31 -99t-81 -52l170 -210h-108l-149 190h-88zM244 447q-27 0 -75 -2v-175h81q49 0 82.5 25t33.5 65q0 87 -122 87zM216 -65l75 19q29 -8 29 -49q0 -42 -29 -70.5t-74 -38.5l-23 36q46 18 46 62q0 30 -24 41z
" />
    <glyph glyph-name="uniF698" unicode="&#xf698;" horiz-adv-x="485" 
d="M355 143q0 30 -31 50t-75.5 33.5t-89 30t-75.5 50t-31 82.5q0 65 51 104t148 39q47 0 102 -20q57 -20 81 -47l-39 -63q-27 21 -69.5 35.5t-78.5 14.5q-49 0 -77 -18t-28 -49q0 -48 106 -79q39 -10 68 -21t61.5 -30t49.5 -49t17 -68q0 -66 -56 -107q-55 -40 -141 -40
q-67 0 -126 22q-59 23 -88 61l49 58q27 -27 74.5 -44t95.5 -17q44 0 73 19.5t29 52.5zM323 766l49 -61l-135 -125l-40 44z" />
    <glyph glyph-name="uniF699" unicode="&#xf699;" horiz-adv-x="485" 
d="M132 -171l24 39q35 -23 71 -23q25 0 40.5 9.5t15.5 26.5q0 39 -58 39h-6v72q-60 5 -110.5 27t-74.5 55l49 58q27 -27 74.5 -44t95.5 -17q44 0 73 19.5t29 52.5q0 30 -31 50t-75.5 33.5t-89 30t-75.5 50t-31 82.5q0 65 51 104t148 39q47 0 102 -20q57 -20 81 -47l-39 -63
q-27 21 -69.5 35.5t-78.5 14.5q-49 0 -77 -18t-28 -49q0 -48 106 -79q39 -10 68 -21t61.5 -30t49.5 -49t17 -68q0 -63 -52 -103q-50 -40 -131 -43v-35q101 -6 101 -80q0 -37 -33.5 -59.5t-92.5 -22.5q-55 0 -105 34z" />
    <glyph glyph-name="uniF69A" unicode="&#xf69a;" horiz-adv-x="485" 
d="M355 143q0 30 -31 50t-75.5 33.5t-89 30t-75.5 50t-31 82.5q0 65 51 104t148 39q47 0 102 -20q57 -20 81 -47l-39 -63q-27 21 -69.5 35.5t-78.5 14.5q-49 0 -77 -18t-28 -49q0 -48 106 -79q39 -10 68 -21t61.5 -30t49.5 -49t17 -68q0 -66 -56 -107q-55 -40 -141 -40
q-67 0 -126 22q-59 23 -88 61l49 58q27 -27 74.5 -44t95.5 -17q44 0 73 19.5t29 52.5zM241 742h4l149 -118l-38 -48l-113 89l-115 -88l-38 47z" />
    <glyph glyph-name="uniF69B" unicode="&#xf69b;" horiz-adv-x="485" 
d="M355 143q0 30 -31 50t-75.5 33.5t-89 30t-75.5 50t-31 82.5q0 65 51 104t148 39q47 0 102 -20q57 -20 81 -47l-39 -63q-27 21 -69.5 35.5t-78.5 14.5q-49 0 -77 -18t-28 -49q0 -48 106 -79q39 -10 68 -21t61.5 -30t49.5 -49t17 -68q0 -66 -56 -107q-55 -40 -141 -40
q-67 0 -126 22q-59 23 -88 61l49 58q27 -27 74.5 -44t95.5 -17q44 0 73 19.5t29 52.5zM201 -65l75 19q29 -8 29 -49q0 -42 -29 -70.5t-74 -38.5l-23 36q46 18 46 62q0 30 -24 41z" />
    <glyph glyph-name="uniF69D" unicode="&#xf69d;" horiz-adv-x="492" 
d="M248 579h-4l-145 118l39 48l109 -89l109 88l37 -47zM203 445h-195v80h476v-80h-196v-445h-85v445z" />
    <glyph glyph-name="uniF69E" unicode="&#xf69e;" horiz-adv-x="492" 
d="M203 445h-195v80h476v-80h-196v-445h-85v445zM201 -65l75 19q29 -8 29 -49q0 -42 -29 -70.5t-74 -38.5l-23 36q46 18 46 62q0 30 -24 41z" />
    <glyph glyph-name="uniF69F" unicode="&#xf69f;" horiz-adv-x="620" 
d="M459 525h85v-307q0 -113 -65 -170q-65 -56 -162 -56q-111 0 -176.5 61t-65.5 170v302h85v-285q0 -78 41 -123t116 -45q69 0 105.5 42t36.5 121v290zM162 685l37 41q51 -61 114 -61q65 0 115 60l29 -39q-62 -86 -147 -86q-93 0 -148 85z" />
    <glyph glyph-name="uniF6A0" unicode="&#xf6a0;" horiz-adv-x="620" 
d="M459 525h85v-307q0 -113 -65 -170q-65 -56 -162 -56q-111 0 -176.5 61t-65.5 170v302h85v-285q0 -78 41 -123t116 -45q69 0 105.5 42t36.5 121v290zM456 761l59 -45l-142 -134l-37 29zM290 768l58 -43l-119 -143l-42 28z" />
    <glyph glyph-name="uniF6A1" unicode="&#xf6a1;" horiz-adv-x="620" 
d="M459 525h85v-307q0 -113 -65 -170q-65 -56 -162 -56q-111 0 -176.5 61t-65.5 170v302h85v-285q0 -78 41 -123t116 -45q69 0 105.5 42t36.5 121v290zM442 625h-264v65h264v-65z" />
    <glyph glyph-name="uniF6A2" unicode="&#xf6a2;" horiz-adv-x="620" 
d="M459 525h85v-307q0 -160 -132 -210q-77 -45 -77 -90q0 -26 18 -39.5t42 -13.5q25 0 44 9l24 -49q-29 -25 -86 -25q-54 0 -88 23t-34 69q0 34 22 57.5t67 43.5q-6 -1 -27 -1q-111 0 -176.5 61t-65.5 170v302h85v-285q0 -78 41 -123t116 -45q69 0 105.5 42t36.5 121v290z
" />
    <glyph glyph-name="uniF6A3" unicode="&#xf6a3;" horiz-adv-x="620" 
d="M195 653q0 46 33 78.5t81 32.5q49 0 82.5 -32.5t33.5 -78.5q0 -45 -33.5 -77t-82.5 -32q-48 0 -81 32t-33 77zM265 700q-18 -19 -18 -46t18 -46t45 -19t45 19t18 46t-18 46t-45 19t-45 -19zM459 525h85v-307q0 -113 -65 -170q-65 -56 -162 -56q-111 0 -176.5 61
t-65.5 170v302h85v-285q0 -78 41 -123t116 -45q69 0 105.5 42t36.5 121v290z" />
    <glyph glyph-name="uniF6AB" unicode="&#xf6ab;" horiz-adv-x="526" 
d="M360 445h-311v80h436v-58l-328 -387h336v-80h-460v58zM338 766l49 -61l-135 -125l-40 44z" />
    <glyph glyph-name="uniF6AC" unicode="&#xf6ac;" horiz-adv-x="526" 
d="M360 445h-311v80h436v-58l-328 -387h336v-80h-460v58zM212 664q0 21 15 34.5t37 13.5q21 0 35 -13.5t14 -34.5q0 -23 -14 -37.5t-35 -14.5q-22 0 -37 14.5t-15 37.5z" />
    <glyph glyph-name="uniF6AD" unicode="&#xf6ad;" horiz-adv-x="281" 
d="M90 664q0 21 15 34.5t37 13.5q21 0 35 -13.5t14 -34.5q0 -23 -14 -37.5t-35 -14.5q-22 0 -37 14.5t-15 37.5zM183 0h-85v525h85v-525z" />
    <glyph glyph-name="uniF6BA" unicode="&#xf6ba;" horiz-adv-x="389" 
d="M314 316h-239v75h239v-75z" />
    <glyph glyph-name="uniF6BB" unicode="&#xf6bb;" horiz-adv-x="594" 
d="M504 319h-414v70h414v-70z" />
    <glyph glyph-name="uniF6BC" unicode="&#xf6bc;" horiz-adv-x="804" 
d="M714 319h-624v70h624v-70z" />
    <glyph glyph-name="uniF6C3" unicode="&#xf6c3;" horiz-adv-x="246" 
d="M82 -65l75 19q29 -8 29 -49q0 -42 -29 -70.5t-74 -38.5l-23 36q46 18 46 62q0 30 -24 41z" />
    <glyph glyph-name="uniF6C9" unicode="&#xf6c9;" horiz-adv-x="345" 
d="M255 887l30 -68l-202 -84l-23 48z" />
    <glyph glyph-name="uniF6CA" unicode="&#xf6ca;" horiz-adv-x="470" 
d="M239 738h-4l-175 103l33 46l144 -81l143 81l30 -45z" />
    <glyph glyph-name="uniF6CB" unicode="&#xf6cb;" horiz-adv-x="459" 
d="M60 813q0 20 15.5 32.5t39.5 12.5q22 0 37 -12.5t15 -32.5q0 -21 -15 -34.5t-37 -13.5q-24 0 -39.5 13t-15.5 35zM292 813q0 20 16 32.5t40 12.5q22 0 36.5 -12.5t14.5 -32.5q0 -21 -14.5 -34.5t-36.5 -13.5q-24 0 -40 13.5t-16 34.5z" />
    <glyph glyph-name="uniF6CE" unicode="&#xf6ce;" horiz-adv-x="345" 
d="M285 783l-23 -48l-202 84l30 68z" />
    <glyph glyph-name="uniF6CF" unicode="&#xf6cf;" horiz-adv-x="510" 
d="M395 887l55 -51l-179 -101l-33 35zM188 887l67 -36l-161 -116l-34 32z" />
    <glyph glyph-name="uniF6D0" unicode="&#xf6d0;" horiz-adv-x="424" 
d="M364 770h-304v65h304v-65z" />
    <glyph glyph-name="uniF6D1" unicode="&#xf6d1;" horiz-adv-x="490" 
d="M60 860h80q24 -65 107 -65q88 0 103 65h80q-7 -56 -58.5 -90.5t-124.5 -34.5q-77 0 -127.5 34t-59.5 91z" />
    <glyph glyph-name="uniF6D4" unicode="&#xf6d4;" horiz-adv-x="420" 
d="M60 680h75q6 -79 77 -79q67 0 73 79h75q0 -61 -41.5 -100.5t-106.5 -39.5q-71 0 -111.5 38.5t-40.5 101.5z" />
    <glyph glyph-name="uniF6DC" unicode="&#xf6dc;" 
d="M176 509l-42 65l168 130h56v-704h-80v589z" />
    <glyph glyph-name="uniF6DE" unicode="&#xf6de;" horiz-adv-x="603" 
d="M535 235h-468v70h468v-70z" />
    <glyph glyph-name="uniF6F4" unicode="&#xf6f4;" horiz-adv-x="415" 
d="M60 685l37 41q51 -61 114 -61q65 0 115 60l29 -39q-62 -86 -147 -86q-93 0 -148 85z" />
    <glyph glyph-name="uniF6F5" unicode="&#xf6f5;" horiz-adv-x="414" 
d="M209 579h-4l-145 118l39 48l109 -89l109 88l37 -47z" />
    <glyph glyph-name="uniF6F6" unicode="&#xf6f6;" horiz-adv-x="424" 
d="M211 742h4l149 -118l-38 -48l-113 89l-115 -88l-38 47z" />
    <glyph glyph-name="uniF6F7" unicode="&#xf6f7;" horiz-adv-x="221" 
d="M60 664q0 21 15 34.5t37 13.5q21 0 35 -13.5t14 -34.5q0 -23 -14 -37.5t-35 -14.5q-22 0 -37 14.5t-15 37.5z" />
    <glyph glyph-name="uniF6F8" unicode="&#xf6f8;" horiz-adv-x="448" 
d="M329 761l59 -45l-142 -134l-37 29zM163 768l58 -43l-119 -143l-42 28z" />
    <glyph glyph-name="uniF6F9" unicode="&#xf6f9;" horiz-adv-x="459" 
d="M84 185l-64 -31v83l64 30v258h85v-217l111 53v-82l-111 -53v-141h272v-85h-357v185z" />
    <glyph glyph-name="uniF6FA" unicode="&#xf6fa;" horiz-adv-x="861" 
d="M805 0h-348v24q-63 -33 -136 -33q-124 0 -204 74q-78 75 -78 197q0 116 75 193q77 77 206 77q75 0 137 -32v25h340v-80h-255v-140h230v-80h-230v-145h263v-80zM328 71q74 0 129 39v303q-51 39 -131 39q-88 0 -143 -52q-54 -52 -54 -138t55 -138q56 -53 144 -53z" />
    <glyph glyph-name="uniF6FB" unicode="&#xf6fb;" horiz-adv-x="328" 
d="M244 -126l24 -49q-29 -25 -86 -25q-54 0 -88 23t-34 69q0 58 61 92q62 33 138 32v-16q-47 0 -83 -24q-36 -25 -36 -58q0 -26 18 -39.5t42 -13.5t44 9z" />
    <glyph glyph-name="uniF6FC" unicode="&#xf6fc;" horiz-adv-x="350" 
d="M60 653q0 46 33 78.5t81 32.5q49 0 82.5 -32.5t33.5 -78.5q0 -45 -33.5 -77t-82.5 -32q-48 0 -81 32t-33 77zM130 700q-18 -19 -18 -46t18 -46t45 -19t45 19t18 46t-18 46t-45 19t-45 -19z" />
    <glyph glyph-name="uniF6FD" unicode="&#xf6fd;" horiz-adv-x="485" 
d="M355 143q0 30 -31 50t-75.5 33.5t-89 30t-75.5 50t-31 82.5q0 65 51 104t148 39q47 0 102 -20q57 -20 81 -47l-39 -63q-27 21 -69.5 35.5t-78.5 14.5q-49 0 -77 -18t-28 -49q0 -48 106 -79q39 -10 68 -21t61.5 -30t49.5 -49t17 -68q0 -66 -56 -107q-55 -40 -141 -40
q-67 0 -126 22q-59 23 -88 61l49 58q27 -27 74.5 -44t95.5 -17q44 0 73 19.5t29 52.5zM243 579h-4l-145 118l39 48l109 -89l109 88l37 -47z" />
    <glyph glyph-name="uniF6FE" unicode="&#xf6fe;" horiz-adv-x="442" 
d="M93 602l-33 37q52 60 110 60q24 0 58 -22t55 -22q28 0 71 35l28 -41q-56 -59 -106 -59q-23 0 -57 22t-57 22q-26 0 -69 -32z" />
    <glyph glyph-name="uniF6FF" unicode="&#xf6ff;" horiz-adv-x="526" 
d="M263 579h-4l-145 118l39 48l109 -89l109 88l37 -47zM360 445h-311v80h436v-58l-328 -387h336v-80h-460v58z" />
    <glyph glyph-name="uniF730" unicode="&#xf730;" horiz-adv-x="620" 
d="M121 66q-71 77 -71 184q0 106 71 183t189 77t189 -77t71 -183q0 -107 -71 -184q-70 -76 -189 -76t-189 76zM135 250q0 -76 48 -128t127 -52q81 0 127 52q48 52 48 128q0 77 -48 128q-48 52 -127 52t-127 -52q-48 -51 -48 -128z" />
    <glyph glyph-name="uniF731" unicode="&#xf731;" horiz-adv-x="372" 
d="M67 334l-27 71l162 103h55v-508h-85v405z" />
    <glyph glyph-name="uniF732" unicode="&#xf732;" horiz-adv-x="522" 
d="M472 0h-427v60q313 129 313 261q0 50 -29.5 80t-81.5 30q-47 0 -84.5 -28t-51.5 -78l-53 49q16 62 72 99q56 38 119 38q92 0 140.5 -47t48.5 -125q0 -96 -81 -172q-65 -62 -127 -87h242v-80z" />
    <glyph glyph-name="uniF733" unicode="&#xf733;" horiz-adv-x="532" 
d="M247 -210q-74 0 -129.5 31t-82.5 89l46 57q24 -46 68 -71.5t95 -25.5q63 0 100.5 35t37.5 91t-39.5 89t-103.5 33h-55v80h50q49 0 84 34q37 34 37 87q0 52 -30.5 81.5t-83.5 29.5q-95 0 -144 -87l-45 55q24 53 75.5 82.5t119.5 29.5q88 0 140.5 -48t52.5 -129
q0 -58 -28 -102t-81 -66v-3q62 -10 99 -57t37 -112q0 -91 -62 -147t-158 -56z" />
    <glyph glyph-name="uniF734" unicode="&#xf734;" horiz-adv-x="550" 
d="M423 -200h-80v200h-323v57l277 443h92l-264 -420h218v195h80v-195h97v-80h-97v-200z" />
    <glyph glyph-name="uniF735" unicode="&#xf735;" horiz-adv-x="516" 
d="M99 148l44 352h316v-80h-246l-26 -189q24 7 56 7q97 0 159 -60q62 -59 62 -157q0 -105 -66 -168t-162 -63q-62 0 -117 28t-84 78l46 59q24 -39 67.5 -62t89.5 -23q60 0 100 42q41 43 41 106q0 64 -47 106q-46 42 -123 42q-63 0 -110 -18z" />
    <glyph glyph-name="uniF736" unicode="&#xf736;" horiz-adv-x="554" 
d="M50 248q0 90 30.5 173t81.5 141q105 119 228 148l33 -61q-99 -25 -179 -107q-77 -80 -100 -204q50 93 165 93q87 0 143 -60q57 -60 57 -155q0 -98 -65 -163q-64 -63 -151 -63q-113 0 -178 74q-65 76 -65 184zM135 248q0 -75 41 -127q41 -51 116 -51q56 0 94 41
q38 43 38 99q0 65 -37.5 105.5t-104.5 40.5q-53 0 -92.5 -31t-54.5 -77z" />
    <glyph glyph-name="uniF737" unicode="&#xf737;" horiz-adv-x="485" 
d="M353 420h-323v80h420v-52l-258 -648h-88z" />
    <glyph glyph-name="uniF738" unicode="&#xf738;" horiz-adv-x="595" 
d="M285 400h26q45 0 78 34q34 34 34 81q0 52 -36 83.5t-91 31.5q-54 0 -89 -32t-35 -83q0 -47 34 -81t79 -34zM310 320h-22q-57 0 -98 -35q-40 -34 -40 -89t41.5 -90.5t105.5 -35.5q67 0 107.5 34.5t40.5 91.5q-1 56 -39 90t-96 34zM65 181q0 63 36 111.5t96 65.5v3
q-48 16 -79 62.5t-31 103.5q0 81 60 132q61 51 150 51t150 -51t61 -132q0 -53 -31.5 -98.5t-83.5 -66.5v-3q60 -10 98.5 -57.5t38.5 -114.5q0 -92 -67 -144q-68 -53 -165 -53q-99 0 -166 52t-67 139z" />
    <glyph glyph-name="uniF739" unicode="&#xf739;" horiz-adv-x="551" 
d="M501 247q0 -193 -99 -315q-97 -122 -251 -142l-27 63q119 23 193 102t90 201q-47 -87 -158 -87q-92 0 -150 61q-59 62 -59 154q0 99 68 162q67 64 155 64q113 0 175 -74q63 -74 63 -189zM416 247q0 77 -39 130t-113 53q-57 0 -98 -42q-41 -41 -41 -98q0 -62 39.5 -104
t104.5 -42q54 0 93 29t54 74z" />
    <glyph glyph-name="uniF760" unicode="&#xf760;" horiz-adv-x="295" 
d="M235 624l-39 -44l-136 125l50 61z" />
    <glyph glyph-name="uniF761" unicode="&#xf761;" horiz-adv-x="590" 
d="M98 0h-86l246 528h74l246 -528h-91l-64 140h-261zM387 220l-94 206l-95 -206h189z" />
    <glyph glyph-name="uniF762" unicode="&#xf762;" horiz-adv-x="524" 
d="M84 1v523q113 4 177 4q95 0 141.5 -34.5t46.5 -95.5q0 -45 -26 -78t-71 -45v-1q116 -17 116 -121q0 -76 -57 -116t-155 -40q-112 0 -172 4zM267 228h-98v-147q28 -4 93 -4q121 0 121 79q0 72 -116 72zM260 448q-34 0 -91 -3v-142h96q43 0 71 20t28 53q0 72 -104 72z" />
    <glyph glyph-name="uniF763" unicode="&#xf763;" horiz-adv-x="542" 
d="M481 114l33 -64q-28 -27 -78 -43t-105 -16q-131 0 -211 74t-80 197q0 116 76 192q76 78 211 78q109 0 176 -52l-39 -64q-62 36 -137 36q-88 0 -143 -52q-54 -52 -54 -138t57 -139q56 -52 152 -52q83 0 142 43z" />
    <glyph glyph-name="uniF764" unicode="&#xf764;" horiz-adv-x="611" 
d="M94 0h-10v525h10q37 0 74 1t79 1q165 0 244 -72q80 -71 80 -187q0 -120 -86 -195q-85 -75 -244 -75q-34 0 -69 1q-34 1 -78 1zM246 447q-7 0 -77 -2v-365q19 0 37 -0.5t27 -1t11 -0.5q112 0 174.5 51t62.5 139q0 85 -60 132t-175 47z" />
    <glyph glyph-name="uniF765" unicode="&#xf765;" horiz-adv-x="488" 
d="M432 0h-348v525h340v-80h-255v-140h230v-80h-230v-145h263v-80z" />
    <glyph glyph-name="uniF766" unicode="&#xf766;" horiz-adv-x="454" 
d="M169 0h-85v525h337v-80h-252v-157h228v-80h-228v-208z" />
    <glyph glyph-name="uniF767" unicode="&#xf767;" horiz-adv-x="601" 
d="M473 203h-148v75h228v-214q-38 -34 -99 -53q-63 -20 -117 -20q-138 0 -217 73q-80 74 -80 198q0 116 79 192q79 78 207 78q108 0 184 -52l-37 -67q-56 39 -137 39q-92 0 -149 -51t-57 -139q0 -86 57 -139q58 -52 152 -52q86 0 134 39v93z" />
    <glyph glyph-name="uniF768" unicode="&#xf768;" horiz-adv-x="640" 
d="M556 0h-85v228h-302v-228h-85v525h85v-217h302v217h85v-525z" />
    <glyph glyph-name="uniF769" unicode="&#xf769;" horiz-adv-x="281" 
d="M183 0h-85v525h85v-525z" />
    <glyph glyph-name="uniF76A" unicode="&#xf76a;" horiz-adv-x="315" 
d="M146 525h85v-402q0 -131 -132 -131q-62 0 -93 31l29 65q22 -16 52 -16q59 0 59 65v388z" />
    <glyph glyph-name="uniF76B" unicode="&#xf76b;" horiz-adv-x="554" 
d="M415 525h111l-246 -245l259 -280h-116l-247 274zM169 0h-85v525h85v-525z" />
    <glyph glyph-name="uniF76C" unicode="&#xf76c;" horiz-adv-x="459" 
d="M441 0h-357v525h85v-440h272v-85z" />
    <glyph glyph-name="uniF76D" unicode="&#xf76d;" horiz-adv-x="740" 
d="M169 0h-85v525h86l207 -251l198 251h81v-525h-85v396l-194 -240h-12l-196 237v-393z" />
    <glyph glyph-name="uniF76E" unicode="&#xf76e;" horiz-adv-x="656" 
d="M572 525v-525h-69l-339 386v-386h-80v525h68l340 -387v387h80z" />
    <glyph glyph-name="uniF76F" unicode="&#xf76f;" horiz-adv-x="655" 
d="M40 262q0 116 81 192q81 78 207 78q124 0 205 -75q82 -75 82 -195q0 -119 -82 -195q-80 -76 -205 -76q-124 0 -207 75q-81 75 -81 196zM130 262q0 -80 57 -136q56 -55 141 -55q90 0 143 54q54 54 54 137q0 84 -57 136q-56 54 -140 54q-85 0 -142 -54q-56 -53 -56 -136z
" />
    <glyph glyph-name="uniF770" unicode="&#xf770;" horiz-adv-x="499" 
d="M169 178v-178h-85v525q35 0 76 1t81 1q112 0 165 -46.5t53 -128.5q0 -79 -55.5 -128t-153.5 -49q-40 0 -81 3zM249 447q-22 0 -80 -2v-186q47 -4 78 -4q57 0 89.5 26t32.5 71q0 95 -120 95z" />
    <glyph glyph-name="uniF771" unicode="&#xf771;" horiz-adv-x="655" 
d="M40 262q0 116 81 192q81 78 207 78q124 0 205 -75q82 -75 82 -195q0 -110 -74 -187l68 -75h-99l-28 30q-69 -39 -154 -39q-124 0 -207 75q-81 75 -81 196zM130 262q0 -80 57 -136q56 -55 141 -55q54 0 97 21l-46 51l56 51l49 -55q41 53 41 123q0 84 -57 136
q-56 54 -140 54q-85 0 -142 -54q-56 -53 -56 -136z" />
    <glyph glyph-name="uniF772" unicode="&#xf772;" horiz-adv-x="534" 
d="M169 190v-190h-85v525q35 0 74 1t82 1q216 0 216 -166q0 -60 -31 -99t-81 -52l170 -210h-108l-149 190h-88zM244 447q-27 0 -75 -2v-175h81q49 0 82.5 25t33.5 65q0 87 -122 87z" />
    <glyph glyph-name="uniF773" unicode="&#xf773;" horiz-adv-x="485" 
d="M355 143q0 30 -31 50t-75.5 33.5t-89 30t-75.5 50t-31 82.5q0 65 51 104t148 39q47 0 102 -20q57 -20 81 -47l-39 -63q-27 21 -69.5 35.5t-78.5 14.5q-49 0 -77 -18t-28 -49q0 -48 106 -79q39 -10 68 -21t61.5 -30t49.5 -49t17 -68q0 -66 -56 -107q-55 -40 -141 -40
q-67 0 -126 22q-59 23 -88 61l49 58q27 -27 74.5 -44t95.5 -17q44 0 73 19.5t29 52.5z" />
    <glyph glyph-name="uniF774" unicode="&#xf774;" horiz-adv-x="492" 
d="M203 445h-195v80h476v-80h-196v-445h-85v445z" />
    <glyph glyph-name="uniF775" unicode="&#xf775;" horiz-adv-x="620" 
d="M459 525h85v-307q0 -113 -65 -170q-65 -56 -162 -56q-111 0 -176.5 61t-65.5 170v302h85v-285q0 -78 41 -123t116 -45q69 0 105.5 42t36.5 121v290z" />
    <glyph glyph-name="uniF776" unicode="&#xf776;" horiz-adv-x="542" 
d="M449 525h91l-234 -527h-64l-241 527h96l180 -410z" />
    <glyph glyph-name="uniF777" unicode="&#xf777;" horiz-adv-x="806" 
d="M715 525h85l-166 -525h-79l-148 390l-145 -390h-82l-174 525h96l126 -395l139 395h84l143 -395z" />
    <glyph glyph-name="uniF778" unicode="&#xf778;" horiz-adv-x="550" 
d="M424 525h105l-199 -258l207 -267h-105l-158 202l-156 -202h-106l207 267l-198 258h106l149 -194z" />
    <glyph glyph-name="uniF779" unicode="&#xf779;" horiz-adv-x="508" 
d="M405 525h97l-206 -304v-221h-85v221l-205 304h103l148 -224z" />
    <glyph glyph-name="uniF77A" unicode="&#xf77a;" horiz-adv-x="526" 
d="M360 445h-311v80h436v-58l-328 -387h336v-80h-460v58z" />
    <glyph glyph-name="uniF7A8" unicode="&#xf7a8;" horiz-adv-x="388" 
d="M60 654q0 19 14 31t34 12q18 0 30.5 -12.5t12.5 -30.5q0 -20 -12.5 -33t-30.5 -13q-21 0 -34.5 12.5t-13.5 33.5zM238 654q0 18 13.5 30.5t32.5 12.5q18 0 31 -12.5t13 -30.5q0 -20 -13 -33t-31 -13q-19 0 -32.5 13t-13.5 33z" />
    <glyph glyph-name="uniF7AF" unicode="&#xf7af;" horiz-adv-x="384" 
d="M324 625h-264v65h264v-65z" />
    <glyph glyph-name="uniF7B4" unicode="&#xf7b4;" horiz-adv-x="295" 
d="M186 766l49 -61l-135 -125l-40 44z" />
    <glyph glyph-name="uniF7B8" unicode="&#xf7b8;" horiz-adv-x="351" 
d="M60 -171l24 39q35 -23 71 -23q25 0 40.5 9.5t15.5 26.5q0 39 -58 39h-6v80h43v-43q101 -6 101 -80q0 -37 -33.5 -59.5t-92.5 -22.5q-55 0 -105 34z" />
    <glyph glyph-name="uniF7E0" unicode="&#xf7e0;" horiz-adv-x="590" 
d="M98 0h-86l246 528h74l246 -528h-91l-64 140h-261zM387 220l-94 206l-95 -206h189zM359 624l-39 -44l-136 125l50 61z" />
    <glyph glyph-name="uniF7E1" unicode="&#xf7e1;" horiz-adv-x="590" 
d="M98 0h-86l246 528h74l246 -528h-91l-64 140h-261zM387 220l-94 206l-95 -206h189zM360 766l49 -61l-135 -125l-40 44z" />
    <glyph glyph-name="uniF7E2" unicode="&#xf7e2;" horiz-adv-x="590" 
d="M98 0h-86l246 528h74l246 -528h-91l-64 140h-261zM387 220l-94 206l-95 -206h189zM294 742h4l149 -118l-38 -48l-113 89l-115 -88l-38 47z" />
    <glyph glyph-name="uniF7E3" unicode="&#xf7e3;" horiz-adv-x="590" 
d="M98 0h-86l246 528h74l246 -528h-91l-64 140h-261zM387 220l-94 206l-95 -206h189zM167 602l-33 37q52 60 110 60q24 0 58 -22t55 -22q28 0 71 35l28 -41q-56 -59 -106 -59q-23 0 -57 22t-57 22q-26 0 -69 -32z" />
    <glyph glyph-name="uniF7E4" unicode="&#xf7e4;" horiz-adv-x="590" 
d="M98 0h-86l246 528h74l246 -528h-91l-64 140h-261zM387 220l-94 206l-95 -206h189zM161 654q0 19 14 31t34 12q18 0 30.5 -12.5t12.5 -30.5q0 -20 -12.5 -33t-30.5 -13q-21 0 -34.5 12.5t-13.5 33.5zM339 654q0 18 13.5 30.5t32.5 12.5q18 0 31 -12.5t13 -30.5
q0 -20 -12.5 -33t-31.5 -13t-32.5 13t-13.5 33z" />
    <glyph glyph-name="uniF7E5" unicode="&#xf7e5;" horiz-adv-x="590" 
d="M98 0h-86l246 528h74l246 -528h-91l-64 140h-261zM387 220l-94 206l-95 -206h189zM180 659q0 46 33 78.5t81 32.5q49 0 82.5 -32.5t33.5 -78.5q0 -45 -33.5 -77t-82.5 -32q-48 0 -81 32t-33 77zM250 706q-18 -19 -18 -46t18 -46t45 -19t45 19t18 46t-18 46t-45 19
t-45 -19z" />
    <glyph glyph-name="uniF7E6" unicode="&#xf7e6;" horiz-adv-x="790" 
d="M734 0h-338v142h-206l-109 -142h-99l170 215l245 310h328v-80h-244v-140h220v-80h-220v-145h253v-80zM396 222v182l-142 -182h142z" />
    <glyph glyph-name="uniF7E7" unicode="&#xf7e7;" horiz-adv-x="541" 
d="M197 -171l24 39q35 -23 71 -23q25 0 40.5 9.5t15.5 26.5q0 39 -58 39h-6v74q-112 13 -179 85q-66 72 -66 183q0 116 76 192q77 78 211 78q109 0 176 -52l-39 -64q-61 36 -137 36q-88 0 -143 -52q-54 -52 -54 -138t57 -139q56 -52 152 -52q83 0 142 43l33 -64
q-28 -27 -78 -43t-105 -16h-3v-34q101 -6 101 -80q0 -37 -33.5 -59.5t-92.5 -22.5q-55 0 -105 34z" />
    <glyph glyph-name="uniF7E8" unicode="&#xf7e8;" horiz-adv-x="488" 
d="M432 0h-348v525h340v-80h-255v-140h230v-80h-230v-145h263v-80zM322 624l-39 -44l-136 125l50 61z" />
    <glyph glyph-name="uniF7E9" unicode="&#xf7e9;" horiz-adv-x="488" 
d="M432 0h-348v525h340v-80h-255v-140h230v-80h-230v-145h263v-80zM318 766l49 -61l-135 -125l-40 44z" />
    <glyph glyph-name="uniF7EA" unicode="&#xf7ea;" horiz-adv-x="488" 
d="M253 742h4l149 -118l-38 -48l-113 89l-115 -88l-38 47zM432 0h-348v525h340v-80h-255v-140h230v-80h-230v-145h263v-80z" />
    <glyph glyph-name="uniF7EB" unicode="&#xf7eb;" horiz-adv-x="488" 
d="M120 654q0 19 14 31t34 12q18 0 30.5 -12.5t12.5 -30.5q0 -20 -12.5 -33t-30.5 -13q-21 0 -34.5 12.5t-13.5 33.5zM298 654q0 18 13.5 30.5t32.5 12.5q18 0 31 -12.5t13 -30.5q0 -20 -13 -33t-31 -13q-19 0 -32.5 13t-13.5 33zM432 0h-348v525h340v-80h-255v-140h230v-80
h-230v-145h263v-80z" />
    <glyph glyph-name="uniF7EC" unicode="&#xf7ec;" horiz-adv-x="281" 
d="M202 624l-39 -44l-136 125l50 61zM183 0h-85v525h85v-525z" />
    <glyph glyph-name="uniF7ED" unicode="&#xf7ed;" horiz-adv-x="281" 
d="M218 766l49 -61l-135 -125l-40 44zM183 0h-85v525h85v-525z" />
    <glyph glyph-name="uniF7EE" unicode="&#xf7ee;" horiz-adv-x="281" 
d="M139 742h4l149 -118l-38 -48l-113 89l-115 -88l-38 47zM183 0h-85v525h85v-525z" />
    <glyph glyph-name="uniF7EF" unicode="&#xf7ef;" horiz-adv-x="281" 
d="M6 654q0 19 14 31t34 12q18 0 30.5 -12.5t12.5 -30.5q0 -20 -12.5 -33t-30.5 -13q-21 0 -34.5 12.5t-13.5 33.5zM184 654q0 18 13.5 30.5t32.5 12.5q18 0 31 -12.5t13 -30.5q0 -20 -13 -33t-31 -13q-19 0 -32.5 13t-13.5 33zM183 0h-85v525h85v-525z" />
    <glyph glyph-name="uniF7F0" unicode="&#xf7f0;" horiz-adv-x="621" 
d="M93 229h-85v75h85v221h10q36 0 75 1t89 1q158 0 235 -73q79 -73 79 -186q0 -116 -84 -193q-83 -77 -231 -77q-46 0 -83 1t-80 1h-10v229zM269 447q-13 0 -91 -3v-140h151v-75h-151v-149q18 0 37.5 -0.5t29.5 -1t15 -0.5q109 0 170 51t61 139q0 84 -58 131.5t-164 47.5z
" />
    <glyph glyph-name="uniF7F1" unicode="&#xf7f1;" horiz-adv-x="656" 
d="M572 525v-525h-69l-339 386v-386h-80v525h68l340 -387v387h80zM194 602l-33 37q53 60 110 60q24 0 58 -22t55 -22q28 0 71 35l28 -41q-56 -59 -106 -59q-23 0 -57 22t-57 22q-26 0 -69 -32z" />
    <glyph glyph-name="uniF7F2" unicode="&#xf7f2;" horiz-adv-x="655" 
d="M40 262q0 116 81 192q81 78 207 78q124 0 205 -75q82 -75 82 -195q0 -119 -82 -195q-80 -76 -205 -76q-124 0 -207 75q-81 75 -81 196zM130 262q0 -80 57 -136q56 -55 141 -55q90 0 143 54q54 54 54 137q0 84 -57 136q-56 54 -140 54q-85 0 -142 -54q-56 -53 -56 -136z
M383 624l-39 -44l-136 125l50 61z" />
    <glyph glyph-name="uniF7F3" unicode="&#xf7f3;" horiz-adv-x="655" 
d="M40 262q0 116 81 192q81 78 207 78q124 0 205 -75q82 -75 82 -195q0 -119 -82 -195q-80 -76 -205 -76q-124 0 -207 75q-81 75 -81 196zM130 262q0 -80 57 -136q56 -55 141 -55q90 0 143 54q54 54 54 137q0 84 -57 136q-56 54 -140 54q-85 0 -142 -54q-56 -53 -56 -136z
M399 766l49 -61l-135 -125l-40 44z" />
    <glyph glyph-name="uniF7F4" unicode="&#xf7f4;" horiz-adv-x="655" 
d="M327 742h4l149 -118l-38 -48l-113 89l-115 -88l-38 47zM40 262q0 116 81 192q81 78 207 78q124 0 205 -75q82 -75 82 -195q0 -119 -82 -195q-80 -76 -205 -76q-124 0 -207 75q-81 75 -81 196zM130 262q0 -80 57 -136q56 -55 141 -55q90 0 143 54q54 54 54 137
q0 84 -57 136q-56 54 -140 54q-85 0 -142 -54q-56 -53 -56 -136z" />
    <glyph glyph-name="uniF7F5" unicode="&#xf7f5;" horiz-adv-x="655" 
d="M40 262q0 116 81 192q81 78 207 78q124 0 205 -75q82 -75 82 -195q0 -119 -82 -195q-80 -76 -205 -76q-124 0 -207 75q-81 75 -81 196zM130 262q0 -80 57 -136q56 -55 141 -55q90 0 143 54q54 54 54 137q0 84 -57 136q-56 54 -140 54q-85 0 -142 -54q-56 -53 -56 -136z
M200 602l-33 37q53 60 110 60q24 0 58 -22t55 -22q28 0 71 35l28 -41q-56 -59 -106 -59q-23 0 -57 22t-57 22q-26 0 -69 -32z" />
    <glyph glyph-name="uniF7F6" unicode="&#xf7f6;" horiz-adv-x="655" 
d="M40 262q0 116 81 192q81 78 207 78q124 0 205 -75q82 -75 82 -195q0 -119 -82 -195q-80 -76 -205 -76q-124 0 -207 75q-81 75 -81 196zM130 262q0 -80 57 -136q56 -55 141 -55q90 0 143 54q54 54 54 137q0 84 -57 136q-56 54 -140 54q-85 0 -142 -54q-56 -53 -56 -136z
M194 654q0 19 14 31t34 12q18 0 30.5 -12.5t12.5 -30.5q0 -20 -12.5 -33t-30.5 -13q-21 0 -34.5 12.5t-13.5 33.5zM372 654q0 18 13.5 30.5t32.5 12.5q18 0 31 -12.5t13 -30.5q0 -20 -13 -33t-31 -13q-19 0 -32.5 13t-13.5 33z" />
    <glyph glyph-name="uniF7F8" unicode="&#xf7f8;" horiz-adv-x="654" 
d="M39 262q0 116 81 192q81 78 207 78q105 0 182 -56l55 53l46 -47l-53 -52q57 -70 57 -168q0 -119 -82 -195q-80 -76 -205 -76q-97 0 -171 47l-53 -51l-46 47l48 47q-66 73 -66 181zM129 262q0 -68 40 -118l278 271q-50 37 -120 37q-85 0 -142 -54q-56 -53 -56 -136z
M524 262q0 60 -31 106l-274 -268q50 -29 108 -29q91 0 143 54q54 54 54 137z" />
    </font>
</defs>
</svg>
