<?xml version="1.0" standalone="no"?><!DOCTYPE svg PUBLIC "-//W3C//DTD SVG 1.1//EN" "http://www.w3.org/Graphics/SVG/1.1/DTD/svg11.dtd" ><svg xmlns="http://www.w3.org/2000/svg"><metadata>Generated by Glyphter</metadata><defs><font id="Straight-North-Base" horiz-adv-x="0"><font-face units-per-em="1024" ascent="1024" descent="0" font-family="Straight-North-Base" font-weight="normal" /><missing-glyph horiz-adv-x="0" /><glyph unicode="&#x0041;" d="M996.571,813.929C996.571,813.929,27.429,813.929,27.429,813.929C12.281,813.929,0,826.21,0,841.357C0,841.357,0,914.5,0,914.5C0,929.647,12.281,941.929,27.429,941.929C27.429,941.929,996.571,941.929,996.571,941.929C1011.719,941.929,1024,929.647,1024,914.5C1024,914.5,1024,841.357,1024,841.357C1024,826.21,1011.719,813.929,996.571,813.929C996.571,813.929,996.571,813.929,996.571,813.929M996.571,448.214C996.571,448.214,27.429,448.214,27.429,448.214C12.281,448.214,0,460.495,0,475.643C0,475.643,0,548.786,0,548.786C0,563.933,12.281,576.214,27.429,576.214C27.429,576.214,996.571,576.214,996.571,576.214C1011.719,576.214,1024,563.933,1024,548.786C1024,548.786,1024,475.643,1024,475.643C1024,460.495,1011.719,448.214,996.571,448.214C996.571,448.214,996.571,448.214,996.571,448.214M996.571,82.5C996.571,82.5,27.429,82.5,27.429,82.5C12.281,82.5,0,94.781,0,109.929C0,109.929,0,183.071,0,183.071C0,198.219,12.281,210.5,27.429,210.5C27.429,210.5,996.571,210.5,996.571,210.5C1011.719,210.5,1024,198.219,1024,183.071C1024,183.071,1024,109.929,1024,109.929C1024,94.781,1011.719,82.5,996.571,82.5C996.571,82.5,996.571,82.5,996.571,82.5" class="icon-menu"/><glyph unicode="&#x0042;" d="M629.545,512C629.545,512,1014.081,896.536,1014.081,896.536C1027.973,910.427,1027.973,932.891,1014.081,946.783C1014.081,946.783,947.283,1013.581,947.283,1013.581C933.391,1027.473,910.927,1027.473,897.036,1013.581C897.036,1013.581,512.5,629.045,512.5,629.045C512.5,629.045,127.964,1013.581,127.964,1013.581C114.073,1027.473,91.609,1027.473,77.717,1013.581C77.717,1013.581,10.919,946.783,10.919,946.783C-2.973,932.891,-2.973,910.427,10.919,896.536C10.919,896.536,395.455,512,395.455,512C395.455,512,10.919,127.464,10.919,127.464C-2.973,113.573,-2.973,91.109,10.919,77.217C10.919,77.217,77.717,10.419,77.717,10.419C91.609,-3.473,114.073,-3.473,127.964,10.419C127.964,10.419,512.5,394.955,512.5,394.955C512.5,394.955,897.036,10.419,897.036,10.419C910.927,-3.473,933.391,-3.473,947.283,10.419C947.283,10.419,1014.081,77.217,1014.081,77.217C1027.973,91.109,1027.973,113.573,1014.081,127.464C1014.081,127.464,629.545,512,629.545,512C629.545,512,629.545,512,629.545,512" class="icon-close"/><glyph unicode="&#x0043;" d="M987.294,975.271C987.294,975.271,779.294,1023.265,779.294,1023.265C756.666,1028.487,733.536,1016.761,724.382,995.403C724.382,995.403,628.382,771.409,628.382,771.409C619.958,751.753,625.554,728.893,642.106,715.351C642.106,715.351,763.34,616.158,763.34,616.158C691.394,462.808,565.464,335.142,408.842,261.662C408.842,261.662,309.649,382.894,309.649,382.894C296.107,399.446,273.247,405.042,253.591,396.618C253.591,396.618,29.597,300.618,29.597,300.618C8.245,291.468,-3.489,268.34,1.735,245.706C1.735,245.706,49.729,37.706,49.729,37.706C54.717,16.092,73.995,0.5,96.499,0.5C608.674,0.5,1024.5,415.564,1024.5,928.501C1024.5,950.853,1009.072,970.247,987.294,975.271C987.294,975.271,987.294,975.271,987.294,975.271" class="icon-phone"/><glyph unicode="&#x0044;" d="M473.036,20.66C182.44,441.938,128.5,485.174,128.5,640C128.5,852.078,300.422,1024,512.5,1024C724.578,1024,896.5,852.078,896.5,640C896.5,485.174,842.56,441.938,551.964,20.66C532.894,-6.888,492.104,-6.886,473.036,20.66C473.036,20.66,473.036,20.66,473.036,20.66M512.5,480C600.866,480,672.5,551.634,672.5,640C672.5,728.366,600.866,800,512.5,800C424.134,800,352.5,728.366,352.5,640C352.5,551.634,424.134,480,512.5,480C512.5,480,512.5,480,512.5,480" class="icon-gps"/><glyph unicode="&#x0045;" d="M1010.401,138.686C1010.401,138.686,811.021,338.067,811.021,338.067C802.022,347.066,789.823,352.066,777.024,352.066C777.024,352.066,744.427,352.066,744.427,352.066C799.622,422.659,832.419,511.45,832.419,608.041C832.419,837.818,646.237,1024,416.459,1024C186.682,1024,0.5,837.818,0.5,608.041C0.5,378.263,186.682,192.081,416.459,192.081C513.05,192.081,601.841,224.878,672.434,280.073C672.434,280.073,672.434,247.476,672.434,247.476C672.434,234.677,677.434,222.478,686.433,213.479C686.433,213.479,885.814,14.099,885.814,14.099C904.612,-4.7,935.009,-4.7,953.607,14.099C953.607,14.099,1010.201,70.693,1010.201,70.693C1029,89.491,1029,119.888,1010.401,138.686C1010.401,138.686,1010.401,138.686,1010.401,138.686M416.459,352.066C275.073,352.066,160.484,466.454,160.484,608.041C160.484,749.427,274.873,864.016,416.459,864.016C557.846,864.016,672.434,749.627,672.434,608.041C672.434,466.654,558.046,352.066,416.459,352.066C416.459,352.066,416.459,352.066,416.459,352.066" class="icon-search"/><glyph unicode="&#x0046;" d="M1015.849,751.155C1015.849,751.155,970.066,796.938,970.066,796.938C959.198,807.806,941.624,807.806,930.757,796.938C930.757,796.938,512,379.106,512,379.106C512,379.106,93.243,796.938,93.243,796.938C82.376,807.806,64.802,807.806,53.934,796.938C53.934,796.938,8.151,751.155,8.151,751.155C-2.717,740.287,-2.717,722.713,8.151,711.845C8.151,711.845,492.345,227.651,492.345,227.651C503.213,216.783,520.787,216.783,531.655,227.651C531.655,227.651,1015.849,711.845,1015.849,711.845C1026.717,722.713,1026.717,740.287,1015.849,751.155C1015.849,751.155,1015.849,751.155,1015.849,751.155" class="icon-down"/><glyph unicode="&#x0047;" d="M751.121,8.629C751.121,8.629,796.904,54.412,796.904,54.412C807.74,65.248,807.74,82.818,796.904,93.656C796.904,93.656,379.055,512.5,379.055,512.5C379.055,512.5,796.904,931.346,796.904,931.346C807.74,942.182,807.74,959.751,796.904,970.59C796.904,970.59,751.121,1016.373,751.121,1016.373C740.285,1027.209,722.715,1027.209,711.877,1016.373C711.877,1016.373,227.627,532.121,227.627,532.121C216.791,521.285,216.791,503.715,227.627,492.877C227.627,492.877,711.877,8.627,711.877,8.627C722.715,-2.209,740.285,-2.209,751.121,8.629C751.121,8.629,751.121,8.629,751.121,8.629" class="icon-left"/><glyph unicode="&#x0048;" d="M273.41,1015.871C273.41,1015.871,227.627,970.09,227.627,970.09C216.791,959.254,216.791,941.685,227.627,930.846C227.627,930.846,645.476,512,645.476,512C645.476,512,227.627,93.154,227.627,93.154C216.791,82.318,216.791,64.749,227.627,53.91C227.627,53.91,273.41,8.127,273.41,8.127C284.246,-2.709,301.816,-2.709,312.654,8.127C312.654,8.127,796.904,492.377,796.904,492.377C807.74,503.213,807.74,520.783,796.904,531.621C796.904,531.621,312.654,1015.871,312.654,1015.871C301.816,1026.71,284.246,1026.71,273.41,1015.871C273.41,1015.871,273.41,1015.871,273.41,1015.871" class="icon-right"/><glyph unicode="&#x0049;" d="M8.129,273.41C8.129,273.41,53.912,227.627,53.912,227.627C64.748,216.791,82.318,216.791,93.156,227.627C93.156,227.627,512,645.476,512,645.476C512,645.476,930.846,227.629,930.846,227.629C941.682,216.793,959.251,216.793,970.09,227.629C970.09,227.629,1015.873,273.413,1015.873,273.413C1026.709,284.249,1026.709,301.818,1015.873,312.656C1015.873,312.656,531.62,796.904,531.62,796.904C520.785,807.74,503.215,807.74,492.377,796.904C492.377,796.904,8.129,312.654,8.129,312.654C-2.71,301.816,-2.71,284.246,8.129,273.41C8.129,273.41,8.129,273.41,8.129,273.41" class="icon-up"/><glyph unicode="&#x004a;" d="M68.901,802.862C68.901,802.862,955.099,802.862,955.099,802.862C1016.406,802.862,1047.06,728.817,1003.663,685.42C1003.663,685.42,560.736,242.149,560.736,242.149C533.871,215.284,490.129,215.284,463.264,242.149C463.264,242.149,20.337,685.42,20.337,685.42C-23.06,728.817,7.594,802.862,68.901,802.862C68.901,802.862,68.901,802.862,68.901,802.862" class="icon-caret-down"/><glyph unicode="&#x004b;" d="M802.723,954.999C802.723,954.999,802.723,69,802.723,69C802.723,7.65,728.548,-23.073,685.168,20.307C685.168,20.307,242.168,463.307,242.168,463.307C215.277,490.197,215.277,533.801,242.168,560.692C242.168,560.692,685.168,1003.691,685.168,1003.691C728.548,1047.075,802.723,1016.348,802.723,954.999C802.723,954.999,802.723,954.999,802.723,954.999" class="icon-caret-left"/><glyph unicode="&#x004c;" d="M222,69.501C222,69.501,222,955.5,222,955.5C222,1016.85,296.175,1047.573,339.555,1004.193C339.555,1004.193,782.555,561.193,782.555,561.193C809.446,534.303,809.446,490.699,782.555,463.808C782.555,463.808,339.555,20.809,339.555,20.809C296.175,-22.575,222,8.152,222,69.501C222,69.501,222,69.501,222,69.501" class="icon-caret-right"/><glyph unicode="&#x004d;" d="M955.499,222C955.499,222,69.5,222,69.5,222C8.15,222,-22.573,296.175,20.807,339.555C20.807,339.555,463.807,782.555,463.807,782.555C490.697,809.446,534.301,809.446,561.192,782.555C561.192,782.555,1004.191,339.555,1004.191,339.555C1047.575,296.175,1016.848,222,955.499,222C955.499,222,955.499,222,955.499,222" class="icon-caret-up"/><glyph unicode="&#x004e;" d="M512,1024C229.161,1024,0,794.839,0,512C0,229.161,229.161,0,512,0C794.839,0,1024,229.161,1024,512C1024,794.839,794.839,1024,512,1024C512,1024,512,1024,512,1024M750.865,462.452C750.865,462.452,387.51,253.935,387.51,253.935C354.89,235.768,313.806,259.097,313.806,297.29C313.806,297.29,313.806,726.71,313.806,726.71C313.806,764.697,354.684,788.232,387.51,770.065C387.51,770.065,750.865,549.161,750.865,549.161C784.723,530.168,784.723,481.239,750.865,462.452C750.865,462.452,750.865,462.452,750.865,462.452" class="icon-play"/><glyph unicode="&#x004f;" d="M401.9,0C401.9,0,401.9,458,401.9,458C401.9,458,248.5,458,248.5,458C248.5,458,248.5,640,248.5,640C248.5,640,401.9,640,401.9,640C401.9,640,401.9,783.4,401.9,783.4C401.9,939.2,497.1,1024,636.1,1024C702.7,1024,759.9,1019,776.5,1016.8C776.5,1016.8,776.5,854,776.5,854C776.5,854,680.1,854,680.1,854C604.5,854,589.9,818,589.9,765.4C589.9,765.4,589.9,640,589.9,640C589.9,640,760.5,640,760.5,640C760.5,640,737.1,458,737.1,458C737.1,458,589.9,458,589.9,458C589.9,458,589.9,0,589.9,0" class="icon-facebook"/><glyph unicode="&#x0050;" d="M918.744,720.908C919.394,711.812,919.394,702.714,919.394,693.618C919.394,416.177,708.227,96.5,322.275,96.5C203.371,96.5,92.914,130.938,0,190.712C16.894,188.764,33.136,188.114,50.68,188.114C148.791,188.114,239.107,221.25,311.229,277.779C218.965,279.729,141.645,340.155,115.004,423.323C128.001,421.375,140.995,420.075,154.641,420.075C173.483,420.075,192.327,422.675,209.869,427.221C113.706,446.715,41.582,531.182,41.582,633.192C41.582,633.192,41.582,635.79,41.582,635.79C69.52,620.196,102.01,610.45,136.445,609.152C79.916,646.838,42.882,711.162,42.882,783.935C42.882,822.919,53.276,858.655,71.47,889.843C174.781,762.493,330.071,679.326,504.202,670.228C500.954,685.822,499.004,702.064,499.004,718.308C499.004,833.965,592.568,928.177,708.873,928.177C769.299,928.177,823.877,902.837,862.213,861.903C909.644,870.999,955.126,888.543,995.412,912.583C979.816,863.851,946.68,822.917,903.148,796.929C945.382,801.475,986.316,813.173,1024,829.415C995.416,787.833,959.678,750.799,918.744,720.908C918.744,720.908,918.744,720.908,918.744,720.908" class="icon-twitter"/><glyph unicode="&#x0051;" d="M229.206,0.5C229.206,0.5,16.911,0.5,16.911,0.5C16.911,0.5,16.911,684.005,16.911,684.005C16.911,684.005,229.206,684.005,229.206,684.005C229.206,684.005,229.206,0.5,229.206,0.5C229.206,0.5,229.206,0.5,229.206,0.5M122.944,777.241C55.073,777.241,0,833.457,0,901.327C0,969.198,55.073,1024.271,122.944,1024.271C190.815,1024.271,245.888,969.198,245.888,901.327C245.888,833.457,190.815,777.241,122.944,777.241C122.944,777.241,122.944,777.241,122.944,777.241M1023.771,0.5C1023.771,0.5,811.933,0.5,811.933,0.5C811.933,0.5,811.933,333.226,811.933,333.226C811.933,412.522,810.333,514.214,701.558,514.214C591.182,514.214,574.272,428.062,574.272,338.939C574.272,338.939,574.272,0.5,574.272,0.5C574.272,0.5,362.205,0.5,362.205,0.5C362.205,0.5,362.205,684.005,362.205,684.005C362.205,684.005,565.817,684.005,565.817,684.005C565.817,684.005,565.817,590.768,565.817,590.768C565.817,590.768,568.787,590.768,568.787,590.768C597.124,644.471,666.366,701.144,769.657,701.144C984.466,701.144,1024,559.689,1024,375.959C1024,375.959,1024,0.5,1024,0.5C1024,0.5,1023.771,0.5,1023.771,0.5" class="icon-linkedin"/><glyph unicode="&#x0052;" d="M512.614,774.868C367.324,774.868,250.132,657.676,250.132,512.386C250.132,367.095,367.324,249.904,512.614,249.904C657.905,249.904,775.096,367.095,775.096,512.386C775.096,657.676,657.905,774.868,512.614,774.868C512.614,774.868,512.614,774.868,512.614,774.868M512.614,341.738C418.724,341.738,341.967,418.267,341.967,512.386C341.967,606.505,418.495,683.033,512.614,683.033C606.733,683.033,683.262,606.505,683.262,512.386C683.262,418.267,606.505,341.738,512.614,341.738C512.614,341.738,512.614,341.738,512.614,341.738M847.056,785.605C847.056,751.567,819.643,724.382,785.833,724.382C751.795,724.382,724.61,751.795,724.61,785.605C724.61,819.414,752.023,846.828,785.833,846.828C819.643,846.828,847.056,819.414,847.056,785.605C847.056,785.605,847.056,785.605,847.056,785.605M1020.902,723.468C1017.018,805.479,998.286,878.125,938.205,937.977C878.353,997.829,805.708,1016.562,723.696,1020.674C639.172,1025.471,385.828,1025.471,301.304,1020.674C219.521,1016.79,146.875,998.058,86.795,938.205C26.714,878.353,8.21,805.708,4.098,723.696C-0.699,639.172,-0.699,385.828,4.098,301.304C7.982,219.292,26.714,146.647,86.795,86.795C146.875,26.942,219.292,8.21,301.304,4.098C385.828,-0.699,639.172,-0.699,723.696,4.098C805.708,7.982,878.353,26.714,938.205,86.795C998.058,146.647,1016.79,219.292,1020.902,301.304C1025.699,385.828,1025.699,638.944,1020.902,723.468C1020.902,723.468,1020.902,723.468,1020.902,723.468M911.706,210.611C893.887,165.836,859.392,131.341,814.389,113.294C746.998,86.566,587.087,92.734,512.614,92.734C438.141,92.734,278.002,86.795,210.84,113.294C166.065,131.113,131.57,165.608,113.523,210.611C86.795,278.002,92.963,437.913,92.963,512.386C92.963,586.859,87.023,746.998,113.523,814.16C131.341,858.935,165.836,893.43,210.84,911.477C278.231,938.205,438.141,932.037,512.614,932.037C587.087,932.037,747.226,937.977,814.389,911.477C859.164,893.659,893.659,859.164,911.706,814.16C938.434,746.769,932.266,586.859,932.266,512.386C932.266,437.913,938.434,277.774,911.706,210.611C911.706,210.611,911.706,210.611,911.706,210.611" class="icon-instagram"/><glyph unicode="&#x0053;" d="M1002.603,759.844C990.826,804.187,956.127,839.111,912.07,850.963C832.214,872.499,512,872.499,512,872.499C512,872.499,191.788,872.499,111.93,850.963C67.873,839.109,33.174,804.187,21.397,759.844C0,679.468,0,511.772,0,511.772C0,511.772,0,344.076,21.397,263.7C33.174,219.357,67.873,185.888,111.93,174.036C191.788,152.5,512,152.5,512,152.5C512,152.5,832.212,152.5,912.07,174.036C956.127,185.888,990.826,219.357,1002.603,263.7C1024,344.076,1024,511.772,1024,511.772C1024,511.772,1024,679.468,1002.603,759.844C1002.603,759.844,1002.603,759.844,1002.603,759.844M407.272,359.517C407.272,359.517,407.272,664.028,407.272,664.028C407.272,664.028,674.907,511.768,674.907,511.768C674.907,511.768,407.272,359.517,407.272,359.517C407.272,359.517,407.272,359.517,407.272,359.517" class="icon-youtube"/><glyph unicode="&#x0054;" d="M1004.6,642.4C1012.4,648.6,1024,642.8,1024,633C1024,633,1024,224,1024,224C1024,171,981,128,928,128C928,128,96,128,96,128C43,128,0,171,0,224C0,224,0,632.8,0,632.8C0,642.8,11.4,648.4,19.4,642.2C64.2,607.4,123.6,563.2,327.6,415C369.8,384.2,441,319.4,512,319.8C583.4,319.2,656,385.4,696.6,415C900.6,563.2,959.8,607.6,1004.6,642.4C1004.6,642.4,1004.6,642.4,1004.6,642.4M512,384C558.4,383.2,625.2,442.4,658.8,466.8C924.2,659.4,944.4,676.2,1005.6,724.2C1017.2,733.2,1024,747.2,1024,762C1024,762,1024,800,1024,800C1024,853,981,896,928,896C928,896,96,896,96,896C43,896,0,853,0,800C0,800,0,762,0,762C0,747.2,6.8,733.4,18.4,724.2C79.6,676.4,99.8,659.4,365.2,466.8C398.8,442.4,465.6,383.2,512,384C512,384,512,384,512,384" class="icon-mail"/><glyph unicode="&#x0055;" d="M512,1024C229.229,1024,0,794.771,0,512C0,229.229,229.229,0,512,0C794.771,0,1024,229.229,1024,512C1024,794.771,794.771,1024,512,1024C512,1024,512,1024,512,1024M512,924.903C740.195,924.903,924.903,740.23,924.903,512C924.903,283.805,740.23,99.097,512,99.097C283.805,99.097,99.097,283.77,99.097,512C99.097,740.195,283.77,924.903,512,924.903M801.453,655.965C801.453,655.965,754.927,702.867,754.927,702.867C745.292,712.58,729.606,712.644,719.893,703.007C719.893,703.007,428.069,413.529,428.069,413.529C428.069,413.529,304.628,537.972,304.628,537.972C294.993,547.685,279.306,547.749,269.593,538.114C269.593,538.114,222.689,491.588,222.689,491.588C212.975,481.953,212.911,466.267,222.549,456.551C222.549,456.551,409.967,267.615,409.967,267.615C419.603,257.901,435.289,257.837,445.002,267.475C445.002,267.475,801.315,620.928,801.315,620.928C811.027,630.565,811.089,646.251,801.453,655.965C801.453,655.965,801.453,655.965,801.453,655.965" class="icon-check-circle"/><glyph unicode="&#x0056;" d="M442.769,334.12C431.827,361.412,403.697,378.416,374.389,375.51C374.389,375.51,288.023,366.894,288.023,366.894C259.115,461.312,259.115,562.684,288.025,657.104C288.025,657.104,374.387,648.488,374.387,648.488C403.711,645.562,431.821,662.584,442.767,689.878C442.767,689.878,507.725,851.894,507.725,851.894C519.693,881.742,508.545,915.776,481.221,932.814C481.221,932.814,351.301,1013.83,351.301,1013.83C324.875,1030.308,291.037,1026.456,269.011,1004.478C-3.959,732.144,-3.381,291.264,269.011,19.518C291.055,-2.473,324.897,-6.297,351.303,10.169C351.303,10.169,481.219,91.182,481.219,91.182C508.543,108.222,519.691,142.254,507.723,172.102C507.723,172.102,442.769,334.12,442.769,334.12C442.769,334.12,442.769,334.12,442.769,334.12M447.223,145.444C447.223,145.444,317.307,64.432,317.307,64.432C316.367,63.84,315.143,63.98,314.361,64.766C66.461,312.092,66.699,712.146,314.361,959.234C315.149,960.008,316.363,960.146,317.305,959.57C317.305,959.57,447.221,878.556,447.221,878.556C448.199,877.944,448.599,876.728,448.171,875.66C448.171,875.66,383.213,713.648,383.213,713.648C382.813,712.668,381.819,712.064,380.765,712.164C380.765,712.164,244.041,725.804,244.041,725.804C186.795,567.742,188.963,450.264,244.041,298.198C244.041,298.198,380.767,311.838,380.767,311.838C381.821,311.944,382.819,311.342,383.213,310.358C383.213,310.358,448.171,148.342,448.171,148.342C448.601,147.274,448.201,146.052,447.223,145.444C447.223,145.444,447.223,145.444,447.223,145.444M648.997,838.218C648.997,838.218,637.047,826.766,637.047,826.766C629.225,819.27,627.461,807.522,632.525,797.946C642.419,779.208,642.419,756.794,632.525,738.056C627.459,728.48,629.225,716.732,637.047,709.236C637.047,709.236,648.997,697.784,648.997,697.784C660.219,687.03,678.533,689.562,686.433,702.946C710.097,743.04,710.097,792.962,686.433,833.056C678.533,846.44,660.217,848.972,648.997,838.218C648.997,838.218,648.997,838.218,648.997,838.218M835.221,1017.294C835.221,1017.294,823.625,1006.18,823.625,1006.18C814.505,997.438,813.671,983.122,821.765,973.422C921.139,854.346,921.057,681.556,821.765,562.578C813.671,552.878,814.503,538.562,823.625,529.82C823.625,529.82,835.221,518.706,835.221,518.706C845.265,509.08,861.377,509.918,870.325,520.572C990.605,663.78,990.509,872.336,870.325,1015.428C861.377,1026.082,845.265,1026.92,835.221,1017.294C835.221,1017.294,835.221,1017.294,835.221,1017.294M742.821,928.154C742.821,928.154,731.185,916.996,731.185,916.996C722.385,908.558,721.189,894.806,728.615,885.134C781.687,816.006,781.683,719.99,728.615,650.866C721.189,641.194,722.385,627.444,731.185,619.004C731.185,619.004,742.821,607.846,742.821,607.846C753.139,597.952,769.753,599.172,778.533,610.454C850.633,703.098,850.749,832.752,778.533,925.546C769.753,936.828,753.139,938.048,742.821,928.154C742.821,928.154,742.821,928.154,742.821,928.154" class="icon-phone-ring"/></font>
</defs>
</svg>
